#TITLE:SYNCHRONIZED LOVE;
#SUBTITLE:(Red Monster Hyper Mix);
#ARTIST:JOE RINOIE;
#TITLETRANSLIT:;
#SUBTITLETRANSLIT:;
#ARTISTTRANSLIT:;
#CREDIT:;
#BANNER:SYNCHRONIZED LOVE (Red Monster Hyper Mix).png;
#BACKGROUND:SYNCHRONIZED LOVE (Red Monster Hyper Mix)-bg.png;
#LYRICSPATH:SYNCHRONIZED LOVE (Red Monster Hyper Mix).lrc;
#CDTITLE:./CDTITLES/DANCE MANIA EURO MIX.PNG;
#MUSIC:SYNCHRONIZED LOVE (Red Monster Hyper Mix).mp3;
#OFFSET:-0.039;
#SAMPLESTART:47.900;
#SAMPLELENGTH:12.000;
#SELECTABLE:YES;
#DISPLAYBPM:150.000;
#BPMS:0.000=150.000;
#STOPS:;
#BGCHANGES:;
// cache tags:
#FIRSTBEAT:8.000;
#LASTBEAT:231.500;
#SONGFILENAME:Songs/IzzySM Keyboard Mega Pack/SYNCHRONIZED LOVE (Oni Keyboard Edit)/SYNCHRONIZED LOVE (Red Monster Hyper Mix).sm;
#HASMUSIC:1;
#HASBANNER:1;
#MUSICLENGTH:94.332;
// end cache tags

//---------------dance-single - ----------------
#NOTES:
     dance-single:
     :
     Challenge:
     10:
     1.000,1.000,0.954,0.000,1.000,632.000,90.000,0.000,0.000,0.000:
0000
0000
0000
0000
,
0000
0000
0000
0000
,
0001
0000
0100
0000
1000
0000
0010
0000
0001
1000
0000
0010
0000
0001
1000
0100
,
0010
0000
0001
0010
0000
0100
0001
0000
0100
0010
0000
0001
1000
0100
0010
0000
,
1000
0000
0010
0000
0001
0000
0100
0000
1000
0001
0000
0100
0000
0010
1000
0000
,
0011
0000
0000
0110
0000
0000
1010
0000
0001
1000
0000
0010
0001
0010
0100
0000
,
1010
0000
0110
0000
0100
0010
0001
0010
0100
0000
1000
0000
0101
0000
0010
0000
,
1001
0000
0110
0000
0010
0001
0010
0100
1000
0000
0001
0000
1100
0000
0010
0000
,
1001
0000
0101
0000
1000
0100
1000
0010
0100
0000
0001
0000
1010
0000
0001
0000
,
0110
0000
1100
0000
0010
0001
0100
0010
1000
0000
0001
0000
0110
0000
0011
0000
,
1000
0100
0010
0001
0100
0000
0011
0000
0001
0010
0100
1000
0010
0000
0101
0000
,
1000
0010
0100
0001
1000
0000
0110
0000
0001
0100
0010
1000
0001
0000
0110
0000
,
1000
0010
0100
0001
1000
0010
0100
0001
0010
0100
1000
0001
0010
0100
1000
0100
,
1100
0000
1000
0011
0000
1100
1001
0000
,
0101
0000
0110
0000
0010
0100
1000
0100
1100
0000
0001
0000
1010
0000
0100
0000
,
1001
0000
0110
0000
0100
1000
0100
0010
0110
0000
1000
0000
0011
0000
0100
0000
,
1001
0000
1010
0000
0001
0010
0001
0100
0101
0000
1000
0000
0101
0000
1000
0000
,
0110
0000
0011
0000
0100
1000
0010
0100
0110
0000
1000
0000
0110
0000
1100
0000
,
0001
0010
0100
1000
1100
0000
1100
0000
1000
0100
0010
0001
0011
0000
1010
0000
,
0001
0100
0010
1000
1010
0000
0110
0000
1000
0010
0100
0001
0101
0000
0110
0000
,
0001
0100
0010
1000
0001
0100
0010
1000
0100
0010
0001
1000
0100
0010
0001
0010
,
0100
1000
0001
0010
0100
1000
0010
0100
0001
1000
0010
0100
0001
1000
0001
0000
,
1000
0000
0000
0000
1100
0000
0000
0010
1010
0000
0000
0000
0011
0000
0000
0000
,
0100
0000
0000
0000
1001
0000
0000
0010
0011
0000
0000
0000
1100
0000
0000
0000
,
0001
0000
0000
0000
1010
0000
0000
0100
0110
0000
0000
0001
0011
0000
0000
1000
,
1010
0000
0000
0010
1010
0000
0000
0010
0011
0000
0000
0100
1100
0000
0000
0000
,
1100
0000
0101
1100
0000
1010
0011
0000
,
1000
0010
0100
0001
0010
0000
0101
0000
0000
0000
0101
0000
1100
0000
0000
0000
,
0001
0100
0010
1000
0100
0000
0011
0000
0000
0000
0011
0000
1100
0000
0000
0000
,
1010
0000
0110
0000
1001
0100
1001
0000
,
1000
0100
1000
0010
1000
0100
1000
0001
0010
0001
0100
0001
1000
0001
0010
0001
,
1000
0010
1000
0100
0010
0001
1000
0001
1000
0010
1000
0100
0010
0001
1000
0001
,
1000
0100
0010
0001
0010
0100
1000
0010
1000
0100
0010
0001
0010
0100
1000
0010
,
1000
0100
0010
0000
0001
0000
1001
0000
,
0001
0010
0001
0100
0001
0010
0001
1000
0100
1000
0010
1000
0001
1000
0100
1000
,
0001
0100
0001
0010
0100
1000
0001
1000
0001
0100
0001
0010
0100
1000
0001
1000
,
0001
0010
0100
1000
0100
0010
0001
0100
0001
0010
0100
1000
0100
0010
0001
0100
,
0001
0010
0100
0000
1000
0000
1001
0000
,
0001
0000
0100
0100
1000
0000
1000
1000
0100
0000
0001
0001
0100
0000
0010
0010
,
1000
0010
0100
0001
0010
0100
1000
0010
1000
0100
0010
0001
0100
0010
1000
0001
,
1000
0000
0010
0010
0001
0000
0001
0001
0010
0000
1000
1000
0010
0000
0100
0100
,
0001
0100
0010
1000
0100
0010
0001
0100
0001
0010
0100
1000
0010
0100
0001
1000
,
0001
1000
0001
0100
0001
0010
0001
1000
0100
1000
0010
1000
0001
1000
0100
1000
,
0001
0100
0001
0010
0100
1000
0001
1000
0001
0100
0001
0010
0100
1000
0001
1000
,
0001
0010
0100
1000
0100
0010
0001
0100
0001
0010
0100
1000
0100
0010
0001
0100
,
0001
0010
0100
0000
1000
0000
1001
0000
,
1000
0100
1000
0010
1000
0100
1000
0001
0010
0001
0100
0001
1000
0001
0010
0001
,
1000
0010
1000
0100
0010
0001
1000
0001
1000
0010
1000
0100
0010
0001
1000
0001
,
1000
0100
0010
0001
0010
0100
1000
0010
1000
0100
0010
0001
0010
0100
1000
0010
,
1000
0100
0010
0000
0001
0000
1001
0000
,
1000
0000
0010
0010
0001
0000
0001
0001
0010
0000
1000
1000
0010
0000
0100
0100
,
0001
0100
0010
1000
0100
0010
0001
0100
0001
0010
0100
1000
0010
0100
0001
1000
,
0001
0000
0100
0100
1000
0000
1000
1000
0100
0000
0001
0001
0100
0000
0010
0010
,
1000
0010
0100
0001
0010
0100
1000
0010
1000
0100
0010
0001
0100
0010
1000
0001
,
1000
0000
0100
0000
1000
0000
0010
0000
0001
1000
0000
0010
0000
0001
1000
0100
,
0010
0000
0001
0010
0000
0100
0001
0000
0100
0010
0000
0001
1000
0100
0010
0000
,
1000
0000
0010
0000
0001
0000
0100
0000
1000
0001
0000
0100
0000
0010
1000
0000
,
0011
0000
0000
0110
0000
0000
1010
0000
1001
1001
0000
0110
0011
0110
0011
0000
;
