#TITLE:Kiranger;
#SUBTITLE:Yellow Monkey Remix;
#ARTIST:m1dy;
#TITLETRANSLIT:;
#SUBTITLETRANSLIT:;
#ARTISTTRANSLIT:;
#CREDIT:Aoreo;
#BANNER:Bn-Monkey.png;
#BACKGROUND:Bg-Monkey.png;
#LYRICSPATH:;
#CDTITLE:;
#MUSIC:KIRANGER (YELLOW MONKEY MIX).ogg;
#OFFSET:-0.105;
#SAMPLESTART:61.959;
#SAMPLELENGTH:12.000;
#SELECTABLE:YES;
#BPMS:0.000=252.000;
#STOPS:;
#BGCHANGES:;
// cache tags:
#FIRSTBEAT:4.000;
#LASTBEAT:334.000;
#SONGFILENAME:Songs/SPEEEDCOOOORE/Kiranger (Yellow Monkey Remix) - [Aoreo]/Kiranger.sm;
#HASMUSIC:1;
#HASBANNER:1;
#MUSICLENGTH:82.912;
// end cache tags

//---------------dance-single - J. Nero----------------
#NOTES:
     dance-single:
     J. Nero:
     Challenge:
     16:
     1.000,1.000,0.217,0.109,1.000,599.000,18.000,9.000,0.000,0.000:
0000
0000
0000
0000
,
1000
0100
1000
0020
0000
0000
0000
0000
,
0000
0000
0000
0000
,
0130
0001
0010
0200
0000
0000
0000
0000
,
0000
0000
0000
0000
,
1300
0010
0100
0002
0000
0000
0000
0000
,
0000
0000
0000
0000
,
0013
0100
1000
0020
0000
0000
0000
0000
,
0000
0000
0000
0000
,
0130
0010
1000
0004
0000
0000
0000
0000
,
0000
0000
0000
0000
,
1003
0100
1000
0040
0000
0000
0000
0000
,
0000
0000
0000
0000
,
0130
0001
0010
0400
0000
0000
0000
0000
,
0000
0000
0000
0000
,
1300
0010
0100
0001
1000
0000
0010
0000
,
0100
0000
0000
0000
0001
0000
0000
0000
1000
0001
1000
0001
1000
0001
1000
0001
,
1000
0010
1000
0001
0100
0010
0100
0001
1000
0001
0100
0010
0100
0010
1000
0001
,
1000
0001
0100
0001
0100
0010
1000
0010
0100
0001
1000
0010
0100
0001
1000
0001
,
0100
0010
1000
0001
1000
0010
0100
0010
0100
0001
1000
0001
1000
0010
1000
0010
,
0100
0001
0100
0001
1000
0001
1000
0001
1000
0000
0000
0000
0000
0000
0000
0000
,
0001
0100
0001
0100
0010
1000
0010
1000
0001
0100
0010
1000
0001
0100
0001
1000
,
0010
1000
0010
1000
0001
0100
0001
0100
0001
1000
0100
1000
0001
0100
0001
1000
,
0010
0100
0010
0100
0001
1000
0001
1000
0010
0100
0010
0100
0001
1000
0001
1000
,
0001
0010
0100
0010
0001
1000
0010
1000
,
0001
0000
0010
0100
0010
0001
1000
0000
,
0010
0000
1000
0001
0010
0100
0010
0000
,
0100
0000
1000
0100
1000
0010
0100
0000
,
0001
0000
0100
0001
0100
0000
0010
0000
0000
0000
0010
0000
0000
0000
0010
0000
,
1000
0100
0010
0100
1000
0000
0001
0100
,
0010
1000
0010
0100
0001
0000
1000
0100
,
0010
0100
1000
0001
0100
0000
0010
0100
,
0010
0000
1000
0000
0001
0000
0100
0000
0001
0100
0001
0100
0001
0100
0001
0100
,
0001
0000
0010
0000
0110
0000
0100
1000
,
0010
0100
0001
0000
1001
0000
1000
0010
,
0100
0000
0001
0000
0101
0000
0100
0001
,
0010
0100
1000
0000
1100
0100
1000
0010
,
0100
0000
0010
0000
0110
0000
0100
0001
,
0010
0100
1000
0000
1100
0000
0100
1000
,
0001
0000
0100
0000
0101
0000
0001
0010
,
0100
0010
0100
0000
1100
1000
0010
0100
,
0101
0000
0001
0000
1000
0001
1000
0001
1000
0000
0100
0000
0010
0000
0100
0000
,
1000
0100
1000
0100
1000
0000
0010
0000
0100
0001
0100
0001
0100
0000
0001
0000
,
0010
0000
0100
0000
1000
0000
0010
0000
0100
0001
0100
0001
0100
0000
0001
0000
,
1000
0100
0010
0100
1000
0001
1000
0010
,
0110
0000
0100
0000
0001
0000
0010
0000
0100
1000
0100
1000
0100
0000
1000
0000
,
0010
0000
0100
0000
0001
0000
1000
0000
0001
1000
0001
1000
0001
0000
0100
0000
,
0001
0100
0001
0100
0010
1000
0010
1000
0001
1000
0010
0100
0010
1000
0001
1000
,
0010
0100
0001
1000
0001
1000
0010
0100
0001
1000
0001
1000
0010
0100
0010
1000
,
0001
0010
0100
2000
0000
0000
0000
0000
,
0000
0000
0000
0000
,
3001
1000
0100
0020
0000
0000
0000
0000
,
0000
0000
0000
0000
,
0130
1000
0001
0200
0000
0000
0000
0000
,
0000
0000
0000
0000
,
0310
1000
0001
0020
0000
0000
0000
0000
,
0000
0000
0000
0000
,
0130
1000
0001
4000
0000
0000
0000
0000
,
0000
0000
0000
0000
,
3001
1000
0010
0400
0000
0000
0000
0000
,
0000
0000
0000
0000
,
0301
0010
0100
4000
0000
0000
0000
0000
,
0000
0000
0000
0000
,
3001
0100
0010
1000
0010
0100
0001
0000
,
1000
0001
1001
0000
,
1000
0001
1000
0001
0100
0001
0100
0001
0100
0010
0100
0010
1000
0001
1000
0001
,
0100
0001
0100
0010
1000
0001
1000
0010
0100
0010
0100
0001
1000
0001
1000
0100
,
1000
0100
1000
0001
1000
0001
1000
0010
0100
0010
1000
0001
0100
0010
0100
0010
,
1000
0001
1000
0001
1000
0010
0100
0010
0100
0000
0000
0000
0000
0000
0000
0000
,
0001
0100
0001
0100
0010
1000
0010
1000
0001
1000
0001
0010
0100
1000
0001
0010
,
0100
1000
0010
0100
0001
1000
0010
0100
0001
0100
0001
1000
0001
1000
0010
1000
,
0001
0100
0010
0100
0001
1000
0001
1000
0010
0100
0010
0100
0001
1000
0010
1000
,
0010
0100
0001
1000
0001
0100
0010
1000
0010
1000
0001
0100
0010
1000
0010
0100
,
0001
0100
0001
0010
0100
0010
0001
1000
,
0001
1000
0100
0010
0100
1000
0010
0100
,
0001
1000
0001
0100
0010
1000
0100
0010
,
0100
0000
1000
0000
0001
0000
0100
0000
0010
0000
1000
0000
0001
1000
0001
1000
,
0001
0000
0000
0000
1001
0000
0000
0000
1000
0001
1000
0001
0100
0001
0100
0001
,
0100
0010
1000
0010
1000
0001
1000
0001
1000
0010
0100
0010
0100
0001
1000
0010
,
0100
0010
1000
0001
0100
0001
0100
0010
1000
0010
1000
0001
0100
0001
0100
0001
,
1000
0100
1000
0100
0010
0001
0010
0001
1000
0010
1000
0010
0100
0001
0100
0001
,
0200
0000
0000
0000
,
0000
0000
0000
0000
,
0000
0000
0300
0000
;
