#TITLE:You can tell me in HELL;
#SUBTITLE:;
#ARTIST:LOLIPO;
#TITLETRANSLIT:;
#SUBTITLETRANSLIT:;
#ARTISTTRANSLIT:;
#CREDIT:Rynker;
#BANNER:you can tell me bn.png;
#BACKGROUND:you can tell me bg.png;
#LYRICSPATH:;
#CDTITLE:;
#MUSIC:lolipo -  You can tell me in HELL.ogg;
#OFFSET:-0.240;
#SAMPLESTART:94.261;
#SAMPLELENGTH:12.000;
#SELECTABLE:YES;
#DISPLAYBPM:220.000;
#BPMS:0.000=220.000;
#STOPS:;
#BGCHANGES:;
// cache tags:
#FIRSTBEAT:15.000;
#LASTBEAT:712.500;
#SONGFILENAME:Songs/SPEEEDCOOOORE 3/You can tell me in HELL - [Rynker]/youcantellmeinhell.sm;
#HASMUSIC:1;
#HASBANNER:1;
#MUSICLENGTH:195.037;
// end cache tags

//---------------dance-single - Rynker----------------
#NOTES:
     dance-single:
     Rynker:
     Challenge:
     15:
     1.000,1.000,0.261,0.318,1.000,1499.000,51.000,62.000,42.000,0.000:
0000
0000
0000
0000
,
0000
0000
0000
0000
,
0000
0000
0000
0000
,
0000
0000
0000
0000
0000
0000
0000
0000
0000
0000
0000
0000
0001
0100
0010
1000
,
0002
0000
1003
0100
0010
0001
1000
0001
,
0100
0000
0010
0000
0100
0000
0001
0000
0010
0000
0100
0000
1000
0001
0100
0000
,
0001
1000
0001
0000
1000
0000
0000
0100
0010
0000
0001
0000
0100
0000
0010
0000
,
0100
0000
0002
1003
0002
1003
0100
1000
,
1001
0000
0000
0000
0001
0000
0100
0000
0010
0000
0000
1000
0001
0000
0010
0000
,
0000
0001
0010
0000
0100
0000
0100
0000
1000
0000
0001
0000
1000
0001
0010
0001
,
0010
0100
1000
0001
1000
0000
0000
0000
0001
0000
0100
0000
0010
1000
0001
1000
,
0001
0010
0100
1000
0000
0000
0000
0000
0001
0000
0001
0000
1000
0000
0100
0000
,
1000
0000
0100
0000
1000
0001
0100
0010
0100
0001
1000
0100
0010
0100
1000
0001
,
0100
0010
0100
0001
1000
0100
0010
0100
1000
0001
0100
0001
1000
0100
0010
0001
,
1000
0000
0000
0000
0001
0100
0010
1000
0001
0010
0100
0010
0001
1000
0010
0100
,
0010
1000
0100
0010
0100
1000
0001
0100
0020
0000
0030
0000
0100
0010
0100
0001
,
2000
0000
0000
0000
3001
0010
0100
1000
0001
0100
0010
0100
0001
1000
0100
0010
,
0001
0010
0100
1000
0001
0100
0010
0100
0001
0000
0010
0000
0001
0000
0010
0000
,
0001
0000
0000
0001
0100
0010
0000
0000
4000
0000
0000
0000
3100
0010
0001
1000
,
0001
0100
0010
0100
0002
0000
0000
0000
0000
0000
0000
0000
0000
0000
0003
0000
,
0000
0000
1100
0000
0000
1001
0000
0101
,
0000
0000
1001
0000
1100
0000
0000
0101
,
0000
0000
1001
0000
0000
1100
0000
0101
,
0000
0000
0000
0000
1001
0000
0000
1001
0000
0000
1001
0000
1100
0000
0000
0000
,
0004
0000
0000
0003
1100
0000
0000
0000
0000
0000
1001
0000
0000
0000
0101
0000
,
0000
0000
1001
0000
0101
0000
0000
1100
,
0000
0000
0101
0000
0000
1001
0000
1100
,
0000
0000
0000
0000
,
0000
0000
0000
0000
0001
0100
0010
0100
0001
1000
0100
0010
0100
1000
0001
0100
,
0001
1000
0100
0010
0001
0010
0100
1000
0001
0100
0010
0100
0001
1000
0100
0010
,
0001
1000
0001
0100
0010
0100
0001
1000
0100
0010
0100
1000
0001
0100
0010
0100
,
0001
1000
0100
1000
0001
0010
0001
0100
0010
0100
0001
1000
0001
1000
0100
0010
,
0002
0000
2003
0000
3001
0100
0010
0100
0010
1000
0001
1000
0100
0010
0001
1000
,
0001
0100
0010
1000
0001
0100
0001
1000
0100
0010
0001
0010
0100
1000
0001
0100
,
0010
0100
0001
1000
0100
0010
0100
1000
0001
0100
0001
1000
0100
0010
0001
0010
,
0100
1000
0001
0100
0002
0000
0000
0000
0403
0000
0000
0000
0310
0000
1000
0000
,
1000
0001
0010
0100
1000
0001
0100
0010
,
0100
0001
0010
0100
1000
0010
0100
0001
,
0100
0001
1000
0100
0010
0001
1000
0001
,
0100
0010
0100
0001
1000
0100
0010
0100
,
1000
0000
0001
0000
0100
0001
1000
0100
0010
0100
1000
0001
0100
0010
0100
0001
,
1000
0100
0010
0001
0010
0100
1000
0001
0100
0010
0100
0001
1000
0100
1000
0001
,
0010
0000
0000
0000
0000
0000
0000
0000
0000
0000
0000
0000
0001
0000
0000
0000
0000
0000
0000
0000
0000
0000
0000
0000
0100
0000
0000
0000
0000
0000
0000
0000
0000
0000
0000
0000
0010
0000
0000
0000
0000
0000
0000
0000
0000
0000
0000
0000
0100
0000
0000
0000
0000
0000
0000
0000
0000
0000
0000
0001
0000
0000
0000
0000
0000
0000
0000
0000
0000
0000
1000
0000
0000
0000
0000
0000
0000
0000
0000
0000
0000
0100
0000
0000
0000
0000
0000
0000
0000
0000
0000
0000
0010
0000
0000
0000
0000
0000
0000
0000
0000
0000
0000
0001
0000
0000
0000
0000
0000
0000
0000
0000
0000
0000
1000
0000
0000
0000
0000
0000
0000
0000
0000
0000
0000
0001
0000
0000
0000
0000
0000
0000
0000
0000
0000
0000
0100
0000
0000
0000
0000
0000
0000
0000
0000
0000
0000
0010
0000
0000
0000
0000
0000
0000
0000
0000
0000
0000
1000
0000
0000
0000
0000
0000
0000
0000
0000
0000
0000
0001
0000
0000
0000
0000
0000
0000
0000
0000
0000
0000
0010
0000
0000
0000
0000
0000
0000
0000
0000
0000
0000
0100
,
0000
0000
0000
0000
0000
0000
0000
0000
0000
0000
1000
0000
0000
0000
0000
0000
0000
0000
0000
0000
0000
0001
0000
0000
0000
0000
0000
0000
0000
0000
0000
0000
0100
0000
0000
0000
0000
0000
0000
0000
0000
0000
0000
0000
0000
0000
0000
0000
0040
0000
0000
0000
0000
0000
0000
0000
0000
0000
0000
0000
0000
0000
0000
0000
0000
0000
0000
0000
0000
0000
0000
0000
0000
0000
0000
0000
0000
0000
0000
0000
0000
0000
0000
0000
0000
0000
0000
0000
0000
0000
0000
0000
0000
0000
0000
0000
4030
0000
0000
0000
0000
0000
0000
0000
0000
0000
0000
0000
0000
0000
0000
0000
0000
0000
0000
0000
0000
0000
0000
0000
0000
0000
0000
0000
0000
0000
0000
0000
0000
0000
0000
0000
0000
0000
0000
0000
0000
0000
0000
0000
0000
0000
0000
0000
3100
0000
0000
0000
0000
0000
0000
0000
0000
0000
0000
0000
0010
0000
0000
0000
0000
0000
0000
0000
0000
0000
0000
0000
0001
0000
0000
0000
0000
0000
0000
0000
0000
0000
0000
0000
1000
0000
0000
0000
0000
0000
0000
0000
0000
0000
0000
0000
,
0002
0003
0000
0000
,
0000
0000
0000
0000
,
0000
0000
0000
0000
,
0000
0000
0000
1001
,
0001
0100
0010
0000
1000
0000
1001
0000
,
1000
0100
0010
0000
0001
0000
1001
0000
,
1000
0010
0100
0001
0100
0001
0000
0001
,
0000
0100
0001
0000
0100
0001
0000
1000
,
0100
0010
0001
1000
0010
0000
0000
0100
,
0000
0010
0000
0010
0100
0010
1000
0001
,
0010
0100
1000
0001
0100
0010
0000
0010
,
0000
0100
0010
0000
0100
0010
0000
1000
,
0001
0010
0100
1000
0001
0100
0000
0100
,
0000
0001
0100
0000
0001
0100
0000
0010
,
1000
0001
0010
0100
1000
0001
0000
0001
,
0000
1000
0001
0000
1000
0001
0000
0100
,
0010
1000
0100
0010
0001
0000
0000
1000
,
0000
0001
0000
0001
1000
0001
0010
0100
,
1000
0001
0101
0000
0000
0000
2000
0000
,
0000
3000
0100
0000
1000
0100
0000
0010
,
0100
1000
2002
0000
3003
0000
0020
0000
,
0030
0000
1001
0000
1100
1100
0000
0000
,
2000
0000
0000
0000
3001
0000
0100
0000
0001
0000
1000
0000
0100
1000
0100
0000
,
1000
0001
0020
0000
0230
0000
1300
0000
,
0000
0000
0000
0000
1001
0000
0000
0000
0000
0000
0000
0000
0001
0100
0001
1000
,
0100
1000
0001
0100
0001
1000
0100
1000
0001
0100
0001
1000
0100
1000
0001
0100
,
0001
1000
0100
1000
0002
0000
0003
0000
0000
0000
0000
0000
1000
0100
0010
0001
,
0000
0000
0000
0000
1001
0000
0000
0000
0000
0000
0000
0000
0001
0100
0001
0000
,
0100
0000
0010
0000
1000
0000
0001
0010
0100
0000
0000
0000
2000
0000
3000
0000
,
0001
0000
1001
0000
1000
0000
0200
0300
,
0010
0000
0001
0000
1000
0001
1000
0001
1000
0000
0000
0000
0101
0000
0000
0000
,
0001
0000
0000
0000
1100
0000
0000
0000
1000
0000
0000
0000
0101
0000
0000
0001
,
1000
0000
0100
0000
0010
0000
0000
0000
0001
0000
0000
0000
1000
0001
1000
0000
,
0001
0000
0100
0000
0000
0000
0000
0000
0000
0000
0000
0000
M000
M000
M000
0000
,
M000
0000
0000
0000
0001
0100
0010
0100
0001
0000
1000
0100
0010
0000
0100
1000
,
0010
0000
0100
0001
1000
0001
0100
0001
2000
3000
0001
0010
0200
0300
1000
0100
,
0010
0000
0001
1000
0010
0100
0001
0100
0001
0000
1000
0001
0020
0030
0100
1000
,
0010
0000
0100
0001
1000
0100
0010
0001
1000
0000
0001
0010
0000
0000
0000
0000
,
0000
0000
0000
0000
0100
1000
0100
0000
0010
0001
0010
0000
0004
0000
1003
0000
,
0010
0100
0010
0100
0001
1000
0100
0000
1000
0001
0100
0000
0001
0100
0010
0000
,
1000
0001
0010
0100
0010
0100
1000
0000
0001
0100
0001
0000
4000
0000
3001
0000
,
0010
0001
1000
0001
0100
0010
0100
0000
0001
1000
0001
0000
2000
0000
0000
0000
,
0000
0000
3000
0000
0100
1000
0001
0010
0001
0000
1000
0001
0100
0000
0010
1000
,
0100
0000
0010
0001
1000
0010
0100
0001
1000
0000
0100
1000
0010
0000
0100
0001
,
1000
0000
0100
0010
0001
0010
0100
1000
0001
0000
0010
0001
1000
0000
0010
1000
,
0100
0000
1000
0001
0100
0010
0100
0001
1000
0000
0001
0010
0000
0000
0000
0000
,
0000
0000
0000
0000
0001
0100
0010
0000
1000
0010
0100
0000
0010
1000
0100
0000
,
0010
0001
1000
0001
0100
0010
0100
0000
0001
0010
0100
0000
1000
0100
0010
0000
,
0001
0010
0100
1000
0001
0100
0010
0000
0100
0001
1000
0000
0100
1000
0010
0000
,
0100
0001
0100
0001
2000
0000
0000
0000
0000
0000
0000
0000
3000
0000
0000
0000
,
0000
0000
0000
M000
M002
M000
0000
M000
0103
0010
0100
0001
1000
0100
0010
0100
,
1000
0001
0010
0001
1000
0001
0100
0010
0100
0001
1000
0100
1000
0100
0010
0001
,
1000
0001
0100
0010
2M00
0M00
0M00
0000
3M01
0010
0001
1000
0100
0010
0001
1000
,
0001
0100
0010
0100
0001
1000
0100
0010
0100
1000
0001
0100
0020
0000
0000
0000
,
0230
0000
0000
0000
0301
0010
0100
1000
0001
0100
0010
0100
0001
1000
0100
1000
,
00M2
00M0
00M0
0000
10M3
0100
0010
0100
1000
0001
0100
0001
1000
0100
0010
0100
,
200M
000M
000M
0000
310M
0010
0100
1000
0001
1000
0001
0010
0100
1000
0001
1000
,
0001
0000
0000
0000
1000
0001
1000
0001
,
1000
0001
1000
0000
0100
0000
0010
0000
0001
0000
0100
0000
0010
0000
0100
0000
,
0001
1000
0100
0010
0001
0100
0010
1000
,
0001
0100
0010
1000
0100
0010
0001
0100
,
0010
0100
0001
1000
0100
0010
0100
1000
,
0002
0000
0000
0003
1100
0000
0000
0000
1001
0000
0000
0000
0101
0000
0000
0000
,
0101
0100
0001
1000
1001
0000
1100
0100
,
1000
0001
1001
0000
0000
0000
0000
0000
,
0000
0000
0000
0000
,
0000
0000
0000
0001
0100
0001
0000
1000
,
0100
1000
0000
0001
0100
0001
0000
1000
,
0100
1000
0000
0001
0100
0001
0000
1000
,
0100
1000
0000
0001
0100
0001
0000
1000
,
0100
0000
1000
0000
0001
0000
0100
0000
0010
0000
1000
0100
1000
0001
0100
0000
,
0010
0000
1000
0000
0100
0010
0001
0000
1000
0000
0001
0100
0010
0000
1000
0000
,
0001
0100
0010
1000
0001
0000
0000
0000
1000
0100
1000
0000
0100
0000
0000
0010
,
0001
0010
0001
0000
1000
0000
0000
0000
1000
0000
0000
0000
0001
0000
1000
0100
,
1000
0001
0100
0000
0010
1000
0010
0100
0001
1000
0100
0010
0100
1000
0001
0100
,
0010
0100
0001
1000
0100
0010
0100
1000
0001
0100
0010
0100
0001
1000
0100
0010
,
0100
1000
0001
0100
0010
1000
0001
1000
0001
0100
0010
0100
0001
1000
0100
0010
,
0100
1000
0001
0100
0010
0100
0001
1000
0100
1000
0001
0010
0001
1000
0100
0010
,
0001
0000
0000
0000
1000
0001
0100
0001
1000
0010
0100
0001
1000
0100
0010
0100
,
1000
0001
0100
0010
0100
0001
1000
0100
0010
0001
1000
0001
0100
0010
0100
0001
,
1000
0100
1000
0001
0010
0001
1000
0010
0100
0001
1000
0010
0100
0001
1000
0100
,
0010
0100
1000
0001
0010
0000
0000
0000
0000
0000
0000
0000
0000
0000
0000
0000
,
0000
0000
0000
0000
0001
0010
0100
1000
0001
0100
0010
0100
0001
1000
0100
0010
,
0001
1000
0001
0100
0010
0100
0001
1000
0100
0010
0100
1000
0001
0100
0001
1000
,
0100
0010
0100
1000
0001
0100
0001
1000
0100
0010
0100
1000
0001
0100
0010
1000
,
0001
0010
0100
0010
0001
1000
0001
0100
0010
1000
0001
0100
0010
1000
0001
0010
,
0100
0000
0000
0000
1000
0100
0010
0001
1000
0100
1000
0001
0100
0010
0100
0001
,
1000
0100
0010
0001
1000
0001
0100
0010
0100
0001
1000
0100
1000
0001
0010
0001
,
1000
0001
0100
0010
1000
0010
0100
0001
1000
0001
1000
0100
0010
0001
1000
0001
,
0010
0100
1000
0001
1000
0100
0010
0001
1000
0000
0001
0000
0000
0000
0000
0000
,
0000
0000
0001
1000
0100
0010
0000
0010
,
0000
0100
0010
0000
0100
0010
0000
0001
,
1000
0010
0100
0001
1000
0100
0000
0100
,
0000
1000
0100
0000
1000
0100
0000
0010
,
0001
1000
0010
0100
0001
1000
0000
1000
,
0000
0001
1000
0000
0001
1000
0000
0100
,
0010
0001
0100
0010
1000
0000
0000
0001
,
0000
0010
0000
0100
0000
0010
0100
0000
,
4000
3000
1001
0001
0100
0010
1000
0010
,
0100
0001
0001
1000
0100
0100
0010
0002
,
2003
3020
0230
0301
1000
0100
0010
0100
,
1000
0001
0001
0100
0010
0010
1000
0002
,
0023
0230
2300
3001
0100
0010
0000
0010
,
0000
1000
0010
0000
1000
0010
0000
1000
,
0100
0010
0001
0100
0010
0000
0000
1000
,
0000
0001
0010
0010
0100
0000
1001
0000
,
2000
0000
3001
0100
0010
0100
0001
1000
,
0010
0100
0100
0001
1000
1000
0010
0100
,
0001
2000
3200
0320
0032
1003
0010
0100
,
0001
0000
1000
0000
0001
0100
0001
1000
0001
0000
0000
0000
1000
0000
0000
0000
,
0100
0000
0200
0320
0032
2003
3001
0100
,
0010
1000
1000
0001
0100
0100
0001
2000
,
3200
0320
0032
1003
0010
0000
0000
0100
,
0000
0000
0000
0000
0002
0003
0000
0000
0000
0000
0000
0000
0200
0300
0000
0000
0000
0000
0000
0000
0002
0003
0000
0000
0200
0300
0000
0000
0000
0000
0000
0000
,
0004
0000
0000
0003
1000
0100
0010
0001
0010
0000
0001
0100
0001
0000
1000
0010
,
1000
0000
0001
0100
0010
1000
0001
1000
0100
0000
1000
0100
0010
0000
0001
0010
,
0100
0000
1000
0001
0100
0010
1000
0001
1000
0000
0100
0010
0001
0000
0010
0100
,
1000
0000
0001
0010
0001
1000
0010
1000
0001
0000
0100
0001
0100
0000
0000
0000
,
0000
0000
0000
0000
0010
1000
0010
0000
0100
0001
0100
0000
0001
1000
0100
0000
,
0010
0001
1000
0001
0100
0010
1000
0000
0100
1000
0001
0000
0010
0001
1000
0000
,
0100
0010
0001
0010
0100
1000
0001
0000
0100
0010
1000
0000
0001
0010
0100
0000
,
1000
0010
0100
0010
0100
0001
1000
0000
0001
0010
0001
1000
0001
1000
0001
1000
,
0001
0000
0000
0000
1000
0100
0010
0100
0010
0000
0001
0010
0100
0000
1000
0001
,
0100
0000
0001
1000
0010
0100
0001
1000
0001
0000
0100
0001
1000
0000
0001
1000
,
0010
0000
1000
0001
0010
0100
1000
0100
0010
0000
0001
0010
0100
0000
0010
0001
,
0100
0000
0010
1000
0010
0100
0001
1000
0001
0000
1000
0001
1000
0000
0000
0000
,
0000
0000
0000
0000
0001
0010
0001
0000
1000
0100
1000
0000
0010
1000
0100
0000
,
1000
0001
0010
0001
1000
0001
1000
0000
0100
0010
0001
0000
0010
0100
1000
0000
,
0001
0100
0010
0000
2000
0000
0000
0000
3002
0000
0000
0000
0203
0000
0000
0000
,
0320
2030
0000
3000
,
0000
0000
0000
0000
,
0000
0000
0000
0000
,
0000
0000
0000
0000
,
00M0
00M0
00M0
00M0
00M0
00M0
00M0
00M0
00M0
0000
000M
0000
00M0
0000
0M00
0000
M000
0000
00M0
0000
0M00
0000
00M0
0000
M000
0000
0M00
0000
00M0
0000
000M
0000
,
0M00
00M0
0000
0000
0000
0000
0000
0000
;
