#TITLE:Candyman;
#SUBTITLE:;
#ARTIST:Aqua;
#TITLETRANSLIT:;
#SUBTITLETRANSLIT:;
#ARTISTTRANSLIT:;
#CREDIT:;
#BANNER:;
#BACKGROUND:;
#LYRICSPATH:;
#CDTITLE:;
#MUSIC:Candyman.ogg;
#OFFSET:-0.080;
#SAMPLESTART:43.245;
#SAMPLELENGTH:12.000;
#SELECTABLE:YES;
#BPMS:0.000=139.000;
#STOPS:;
#BGCHANGES:;
// cache tags:
#FIRSTBEAT:0.000;
#LASTBEAT:216.000;
#SONGFILENAME:Songs/toune/Candyman (Lil Guy)/Candyman.sm;
#HASMUSIC:1;
#HASBANNER:0;
#MUSICLENGTH:93.569;
// end cache tags

//---------------dance-single - Steps by Lil Guy----------------
#NOTES:
     dance-single:
     Steps by Lil Guy:
     Challenge:
     10:
     0.773,0.779,0.930,0.342,0.240,387.000,87.000,32.000,0.000,0.000:

1001
0010
0100
0001
1000
0100
0010
0001
,
1001
0000
0001
0000
1000
0000
0010
0000
1000
0000
0100
0000
1000
0100
1000
0010
,
0100
0010
0110
0100
0001
1000
0100
0010
,
0011
0001
0010
0001
1000
0100
0011
0101
,
0100
0010
0200
0000
0320
0000
2030
0000
,
3100
0000
1000
0000
0100
0000
1000
0000
0001
0000
0100
0000
1001
0000
1000
0001
,
1000
0001
0200
0000
0302
0000
2003
0000
,
3010
0100
0001
1000
0010
0100
0101
0100
,
0001
1000
0002
0000
0203
0000
0320
0000
,
1030
0000
0100
0000
0010
0000
0001
0000
0100
0000
0010
0000
1010
0000
1000
0010
,
1000
0010
2000
0000
3200
0000
0302
0000
,
0103
1000
0010
0100
0001
1000
1001
0000
,
0011
0100
0110
0010
1010
0100
0101
0010
,
0011
0000
0001
0000
1001
0000
0010
0000
0110
0000
0100
0000
0010
0100
0010
0100
,
0010
0100
0110
0010
1010
0010
1001
0010
,
0101
0001
0011
0001
1100
0100
1010
1010
,
0101
0010
0200
0310
2000
3100
0020
0031
,
0200
0000
0310
0000
2000
0000
3010
0000
2000
0000
3001
0000
1000
0100
0010
0001
,
0100
0010
0110
0010
1010
0100
1100
0010
,
1001
0000
0001
0000
0100
0010
1000
0100
0010
0001
0010
0001
1000
0010
0100
0001
,
0100
0101
1010
0100
,
0010
0000
0000
0000
0101
0000
0000
0001
1001
0000
0001
0000
1000
0000
0000
0000
,
0000
0001
1010
0100
,
1001
0000
0000
0000
0010
0000
0000
1000
1100
0000
0100
0000
1000
0000
0000
0000
,
0000
1000
0010
0101
,
1001
0000
0000
0000
0100
0000
0000
0010
1010
0000
1000
0000
0100
0000
0000
0000
,
0000
1001
0110
0010
,
1000
0000
0000
0000
1001
0000
0000
0100
0101
0000
0001
0000
1000
0000
0002
0000
,
0000
0010
0010
1000
1003
0010
0101
0001
,
2000
0000
3010
0100
0001
0010
1001
0002
,
0000
0100
0000
0010
0013
0000
0011
0000
,
1010
0000
0100
0001
1000
0100
0010
0000
,
0011
0000
0001
0010
0100
0000
0010
0100
,
0020
0000
0031
0100
0010
1000
0100
1000
,
0000
0010
0000
1010
1100
0000
1000
1100
,
1000
0000
0000
0000
0110
0000
0100
0000
0001
0100
0001
0000
0010
0100
0010
0000
,
0110
0000
0000
0000
1010
0000
0000
0000
2200
0000
0000
0000
3300
0000
1000
0100
,
1000
0010
0100
0001
1000
0100
0010
0001
0100
0010
0100
0001
1000
0000
0010
0000
,
0110
0000
0000
0000
1001
0000
0000
0000
1010
0000
0000
0000
0000
0000
0010
1000
,
0100
1000
0010
0100
0001
1000
0001
0100
0020
0000
0000
0000
0030
0000
0000
0000
,
2000
0000
3100
0000
0020
0000
0031
0000
0200
0000
0300
0000
0000
0000
0010
0100
,
0010
1000
0100
0010
0001
0100
0010
1000
0001
0100
0010
0100
0010
0000
0100
0000
,
0101
0000
0110
0000
1010
0000
0100
0001
,
1000
0000
0000
1001
1001
0000
0020
0000
,
0130
0010
1010
0100
1001
0010
0101
0100
,
1010
0000
0100
0000
0010
0000
1000
0000
0001
0000
0100
0000
0010
1000
0100
0010
,
0001
0100
0110
0000
1001
0000
0011
0000
,
1010
0100
0010
0010
1000
1000
0101
0000
,
0001
0100
1010
0000
0110
0000
0011
0000
,
1001
0000
0001
0000
0100
0000
0010
0000
0100
0000
0001
0000
0010
0001
0010
0001
,
1000
1001
0110
1001
,
0110
0000
0020
0130
0002
0013
0002
0003
,
1010
0100
0110
0010
1001
0100
0101
0010
,
1010
0000
0100
0000
1100
0000
1000
0000
0001
0000
1000
0000
0100
0010
0001
0010
,
0100
0000
0000
0000
;
