#TITLE:Ice Cap Zone Act 1;
#SUBTITLE:(Remake);
#ARTIST:VGMusic's Jago & SpoOkyMagician;
#TITLETRANSLIT:;
#SUBTITLETRANSLIT:;
#ARTISTTRANSLIT:;
#CREDIT:Owem;
#BANNER:../banner.png;
#BACKGROUND:../bg.png;
#LYRICSPATH:;
#CDTITLE:../cdtitleowem.png;
#MUSIC:Ice_Cap_Zone_Act_1_Remake.ogg;
#OFFSET:0.000;
#SAMPLESTART:6.857;
#SAMPLELENGTH:20.571;
#SELECTABLE:YES;
#BPMS:0.000=140.000;
#STOPS:;
#BGCHANGES:;
// cache tags:
#FIRSTBEAT:0.000;
#LASTBEAT:159.750;
#SONGFILENAME:Songs/Owem's Simfiles 08 - 1.2/Ice Cap Zone Act 1 - [Braeden] v1.0.1/Ice Cap Zone Act 1.sm;
#HASMUSIC:1;
#HASBANNER:1;
#MUSICLENGTH:68.571;
// end cache tags

//---------------dance-single - 12- (Braeden)----------------
#NOTES:
     dance-single:
     12- (Braeden):
     Challenge:
     12:
     1.000,0.961,0.000,0.000,1.000,536.000,0.000,0.000,26.000,0.000:
1000
0000
0001
0000
0100
0000
0010
1000
0M01
0000
0010
0000
0100
0000
1000
0001
,
0M10
0000
0100
0000
1000
0000
0001
0010
M100
0000
0010
0000
0001
0000
1000
0001
,
0M10
0000
0001
0000
1000
0000
0100
0010
M001
0000
1000
0000
0010
0000
1000
0100
,
100M
0000
0010
0000
0100
0000
0001
0010
0001
0000
1000
0000
0001
0000
0100
0010
,
M100
0000
1000
0000
0100
0000
0010
0001
1M00
0000
0010
0000
0100
0000
0001
0010
,
M100
0000
0010
0000
0001
0000
1000
0001
0M10
0000
0001
0000
1000
0000
0100
0010
,
M001
0000
0010
0000
0100
0000
1000
0001
0M10
0000
0001
0000
1000
0000
0100
0010
,
M100
0000
0010
0000
0001
0000
1000
0010
1000
0000
0100
0000
0010
0000
0100
0000
,
1000
0100
0010
0001
1000
0010
0100
0001
1000
0100
0010
0001
0010
0100
1000
0001
,
0100
0010
1000
0001
0010
0100
1000
0010
0100
0001
0010
0001
1000
0100
0000
0100
,
1000
0010
1000
0010
0100
0001
0010
0001
1000
0100
0010
0001
1000
0010
0100
0001
,
1000
0100
1000
0010
0100
0001
0010
0001
1000
0100
0010
0001
1000
0010
0100
0001
,
1000
0100
1000
0010
0100
0001
0010
0001
0100
0001
1000
0010
0100
0001
1000
0100
,
0010
0001
0010
0100
1000
0001
0100
0010
0100
0001
1000
0010
0100
0001
0000
1000
,
0001
0010
0001
1000
0100
1000
0001
0100
0001
1000
0010
1000
0001
0010
0001
1000
,
0100
1000
0001
0010
0100
1000
0010
0100
0001
0010
0001
1000
0100
0010
0001
1000
,
0010
0000
0100
0000
0001
0000
1000
0001
01M0
0000
0001
0000
1000
0000
0100
1000
,
00M1
0000
0100
0000
0001
0000
0100
0001
10M0
0000
0100
0000
0010
0000
0001
1000
,
01M0
0000
1000
0000
0001
0000
0010
0100
10M0
0000
0100
0000
0010
0000
0001
1000
,
01M0
0000
1000
0000
0001
0000
0010
0100
1000
0000
0100
0000
0010
0000
0001
1000
,
0M01
0000
0001
0000
0100
0000
0010
0100
M010
0000
0100
0000
0001
0000
1000
0010
,
100M
0000
0100
0000
0010
0000
0001
0010
M100
0000
0010
0000
0001
0000
1000
0100
,
001M
0000
0100
0000
1000
0000
0001
0010
M100
0000
0010
0000
0001
0000
1000
0100
,
001M
0000
0100
0000
1000
0000
0001
0010
0001
0000
1000
0000
0001
0000
1000
0000
,
0001
0010
0001
0100
0001
1000
0100
1000
0010
1000
0001
0010
0100
1000
0001
0100
,
0010
1000
0100
0010
0001
0010
0100
1000
0001
0100
0010
1000
0001
0010
0000
0001
,
1000
0100
1000
0001
0010
0100
1000
0001
0100
0010
0100
0001
0010
0001
1000
0100
,
0010
0001
0010
0001
1000
0100
1000
0001
0010
0100
1000
0001
0100
0010
1000
0100
,
1000
0001
0010
0001
1000
0100
0010
0001
1000
0010
0100
0001
0010
0001
1000
0100
,
0010
0100
1000
0001
0100
0010
0100
0001
0010
0001
1000
0100
1000
0001
0000
0001
,
1000
0100
0010
0001
0010
0100
1000
0001
0100
0010
0100
0001
0010
0001
1000
0100
,
0010
0001
0010
0100
1000
0001
0100
0010
0100
0001
0010
0001
1000
0100
0010
0001
,
1000
0100
0010
0100
1000
0001
0100
0010
1000
0100
0010
0001
1000
0010
0100
0001
,
1000
0100
1000
0001
0100
0010
0100
0001
1000
0010
0100
0001
1000
0001
0000
0001
,
1000
0001
0010
0100
1000
0001
0010
0100
1000
0001
0100
0010
0100
0001
1000
0100
,
0010
0100
1000
0001
0100
0010
0100
0001
0010
0001
1000
0100
0010
0100
1000
0001
,
0100
0010
0100
0001
0010
0100
1000
0100
0010
0001
0100
0010
1000
0001
0010
0100
,
1000
0001
0100
0010
0100
0001
0010
0001
1000
0100
0010
0001
1000
0001
0000
0001
,
0100
0010
1000
0001
0010
0100
1000
0001
0100
0010
0100
0001
0010
0001
1000
0100
,
0010
0001
1000
0100
1000
0001
0100
0001
1000
0100
1000
0001
0100
0001
1000
0100
;
