#TITLE:It Went;
#SUBTITLE:;
#ARTIST:S3RL & Tamika feat. Nightcore;
#TITLETRANSLIT:;
#SUBTITLETRANSLIT:;
#ARTISTTRANSLIT:;
#CREDIT:owenviau1;
#BANNER:../owenviau1 Simfiles 5-bn.png;
#BACKGROUND:../owenviau1 Simfiles 5-bg.png;
#LYRICSPATH:;
#CDTITLE:../ov1_title.png;
#MUSIC:It Went - Nightcore.mp3;
#OFFSET:-0.280;
#SAMPLESTART:48.894;
#SAMPLELENGTH:29.999;
#SELECTABLE:YES;
#DISPLAYBPM:194.640;
#BPMS:0.000=230.247,1.000=194.659,2.000=194.645,3.000=194.659,5.000=194.645,7.000=194.659,9.000=194.645,10.000=194.659,12.000=194.645,13.000=194.659,15.000=194.645,17.000=194.659,19.000=194.645,20.000=194.659,22.000=194.645,23.000=194.659,25.000=194.645,26.000=194.659,28.000=194.645,30.000=194.659,32.000=194.645,33.000=194.659,35.000=194.645,36.000=194.659,37.000=194.645,38.000=194.659,40.000=194.645,41.000=194.659,43.000=194.645,44.000=194.659,45.000=194.645,46.000=194.659,47.000=194.645,48.000=194.659,50.000=194.645,51.000=194.659,53.000=194.645,54.000=194.659,56.000=194.645,57.000=194.659,59.000=194.645,60.000=194.659,61.000=194.645,62.000=194.659,63.000=194.645,64.000=194.659,66.000=194.645,67.000=194.659,69.000=194.645,70.000=194.659,72.000=194.645,73.000=194.659,75.000=194.645,78.000=194.659,79.000=194.645,82.000=194.659,83.000=194.645,86.000=194.659,87.000=194.645,90.000=194.659,91.000=194.645,94.000=194.659,95.000=194.645,98.000=194.659,99.000=194.645,102.000=194.659,103.000=194.645,106.000=194.659,107.000=194.645,110.000=194.659,111.000=194.645,114.000=194.659,115.000=194.645,118.000=194.659,119.000=194.645,122.000=194.659,123.000=194.645,126.000=194.659,127.000=194.645,130.000=194.659,131.000=194.645,134.000=194.659,135.000=194.645,138.000=194.659,139.000=194.645,142.000=194.659,143.000=194.645,146.000=194.659,147.000=194.645,150.000=194.659,151.000=194.645,154.000=194.659,155.000=194.645,158.000=194.659,159.000=194.645,162.000=194.659,163.000=194.645,166.000=194.659,167.000=194.645,170.000=194.659,171.000=194.645,174.000=194.659,175.000=194.645,178.000=194.659,179.000=194.645,182.000=194.659,183.000=194.645,186.000=194.659,187.000=194.645,190.000=194.659,191.000=194.645,194.000=194.659,195.000=194.645,198.000=194.659,199.000=194.645,202.000=194.659,203.000=194.645,206.000=194.659,207.000=194.645,210.000=194.659,211.000=194.645,214.000=194.659,215.000=194.645,218.000=194.659,219.000=194.645,222.000=194.659,223.000=194.645,226.000=194.659,227.000=194.645,230.000=194.659,231.000=194.645,234.000=194.659,235.000=194.645,238.000=194.659,239.000=194.645,242.000=194.659,243.000=194.645,246.000=194.659,247.000=194.645,250.000=194.659,251.000=194.645,254.000=194.659,255.000=194.645,258.000=194.659,259.000=194.645,262.000=194.659,263.000=194.645,266.000=194.659,267.000=194.645,270.000=194.659,271.000=194.645,274.000=194.659,275.000=194.645,278.000=194.659,279.000=194.645,282.000=194.659,283.000=194.645,286.000=194.659,287.000=194.645,290.000=194.659,291.000=194.645,294.000=194.659,295.000=194.645,298.000=194.659,299.000=194.645,302.000=194.659,303.000=194.645,306.000=194.659,307.000=194.645,309.000=194.659,310.000=194.645,311.000=194.659,312.000=194.645,313.000=194.659,314.000=194.645,315.000=194.659,316.000=194.645,317.000=194.659,318.000=194.645,319.000=194.659,320.000=194.645,321.000=194.659,322.000=194.645,323.000=194.659,324.000=194.645,325.000=194.659,326.000=194.645,327.000=194.659,328.000=194.645,329.000=194.659,330.000=194.645,331.000=194.659,332.000=194.645,333.000=194.659,334.000=194.645,335.000=194.659,336.000=194.645,337.000=194.659,338.000=194.645,339.000=194.659,340.000=194.645,341.000=194.659,342.000=194.645,343.000=194.659,344.000=194.645,345.000=194.659,346.000=194.645,347.000=194.659,348.000=194.645,349.000=194.659,350.000=194.645,351.000=194.659,352.000=194.645,353.000=194.659,354.000=194.645,355.000=194.659,356.000=194.645,357.000=194.659,358.000=194.645,359.000=194.659,360.000=194.645,361.000=194.659,362.000=194.645,363.000=194.659,364.000=194.645,365.000=194.659,366.000=194.645,367.000=194.659,368.000=194.645,369.000=194.659,370.000=194.645,371.000=194.659,372.000=194.645,373.000=194.659,374.000=194.645,375.000=194.659,376.000=194.645,377.000=194.659,378.000=194.645,379.000=194.659,380.000=194.645,381.000=194.659,382.000=194.645,383.000=194.659,384.000=194.645,385.000=194.659,386.000=194.645,387.000=194.659,388.000=194.645,389.000=194.659,390.000=194.645,391.000=194.659,392.000=194.645,393.000=194.659,394.000=194.645,395.000=194.659,396.000=194.645,397.000=194.659,398.000=194.645,399.000=194.659,400.000=194.645,401.000=194.659,402.000=194.645,403.000=194.659,404.000=194.645,405.000=194.659,406.000=194.645,407.000=194.659,408.000=194.645,409.000=194.659,410.000=194.645,411.000=194.659,412.000=194.645,413.000=194.659,414.000=194.645,415.000=194.659,416.000=194.645,417.000=194.659,418.000=194.645,419.000=194.659,420.000=194.645,421.000=194.659,422.000=194.645,423.000=194.659,424.000=194.645,425.000=194.659,426.000=194.645,427.000=194.659,428.000=194.645,429.000=194.659,430.000=194.645,431.000=194.659,432.000=194.645,433.000=194.659,434.000=194.645,435.000=194.659,436.000=194.645,437.000=194.659,438.000=194.645,439.000=194.659,440.000=194.645,441.000=194.659,442.000=194.645,443.000=194.659,444.000=194.645,445.000=194.659,446.000=194.645,447.000=194.659,448.000=194.645,449.000=194.659,450.000=194.645,451.000=194.659,452.000=194.645,453.000=194.659,454.000=194.645,455.000=194.659,456.000=194.645,457.000=194.659,458.000=194.645,459.000=194.659,460.000=194.645,461.000=194.659,462.000=194.645,463.000=194.659,464.000=194.645,465.000=194.659,466.000=194.645,467.000=194.659,468.000=194.645,469.000=194.659,470.000=194.645,471.000=194.659,472.000=194.645,473.000=194.659,474.000=194.645,475.000=194.659,476.000=194.645,477.000=194.659,478.000=194.645,479.000=194.659,480.000=194.645,481.000=194.659,482.000=194.645,483.000=194.659,484.000=194.645,485.000=194.659,486.000=194.645,487.000=194.659,488.000=194.645,489.000=194.659,490.000=194.645,491.000=194.659,492.000=194.645,493.000=194.659,494.000=194.645,495.000=194.659,496.000=194.645,497.000=194.659,498.000=194.645,499.000=194.659,500.000=194.645,501.000=194.659,502.000=194.645,503.000=194.659,504.000=194.645,505.000=194.659,506.000=194.645,507.000=194.659,508.000=194.645,509.000=194.659,510.000=194.645,511.000=194.659,512.000=194.645,513.000=194.659,514.000=194.645,515.000=194.659,516.000=194.645,517.000=194.659,518.000=194.645,519.000=194.659,520.000=194.645,521.000=194.659,522.000=194.645,523.000=194.659,524.000=194.645,525.000=194.659,526.000=194.645,527.000=194.659,528.000=194.645,529.000=194.659,530.000=194.645,531.000=194.659,532.000=194.645,533.000=194.659,534.000=194.645,535.000=194.659,536.000=194.645,537.000=194.659,538.000=194.645,539.000=194.659,540.000=194.645,541.000=194.659,542.000=194.645,543.000=194.659,544.000=194.645,545.000=194.659,546.000=194.645,547.000=194.659,548.000=194.645,549.000=194.659,550.000=194.645,551.000=194.659,552.000=194.645,553.000=194.659,554.000=194.645,555.000=194.659,556.000=194.645,557.000=194.659,558.000=194.645,559.000=194.659,560.000=194.645,561.000=194.659,562.000=194.645,563.000=194.659,564.000=194.645,565.000=194.659,566.000=194.645,567.000=194.659,568.000=194.645,569.000=194.659,570.000=194.645,571.000=194.659,572.000=194.645,573.000=194.659,574.000=194.645,575.000=194.659,576.000=194.645,577.000=194.659,578.000=194.645,579.000=194.659,580.000=194.645,581.000=194.659,582.000=194.645,583.000=194.659,584.000=194.645,585.000=194.659,586.000=194.645,587.000=194.659,588.000=194.645,589.000=194.659,590.000=194.645,591.000=194.659,592.000=194.645,593.000=194.659,594.000=194.645,595.000=194.659,596.000=194.645,597.000=194.659,598.000=194.645,599.000=194.659,600.000=194.645,601.000=194.659,602.000=194.645,603.000=194.659,604.000=194.645,605.000=194.659,606.000=194.645,607.000=194.659,608.000=194.645,609.000=194.659,610.000=194.645,611.000=194.659,612.000=194.645,613.000=194.659,614.000=194.645,615.000=194.659,616.000=194.645,640.000=194.659,641.000=194.645,686.000=194.659,687.000=194.645,739.000=194.659,740.000=194.645,778.000=194.659,779.000=194.645,838.000=194.659,839.000=194.645;
#STOPS:;
#BGCHANGES:;
// cache tags:
#FIRSTBEAT:32.000;
#LASTBEAT:840.500;
#SONGFILENAME:Songs/owenviau1 Simfiles 5/It Went - [owenviau1] v1.3/It Went.sm;
#HASMUSIC:1;
#HASBANNER:1;
#MUSICLENGTH:260.736;
// end cache tags

//---------------dance-single - ----------------
#NOTES:
     dance-single:
     :
     Hard:
     9:
     0.816,0.886,0.184,0.245,0.017,1377.000,48.000,64.000,2.000,6.000:
0000
0000
0000
0000
,
0000
0000
0000
0000
,
0000
0000
0000
0000
,
0000
0000
0000
0000
,
0000
0000
0000
0000
,
0000
0000
0000
0000
,
0000
0000
0000
0000
,
0000
0000
0000
0000
,
1000
0001
1000
0100
1000
0010
0100
0001
,
1000
0001
0010
0001
1000
0010
0100
0001
,
1000
0001
0010
0001
0100
0010
1000
0001
,
0100
0001
0010
0100
1000
0010
0100
0001
,
0010
0001
1000
0010
0100
0001
0010
0100
,
1000
0010
1000
0001
0010
0001
0100
0010
,
1000
0000
0001
0000
0010
0000
0100
0000
1000
0001
1000
0001
4000
0000
0000
0000
,
3001
0000
0000
0000
0010
0000
0000
0100
0000
0000
0000
1000
0000
0000
0000
0000
0001
0000
0000
0000
0000
0000
0100
0000
0000
0000
0000
0000
0000
0000
0010
0000
0000
0000
0000
0000
0000
0000
0000
0000
2000
0000
0000
0000
0000
0000
0000
0000
3200
0000
0000
0000
0000
0000
0000
0000
0300
0000
0000
0000
0000
0000
0000
0000
,
1001
1000
0100
0010
0001
0100
0010
1000
,
0001
0010
0001
0100
0001
1000
0001
0100
,
0010
0100
1000
0001
0100
0010
1000
0100
,
0010
0001
0100
0010
1000
0100
1000
0001
,
1000
0010
0100
0001
0010
0100
1000
0001
,
0100
0010
1000
0100
1000
0001
1000
0010
,
0100
0001
0010
0100
1000
0001
0010
0001
,
0100
0001
1000
0010
1000
0100
0010
0001
,
1000
0010
1000
0001
0100
0010
1000
0100
,
0010
0001
0100
0010
1000
0001
0010
0001
,
1000
0001
0100
0010
1000
0100
0010
0001
,
1000
0010
1000
0100
0010
0001
0100
0010
,
1000
0001
0010
0001
0100
0001
1000
0001
,
1000
0010
1000
0001
0100
0001
1000
0010
,
0001
1000
0000
1000
0000
1000
0000
1000
,
0000
1000
0002
0003
0020
0230
2300
3000
,
0101
1000
0100
0010
0001
0010
1000
0001
,
1000
0100
1000
0010
0100
0001
1000
0100
,
0010
0001
0100
0010
1000
0100
0010
0001
,
0100
0001
1000
0010
0100
0001
0010
0001
,
1000
0010
0100
0001
0010
0100
1000
0010
,
1000
0001
0010
0001
0100
0010
1000
0001
,
0010
0001
0100
0010
1000
0001
0010
0100
,
2000
3000
0002
0003
2000
0000
3020
0000
,
0130
0001
0010
0100
1000
0010
0100
0001
,
1000
0001
0010
0001
0100
0010
1000
0100
,
1000
0010
0100
0001
1000
0100
0010
0001
,
1000
0010
0100
0001
0010
0100
1000
0010
,
0100
0001
0010
0001
1000
0001
0100
0010
,
1000
0100
0010
0001
0100
0010
1000
0100
,
1000
0001
0100
0010
1000
0001
0010
0100
,
2000
0000
3000
0002
0000
0003
0000
0000
,
2000
0000
0000
0000
,
0000
0000
3000
0000
0000
0002
2003
3000
,
1001
0000
1000
0100
0000
0100
0010
0000
,
1001
0000
0001
0100
0000
1000
0100
0000
,
0011
0000
1000
0010
0000
0001
0010
0000
,
0110
0000
1000
0100
0000
0002
0203
0300
,
1100
0000
0001
1000
0000
0100
0010
0000
,
1001
0000
0001
0010
0000
1000
0001
0000
,
0110
0000
0100
1000
0000
0100
0001
0000
,
0011
0000
0010
0100
0000
0002
0023
0030
,
1001
0000
0010
1000
0000
0100
0010
0000
,
1001
0000
0001
0010
0000
0100
1000
0000
,
0101
0000
1000
0010
0000
0100
0001
0000
,
0101
0000
1000
0100
0000
0002
0203
0300
,
1100
0000
0001
0100
0000
0100
0001
0000
,
1001
0000
0001
0010
0000
1000
0001
0000
,
0110
0000
0100
0010
0000
0100
0001
0000
,
0011
0000
0010
0100
0000
1000
0002
0003
,
1001
0000
0010
0100
0001
1000
0100
0000
,
0010
0000
0001
0100
0010
1000
0001
0000
,
1000
0000
0100
0010
0001
0100
0010
0000
,
1000
0000
0100
0001
1000
0001
0100
0000
,
0010
0000
1000
0100
0010
0001
0100
0000
,
0010
0000
1000
0001
1000
0010
0100
0000
,
0001
0000
1000
0001
0010
0100
1000
0000
,
1000
0000
1000
0200
1000
0000
1000
0000
,
13M2
0000
0000
0000
,
0023
0000
0230
0000
,
2300
0000
0000
0000
,
3002
0000
0003
0000
,
1000
0001
0100
0001
1000
0010
1000
0001
,
0010
0100
1000
0010
0100
0001
1000
0001
,
0010
0001
0100
0010
1000
0001
0010
0100
,
2000
0000
3000
0020
0030
0000
0200
0300
,
1001
1000
0001
1000
0100
0010
0001
0100
,
0010
0100
0001
1000
0100
0010
0100
1000
,
0010
1000
0100
0010
0001
0100
0010
1000
,
0001
1000
0010
0100
0010
1000
0001
0010
,
0100
0010
0001
1000
0100
1000
0010
0100
,
0001
1000
0010
0100
0001
0010
0100
1000
,
0010
1000
0001
0100
0010
1000
0100
0010
,
0001
0100
0001
1000
0020
0100
0000
0030
,
1001
0001
0010
0100
1000
0010
0100
0001
,
1000
0001
0010
0001
0100
0010
1000
0100
,
1000
0001
0010
0100
1000
0010
0100
0001
,
1000
0001
0010
0001
0100
0010
1000
0100
,
0010
0001
1000
0010
0100
0001
0010
0100
,
1000
0010
1000
0001
1000
0001
0100
0010
,
1000
0100
0010
0001
0100
0001
1000
0100
,
0010
0000
1000
0002
0000
1003
1000
0000
,
1001
0001
0100
0010
1000
0100
1000
0010
,
0100
0001
1000
0100
0010
0001
0100
0010
,
1000
0001
0010
0100
1000
0010
0100
0001
,
1000
0001
0010
0001
1000
0010
0100
0001
,
0010
0100
1000
0010
0100
0001
0100
0010
,
1000
0100
0010
0001
0100
0010
1000
0001
,
1000
0100
1000
0010
0100
0001
0010
0001
,
1000
0010
0100
0001
1000
0100
0020
0000
,
1031
0100
1000
0010
0100
0001
1000
0001
,
0010
0001
1000
0010
0100
0001
1000
0100
,
0010
0001
1000
0010
0100
0001
0010
0100
,
1000
0010
0100
0001
1000
0001
0010
0001
,
1000
0010
0100
0001
1000
0010
0100
0001
,
0010
0100
1000
0010
1000
0001
0010
0100
,
1000
0001
0100
0100
1000
0001
0001
1000
,
0010
0100
0001
0001
0000
0020
0000
0030
,
1001
0010
1000
0001
0010
0001
0100
0010
,
1000
0001
1000
0010
0001
0100
1000
0010
,
0001
0010
1000
0001
0010
0100
1000
0010
,
1000
0100
0001
0100
1000
0100
0010
0001
,
0100
0010
1000
0100
0010
0001
0100
0001
,
1000
0010
1000
0001
0010
0001
1000
0100
,
1000
0010
0100
0001
1000
0001
0100
0010
,
1000
0000
2000
3000
0002
0023
0230
0300
,
1000
0001
0100
1000
0100
0010
0001
0100
,
0010
1000
0001
1000
0100
1000
0010
0100
,
0001
0010
0001
1000
0010
0100
0001
1000
,
0001
0010
0001
1000
0010
0100
0001
0010
,
0100
1000
0010
0100
0001
0010
0001
1000
,
0100
1000
0010
0100
0001
1000
0001
0010
,
0001
1000
0010
0100
0010
1000
0100
0010
,
0002
0003
2000
3000
0200
0300
0002
0003
,
1000
0001
0010
0100
1000
0010
0100
0001
,
1000
0001
0010
0001
0100
0010
1000
0100
,
1000
0010
0100
0001
1000
0100
0010
0001
,
1000
0010
0100
0001
0010
0100
1000
0010
,
0100
0001
0010
0001
1000
0001
0100
0010
,
1000
0100
0010
0001
0100
0010
1000
0100
,
1000
0001
0100
0010
1000
0001
0010
0100
,
1000
0010
0100
0001
1000
0010
0100
0001
,
0020
0000
0000
0000
,
1031
0000
1000
0100
0000
0100
0010
0000
,
1001
0000
0001
0100
0000
1000
0100
0000
,
0011
0000
1000
0010
0000
0001
0010
0000
,
0110
0000
1000
0100
0000
0002
0203
0300
,
1100
0000
0001
1000
0000
0100
0010
0000
,
1001
0000
0001
0010
0000
1000
0001
0000
,
0110
0000
0100
1000
0000
0100
0001
0000
,
0011
0000
1000
0100
0000
0002
0023
0030
,
1001
0000
1000
0100
0000
0100
0010
0000
,
1001
0000
0001
0100
0000
1000
0100
0000
,
0011
0000
1000
0010
0000
0001
0010
0000
,
0110
0000
1000
0100
0000
0002
0203
0300
,
1100
0000
0001
1000
0000
0100
0010
0000
,
1001
0000
0001
0010
0000
1000
0001
0000
,
0110
0000
0100
1000
0000
0001
1000
0000
,
0011
0200
0000
0000
,
13M2
0000
0000
0000
,
0023
0000
0230
0000
,
2300
0000
0000
0000
,
3002
0000
0003
0000
,
1000
0001
0100
0001
1000
0010
1000
0001
,
0010
0100
1000
0010
0100
0001
1000
0001
,
0010
0001
0100
0010
1000
0001
0010
0100
,
2000
0000
0000
3000
0000
0000
0020
0030
,
1001
1000
0001
1000
0100
0010
0001
0100
,
0010
0100
0001
1000
0100
0010
0100
1000
,
0001
1000
0100
0010
0001
0100
0010
1000
,
0001
1000
0010
0100
0010
1000
0001
0010
,
0100
0010
0001
1000
0100
1000
0010
0100
,
0001
1000
0010
0100
0001
0010
0100
1000
,
0010
1000
0001
0100
0010
1000
0100
0010
,
0001
0100
0001
1000
0001
0100
0020
0000
,
1031
0100
0001
1000
0010
0100
0001
0010
,
0100
1000
0001
1000
0100
0010
0100
1000
,
0010
1000
0100
0010
0001
0100
0010
1000
,
0001
1000
0010
0100
0010
1000
0001
0010
,
0100
0010
0001
1000
0100
1000
0010
0100
,
0001
1000
0010
0100
0001
0010
0100
1000
,
0010
1000
0001
0100
0010
1000
0100
0010
,
0001
0000
0000
0000
0000
0000
0000
0000
0000
0000
0000
0000
2000
0000
0000
0000
0000
0000
3200
0000
0000
0000
0000
0000
0000
0000
0000
0300
0001
0000
0000
0000
0000
0000
0000
2000
0000
0000
0000
0000
0000
0000
3000
0000
0000
0000
0000
0000
,
1001
0001
0100
0010
1000
0100
1000
0010
,
0100
0001
1000
0100
0010
0001
0100
0010
,
1000
0001
0010
0100
1000
0010
0100
0001
,
1000
0001
0010
0001
1000
0010
0100
0001
,
0010
0100
1000
0010
0100
0001
0100
0010
,
1000
0100
0010
0001
0100
0010
1000
0001
,
1000
0100
1000
0010
0100
0001
0010
0001
,
1000
0010
0100
0001
1000
0100
0020
0000
,
1031
0100
1000
0010
0100
0001
1000
0001
,
0010
0001
1000
0010
0100
0001
1000
0100
,
0010
0001
1000
0010
0100
0001
0010
0100
,
1000
0010
0100
0001
1000
0001
0010
0001
,
1000
0010
0100
0001
1000
0010
0100
0001
,
0010
0100
1000
0010
1000
0001
0010
0100
,
1000
0001
0100
0100
1000
0001
0001
1000
,
0010
0100
0001
0001
0000
0020
0000
0030
,
1001
0010
1000
0001
0010
0001
0100
0010
,
1000
0001
1000
0010
0001
0100
1000
0010
,
0001
0010
1000
0001
0010
0100
1000
0010
,
1000
0100
0001
0100
1000
0100
0010
0001
,
0100
0010
1000
0100
0010
0001
0100
0001
,
1000
0010
1000
0001
0010
0001
1000
0100
,
1000
0010
0100
0001
1000
0001
0100
0010
,
1000
0100
0010
0001
1000
0010
0100
0001
,
0010
0001
1000
0001
0100
0010
1000
0100
,
0010
0001
0100
0010
1000
0100
0010
0001
,
0010
0100
1000
0001
0100
0010
1000
0100
,
1000
0001
1000
0010
0100
0001
0010
0100
,
1000
0001
0100
0010
1000
0100
0010
0001
,
1000
0010
1000
0001
0100
0001
1000
0001
,
0100
0010
1000
0100
0010
0001
1000
0001
,
0000
0001
0000
0000
0000
0000
0000
0000
,
0000
0000
0000
0000
;

//---------------dance-single - ----------------
#NOTES:
     dance-single:
     :
     Challenge:
     11:
     1.000,1.000,1.000,0.268,0.123,1440.000,636.000,70.000,2.000,20.000:
0000
0000
0000
0000
,
0000
0000
0000
0000
,
0000
0000
0000
0000
,
0000
0000
0000
0000
,
0000
0000
0000
0000
,
0000
0000
0000
0000
,
0000
0000
0000
0000
,
0000
0000
0000
0000
,
1010
0001
1100
0010
0101
1000
0011
1000
,
0110
0001
1001
0100
0011
1100
0101
0001
,
1010
0100
0011
0100
1100
0001
0110
1000
,
1001
0000
0010
0000
0101
0000
0010
0000
1000
0010
0100
0000
1001
0000
0100
0000
,
0011
1000
1100
0001
1010
0100
0101
1000
,
1001
0100
0110
0001
1100
0001
0011
1000
,
0110
0000
0000
0000
0000
0000
1001
0000
0000
0000
0000
0000
0011
0000
0000
0000
0000
0000
0101
0000
0000
0000
0000
0000
1000
0000
0000
0100
0000
0000
0010
0000
0000
0001
0000
0000
1000
0000
0100
0000
0010
0000
0001
0000
1000
0000
0001
0000
,
0010
0000
0000
0000
0100
0000
0000
1000
0000
0000
0000
0001
0000
0000
0000
0000
0100
0000
0000
0000
0000
0000
0010
0000
0000
0000
0000
0000
0000
0000
1000
0000
0000
0000
0000
0000
0000
0000
0000
0000
0002
0000
0000
0000
0000
0000
0000
0000
0203
0000
0000
0000
0000
0000
0000
0000
0300
0000
0000
0000
0000
0000
0000
0000
,
1001
0100
1010
0100
0011
0001
1100
0010
,
1001
0010
0101
1000
0011
0001
1100
0100
,
0011
0100
1010
0001
0110
1000
0011
0100
,
1001
0001
0110
0001
1010
0001
0110
1000
,
0101
0010
1001
0001
0110
0001
1010
0100
,
1001
1000
0110
1000
0011
0100
1001
0010
,
0110
0001
1010
0100
0011
0010
1100
0010
,
0101
0001
1100
1000
0011
1000
0110
0010
,
1001
0010
1100
0001
1010
1000
0101
1000
,
0011
0100
1001
0010
0110
0001
1010
0001
,
1100
1000
0011
1000
0110
1000
0011
0001
,
1100
0001
1010
0010
0101
1000
0011
1000
,
1100
0001
0110
0010
1001
0010
0101
0110
,
1001
0001
0110
0010
1001
0100
0101
0110
,
1100
0001
0000
0001
0000
0001
0000
0001
,
0000
0001
2000
0000
3020
0230
0302
0003
,
1010
0100
0110
0001
0011
1000
0101
0010
,
1001
0100
0020
0000
2030
3200
0320
0000
,
1031
0100
0011
1000
0101
0010
1001
0010
,
0110
0001
2000
0000
3020
0230
0302
0000
,
1103
0010
1001
0100
0011
1000
1100
0010
,
0101
0010
2000
0000
3002
0203
0320
0000
,
1031
0100
0011
0100
1010
1000
0101
0010
,
2100
3000
0020
0030
2000
0000
3002
0000
,
1103
0010
1001
0001
1100
0010
0101
1000
,
0110
0010
1001
0010
0101
1000
0110
0001
,
1100
0010
1001
1000
0110
0001
1010
0100
,
0011
0100
1010
0100
1001
0001
0110
1000
,
0101
1000
0011
0001
1100
0010
1001
0010
,
0101
1000
0110
0001
1010
0100
1001
0001
,
0110
1000
0011
0001
1100
0001
0110
0100
,
2001
0000
3000
0002
0000
0003
0000
0000
,
2000
0000
0000
0000
,
0000
0000
3000
0000
0000
0021
1230
0300
,
1001
0000
1000
1100
0000
0100
0110
0000
,
1001
0000
0001
0101
0000
1000
1100
0000
,
0011
0000
1000
1010
0000
0001
0011
0000
,
0110
0000
1000
1100
0000
1002
0213
0300
,
1100
0000
0001
1100
0000
0100
0011
0000
,
1001
0000
0001
0110
0000
1000
0101
0000
,
0110
0000
0100
1010
0000
0100
1001
0000
,
0011
0000
0010
1100
0000
0201
1320
0030
,
1001
0000
0010
1010
0000
0100
0110
0000
,
1001
0000
0001
0101
0000
1000
1100
0000
,
0011
0000
1000
1010
0000
0001
0011
0000
,
0110
0000
1000
1100
0000
1002
0213
0300
,
1100
0000
0001
1100
0000
0100
0011
0000
,
1001
0000
0001
0110
0000
1000
0101
0000
,
0110
0000
0100
1010
0000
0100
1001
0000
,
0011
0000
0010
1100
0000
1000
0002
0003
,
1001
0000
1010
0001
0110
0001
1001
0000
,
0011
0000
0110
1000
1001
0001
1010
0000
,
0110
0000
0101
0010
1001
0100
0011
0000
,
1100
0000
0011
1000
0101
0001
1010
0000
,
0101
0000
1001
0100
0110
0001
1100
0000
,
0011
0000
0101
0010
1001
0100
0011
0000
,
1001
0000
0110
0001
1100
0001
0011
0000
,
0101
0000
1000
0020
1000
0000
1000
0000
,
1032
0000
0000
0000
,
0023
0000
0230
0000
,
2300
0000
0000
0000
,
3002
0000
0003
0000
,
1000
0100
0010
0001
1000
0001
0100
0010
1000
0010
0100
0001
0100
0010
1000
0100
,
0010
0001
0010
0100
1000
0001
0010
0001
0100
0010
0100
0001
1000
0010
0100
0010
,
1000
0001
1000
0100
0010
0001
0100
0010
1000
0100
0010
0001
0010
0100
1000
0001
,
2000
0000
3000
0020
0000
0030
0200
0300
,
1001
0010
1100
0001
0110
1000
0101
0010
,
1001
0100
0011
1000
1100
0010
1001
0001
,
0110
1000
0011
0010
1100
0010
1001
0010
,
0101
0001
1100
0001
0110
0100
1001
0100
,
0011
1000
1001
0010
1100
0001
1010
0100
,
0011
0100
1001
0001
0110
0001
1010
0001
,
0110
0100
1001
0010
1100
1000
0101
0001
,
1010
0001
0110
0001
1010
0010
0101
1000
,
0011
0001
1100
0010
0011
0100
1010
0001
,
0011
1000
1100
0001
0110
1000
0011
1000
,
0101
0010
1001
0010
1100
0001
1010
0100
,
0011
0100
1001
0010
0101
0010
1001
0001
,
0110
1000
0101
0010
1100
0001
0011
1000
,
0101
0001
1010
0100
0011
0001
1100
0001
,
0110
0100
1001
0010
0101
1000
0011
0001
,
1100
0000
1000
0002
0000
1003
1000
0000
,
1100
0010
1001
0010
1100
0001
0011
1000
,
0101
0010
1001
0001
0110
0001
1010
0100
,
1001
0100
0011
1000
0110
0001
1010
0001
,
1100
1000
0011
1000
0101
1000
0110
0001
,
1010
0100
1001
0010
0110
1000
0011
0100
,
1001
0010
0110
0001
1010
0010
0101
0010
,
1100
0010
1001
1000
0110
1000
0101
0001
,
1010
0100
1001
0010
0101
2000
0001
0000
,
3011
0100
1001
0100
1010
0001
0110
1000
,
0101
1000
0011
0001
1100
0001
1010
0010
,
0101
1000
0011
0001
1100
0001
1010
0100
,
1001
0001
0110
0100
1001
0010
0101
1000
,
0011
0010
1100
0001
1010
0100
1001
0001
,
0110
1000
0101
0010
1100
0001
0101
0010
,
1000
0001
0100
0100
1000
0001
0001
1000
,
0010
0100
1000
1000
0000
0020
0000
0030
,
1001
0100
1010
0100
0011
0001
1100
0001
,
1010
0100
0101
0010
1001
1000
0110
0001
,
1010
0010
0101
1000
0011
0001
1100
0001
,
0110
1000
0101
0010
1001
0001
0110
0001
,
1010
0010
0101
1000
0011
0001
1100
0010
,
1001
0010
0101
1000
0110
0001
1010
0100
,
1001
0010
0110
1000
0101
0010
1100
0010
,
0000
0000
2000
0000
3200
0320
0032
0000
,
1013
0001
1100
0001
0110
1000
0011
0100
,
1001
0001
0110
0001
1010
0100
0101
0010
,
1100
0001
0110
0010
1001
0010
0101
0001
,
1010
0001
1100
1000
0011
1000
0101
0001
,
1010
0001
1100
0010
0101
0010
1001
1000
,
0110
1000
0101
0010
1010
0001
1100
0001
,
0110
1000
0011
0100
1001
0010
0110
0001
,
1010
0100
0011
1000
0020
0000
0230
0000
,
1301
0010
0110
1000
0011
0100
1010
0010
,
0101
1000
0011
0001
1100
0010
1001
0001
,
0110
0001
1010
0100
0011
0100
1001
0001
,
0110
0001
1010
0001
1100
0100
0011
0100
,
1001
0001
0110
0001
1010
0010
0101
1000
,
0011
0001
1100
1000
0011
1000
0110
0001
,
1010
0100
1001
0001
0110
0001
0101
1000
,
0011
0100
1001
0010
0110
0001
1010
0100
,
2000
0000
0000
0000
,
3101
0000
1000
1100
0000
0100
0110
0000
,
1001
0000
0001
0101
0000
1000
1100
0000
,
0011
0000
1000
1010
0000
0001
0011
0000
,
0110
0000
1000
1100
0000
1002
0213
0300
,
1100
0000
0001
1100
0000
0100
0011
0000
,
1001
0000
0001
0110
0000
1000
0101
0000
,
0110
0000
0100
1010
0000
0100
1001
0000
,
0011
0000
0010
1100
0000
0002
2003
3000
,
1001
0000
0010
1010
0000
0100
0110
0000
,
1001
0000
0001
0101
0000
1000
1100
0000
,
0011
0000
1000
1010
0000
0001
0011
0000
,
0110
0000
1000
1100
0000
1002
0213
0300
,
1100
0000
0001
1100
0000
0100
0011
0000
,
1001
0000
0001
0110
0000
1000
0101
0000
,
0110
0000
0100
1010
0000
0100
1001
0000
,
0011
0000
0010
1100
0000
0001
1001
0000
,
2000
0000
0000
0000
,
3200
0000
0320
0000
,
0032
0000
0000
0000
,
2003
0000
0000
0010
3000
0001
0100
0000
,
1000
0000
0100
0010
0001
0000
1000
0000
0010
0000
0100
0000
0001
0000
0010
0100
,
1000
0000
0010
0100
0001
0000
1000
0100
0010
0000
0001
1000
0010
0000
1000
0100
,
0010
0001
0100
0001
1000
0010
0100
0001
0010
0100
1000
0010
0100
0010
1000
0001
,
M2M0
0000
0000
0320
,
1031
0100
1010
0001
1100
0001
0011
1000
,
0101
0010
1001
0001
0110
0001
1010
0100
,
1001
0100
0011
1000
0110
0001
1010
0001
,
1100
1000
0011
1000
0101
1000
0110
0001
,
1010
0100
1001
0010
0110
1000
0011
0100
,
1001
0010
0110
0001
1010
0010
0101
0010
,
1100
0010
1001
1000
0110
1000
0101
0001
,
1010
0100
1001
0010
0101
0010
2001
0100
,
3011
0100
1001
0100
1010
0001
0110
1000
,
0101
1000
0011
0001
1100
0001
1010
0010
,
0101
1000
0011
0001
1100
0001
1010
0100
,
1001
0001
0110
0100
1001
0010
0101
0001
,
1000
0000
0100
0010
0001
0000
1000
0000
0010
0000
0100
0000
0001
0000
0010
0100
,
1000
0000
0010
0100
0001
0000
1000
0100
0010
0000
0001
1000
0010
0000
1000
0100
,
0010
0001
0100
0001
1000
0010
0100
0001
0010
0100
1000
0010
0100
0010
1000
0001
,
1000
0000
1000
0020
0000
0100
0100
0000
,
1031
0010
1100
0001
0110
1000
0011
1000
,
0101
0010
1001
0001
0110
0001
1010
0100
,
1001
0100
0011
1000
0110
0001
1010
0001
,
1100
1000
0011
1000
0101
1000
0110
0001
,
1010
0100
1001
0010
0110
1000
0011
0100
,
1001
0010
0110
0001
1010
0010
0101
0010
,
1100
0010
1001
1000
0110
1000
0101
0001
,
1010
0100
1001
0010
0101
2000
0001
0000
,
3011
0100
1001
0100
1010
0001
0110
1000
,
0101
1000
0011
0001
1100
0001
1010
0010
,
0101
1000
0011
0001
1100
0001
1010
0100
,
1001
0001
0110
0100
1001
0010
0101
1000
,
0011
0010
1100
0001
1010
0100
1001
0001
,
0110
1000
0101
0010
1100
0001
0101
0010
,
1000
0001
0100
0100
1000
0001
0001
1000
,
0010
0100
1000
1000
0000
0020
0000
0000
,
1031
0100
1010
0100
0011
0001
1100
0001
,
1010
0100
0101
0010
1001
1000
0110
0001
,
1010
0010
0101
1000
0011
0001
1100
0001
,
0110
1000
0101
0010
1001
0001
0110
0001
,
1010
0010
0101
1000
0011
0001
1100
0010
,
1001
0010
0101
1000
0110
0001
1010
0100
,
1001
0010
0110
1000
0101
0010
1100
0010
,
0101
1000
1010
0100
1001
0010
0101
1000
,
0110
0001
1010
0100
1001
0010
0110
1000
,
0011
1000
0110
0001
1010
0001
1100
0100
,
0011
1000
0110
0001
1010
0100
1001
0100
,
0011
1000
0110
0001
1100
0100
0011
0100
,
1001
0010
0110
0001
1010
0001
0110
0100
,
1001
0010
0101
0010
1010
0001
0110
1000
,
0011
0010
1100
0001
0110
1000
1001
0010
,
0000
0010
0000
0000
0000
0000
0000
0000
,
0000
0000
0000
0000
;
