#TITLE:Supermodel;
#SUBTITLE:;
#ARTIST:Bambee;
#TITLETRANSLIT:;
#SUBTITLETRANSLIT:;
#ARTISTTRANSLIT:;
#CREDIT:;
#BANNER:Supermodel.png;
#BACKGROUND:Supermodel-bg.png;
#LYRICSPATH:;
#CDTITLE:;
#MUSIC:Supermodel (DDR Edit).mp3;
#OFFSET:-8.760;
#SAMPLESTART:65.556;
#SAMPLELENGTH:16.760;
#SELECTABLE:YES;
#BPMS:0.000=137.000;
#STOPS:;
#BGCHANGES:;
// cache tags:
#FIRSTBEAT:0.000;
#LASTBEAT:263.000;
#SONGFILENAME:Songs/other/Supermodel/Supermodel.sm;
#HASMUSIC:1;
#HASBANNER:1;
#MUSICLENGTH:129.704;
// end cache tags

//---------------dance-single - ----------------
#NOTES:
     dance-single:
     :
     Hard:
     7:
     0.432,0.456,0.208,0.270,0.004,330.000,27.000,35.000,0.000,0.000:
1000
0001
1000
0001
,
0000
0000
0000
0000
,
0010
0100
0010
0100
,
0000
0000
0000
0000
,
1000
0100
1000
0100
,
0001
0010
0001
0010
,
1000
0000
0001
0000
,
0100
0000
0010
0000
,
0220
0000
0000
0330
,
1000
0100
0010
0001
1000
0010
0100
0001
,
0010
0100
1000
0001
0010
0100
1000
0000
,
0001
0100
0010
1000
0100
0010
0100
1000
,
0010
0100
0001
0010
0001
0100
0001
0000
,
0110
0001
0101
0000
1001
0010
0110
0000
,
1000
0100
1000
0000
0001
0010
0001
0000
,
1000
0010
1010
0000
0100
0001
0101
0000
,
2002
0000
0000
0000
0000
0000
3003
0010
,
0100
0001
0000
0100
0000
1000
0000
0100
,
0000
0000
0010
0000
1000
0100
0000
1000
,
0001
1000
0000
0001
0010
0000
0110
0000
,
1100
0000
0010
0000
0101
0000
0100
0001
,
0010
0100
1000
0010
0000
0100
0000
0001
,
0000
0000
1000
0000
0100
0000
0010
1000
,
0020
2030
3002
0203
,
0301
0000
0001
0000
1000
0000
1000
0001
,
0100
0020
0000
2030
0000
3002
0000
0203
,
0000
0320
0000
2030
0000
3200
0000
0300
,
0001
0200
0000
2300
0000
3200
0000
0302
,
0000
0103
0010
0001
0000
1001
0000
0001
,
1000
0100
0000
1000
0000
0010
0001
1000
,
0000
1010
0000
0001
0000
0101
0000
0000
,
1000
1000
0100
0001
0000
0010
0100
1000
,
0110
0000
0000
0001
0100
0001
1000
0100
,
1000
0001
0010
0001
0100
0010
2000
0002
,
0000
0000
3003
0001
0010
0100
1000
0010
,
0100
0001
0100
0001
1000
0010
2000
0200
,
0000
0000
3300
0100
0010
0001
1000
0100
,
0001
0000
0010
0100
0000
0000
1000
0000
,
0001
0000
0100
1000
0000
0000
0000
0001
,
0001
0000
1000
0010
0000
0001
0100
1000
,
0000
0002
0000
0003
0000
0000
0000
0000
,
1000
1000
1000
1000
0001
0001
0001
0001
,
0000
0000
0000
0000
,
0010
0010
0010
0010
0100
0100
0100
0100
,
2002
0000
0000
3003
,
1000
0001
1000
0001
1000
0100
0010
0100
,
0000
0001
0100
0001
1000
0100
0010
0001
,
0000
0000
1000
0100
1000
0000
0001
0000
0100
0000
0010
0000
1000
0000
0001
0000
,
0220
0000
0000
0330
,
0001
0100
0010
1000
0100
0010
0010
0001
,
1000
0001
0100
0100
0010
0010
1000
0000
,
1000
0001
1000
0010
0010
1000
0100
0010
,
0001
1000
0100
0010
0001
0001
0010
0000
,
0101
0010
0011
0000
1010
0001
0101
0000
,
0010
0010
1001
0000
1000
1000
0110
0000
,
0010
0100
1001
0000
0100
0010
1001
0000
,
0110
0000
0000
0001
1000
0001
0010
1000
,
0010
0001
0100
0001
1000
0100
0020
0002
,
0000
0000
0033
0001
0100
1000
0100
0010
,
1000
0001
1000
0001
0010
0100
0020
0002
,
0000
0000
0033
0010
0100
1000
0010
1000
,
0001
0000
0100
1000
0000
0000
0010
0000
,
0001
0000
1000
0010
0000
0000
0000
0001
,
0001
0000
0010
0100
0000
0001
1000
0010
,
0000
0002
0000
0003
0000
1000
0001
1000
,
0220
0000
0000
0330
;

//---------------dance-single - ----------------
#NOTES:
     dance-single:
     :
     Easy:
     3:
     0.251,0.301,0.208,0.000,0.000,201.000,27.000,0.000,0.000,0.000:
1000
0000
0001
0000
,
0000
0000
0000
0000
,
0010
0000
0100
0000
,
0000
0000
0000
0000
,
1000
1000
0100
0000
,
0001
0001
0010
0000
,
1000
0010
0001
0100
,
1001
0000
0000
0000
,
0110
0000
0000
0000
,
1000
1000
0010
0010
,
0100
0100
0001
0001
,
0100
0010
0100
0010
,
1000
0001
1000
0001
,
0010
0001
0100
1000
,
0010
1000
0100
0001
,
1000
0100
0010
0001
,
0110
0000
0000
0000
,
1000
0100
1000
0010
,
0001
0100
0001
0010
,
1000
0001
0000
1100
,
0110
0000
0011
0000
,
1000
0100
1000
0010
,
0100
0010
0001
0010
,
0001
1000
0100
0001
,
0010
0000
1010
0101
,
1000
0100
0100
0010
,
1000
0100
0010
0000
,
0001
0001
0100
0010
,
0100
1000
0010
0000
,
1000
0100
0001
0001
,
0100
1000
0010
0100
,
0001
0000
0001
0000
,
1100
0000
0000
0000
,
0011
1000
0100
1000
,
0000
0000
1000
0100
,
0001
0100
0001
0010
,
0000
0000
1000
0100
,
0101
0001
0010
0100
,
1000
1000
0100
0000
,
0010
0001
1000
0100
,
0010
1010
0000
0000
,
0110
0000
0101
0000
,
1001
0000
0000
0000
,
1010
0000
0110
0000
,
0101
0000
0000
0000
,
1001
0100
0010
0100
,
1001
0010
0100
0010
,
1001
0100
0001
0010
,
1001
0000
0000
0000
,
0010
0001
0100
0010
,
0100
0100
0001
0010
,
0100
0001
0001
0010
,
0010
1000
0010
1000
,
0001
0010
1000
0001
,
0010
0001
0100
0100
,
0010
0001
0010
1000
,
1100
0000
0001
0100
,
0110
0001
1000
0010
,
0000
0000
0010
0100
,
0001
0010
0100
1000
,
0000
0000
0001
0100
,
1100
0001
0001
0100
,
0010
0001
1000
0000
,
0100
0010
1000
0010
,
0001
0101
1000
0100
,
1001
0000
0000
0000
;

//---------------dance-single - ----------------
#NOTES:
     dance-single:
     :
     Medium:
     5:
     0.333,0.304,0.139,0.093,0.000,272.000,18.000,12.000,0.000,0.000:
1000
1100
0001
0101
,
0000
0000
0000
0000
,
1000
1010
0001
0011
,
0000
0000
0000
0000
,
1000
1000
0001
0001
,
1000
1000
0001
0001
,
0010
0010
0100
0100
,
0010
0020
0100
0130
,
2002
0000
0000
3003
,
1000
0000
0100
0010
0001
0000
0010
0000
,
0100
1000
0001
0010
,
0100
0000
1000
0001
0010
0000
0100
0000
,
1000
0000
0010
0100
0001
0000
1000
0000
,
0001
0010
0100
0000
1000
0100
0010
0000
,
0001
0010
0100
0000
1000
0100
0010
0000
,
0001
0100
1000
0010
,
2002
0000
0000
3003
,
1000
0000
0100
0000
0001
0010
0100
0000
,
1000
0000
0100
0000
0001
1000
0010
0000
,
1000
0000
0100
0000
1000
0000
0001
0100
,
0001
0011
1000
1100
,
0001
0100
0010
0100
,
1000
0001
0010
0000
0100
0000
0001
0000
,
0010
0000
1000
0000
0010
0100
0001
0000
,
1000
1100
0001
0101
,
1000
0100
0010
0000
0100
0000
0010
0000
,
0001
1000
0100
1100
,
0010
0100
1000
0000
0001
0000
0100
0000
,
0010
0000
0100
0001
1000
0000
1001
0000
,
0100
0010
1000
0100
,
0001
1000
0010
0100
,
1000
0100
0010
0000
0001
0000
0010
0100
,
2000
0000
0000
3000
,
0001
0010
0100
0000
1000
0100
0010
0000
,
0100
0001
1000
0001
,
0100
0001
1000
0000
0010
1000
0001
0000
,
0100
0010
0001
1000
,
0100
0010
0100
0001
,
1000
0001
0000
0001
1000
0000
0100
0000
,
0010
0000
0001
0000
0010
0100
1000
0000
,
0001
0000
1000
0110
,
0010
0100
0001
0000
0100
0000
1000
0000
,
1100
0000
0000
0000
,
0100
0010
1000
0000
0010
0000
0001
0000
,
0011
0000
0000
0000
,
1000
0100
1000
0000
0100
0000
0010
0000
,
0001
0010
0100
0000
1000
0000
0010
0000
,
0100
0010
0100
0000
0001
0000
0010
0000
,
0202
0000
0000
0303
,
0100
0000
1000
0010
0100
0000
0010
0000
,
1000
0100
0001
0010
,
1000
0000
0100
0010
0001
0000
1000
0000
,
0100
0000
0010
1000
0001
0000
0100
0000
,
1000
0100
0010
0000
1000
0100
0010
0000
,
0001
0010
0100
0000
0001
0010
0100
0000
,
1000
0001
0010
0100
,
2002
0000
0000
3003
,
1000
0001
0100
0000
0010
0100
0100
0000
,
0010
1000
0001
0001
,
1000
0100
0100
0000
1000
0010
0100
0000
,
0010
0100
1000
1000
,
0001
0100
0010
0100
,
0001
1000
0000
0100
1000
0000
0100
0000
,
0001
0000
1000
0000
0001
1000
0001
0000
,
0100
0010
0001
0100
,
2002
0000
0000
3003
;
