#TITLE:Concertino in Blue;
#SUBTITLE:;
#ARTIST:佐々木博史;
#TITLETRANSLIT:;
#SUBTITLETRANSLIT:;
#ARTISTTRANSLIT:Hirohumi Sasaki;
#CREDIT:;
#BANNER:Concertino in Blue-b.png;
#BACKGROUND:Concertino in Blue-bg.png;
#LYRICSPATH:;
#CDTITLE:cdtitle_gfdm.png;
#MUSIC:Concertino in Blue.ogg;
#OFFSET:-0.120;
#SAMPLESTART:10.620;
#SAMPLELENGTH:12.000;
#SELECTABLE:YES;
#BPMS:0.000=139.000,20.000=154.000,82.000=155.000,185.250=150.000,192.000=155.000,212.000=152.000,220.000=122.000,222.000=103.000;
#STOPS:;
#BGCHANGES:;
// cache tags:
#FIRSTBEAT:16.000;
#LASTBEAT:235.250;
#SONGFILENAME:Songs/new cc/concertino_in_blue/concertino_in_blue.sm;
#HASMUSIC:1;
#HASBANNER:1;
#MUSICLENGTH:99.000;
// end cache tags

//---------------dance-single - ----------------
#NOTES:
     dance-single:
     :
     Challenge:
     11:
     0.804,0.832,0.758,0.071,1.000,475.000,75.000,7.000,0.000,0.000:
0000
0000
0000
0000
,
0000
0000
0000
0000
,
0000
0000
0000
0000
,
0000
0000
0000
0000
,
0001
1000
0001
1000
0001
1000
0001
1000
0001
1000
0001
1000
,
0001
0100
0000
1000
0000
0001
0100
0000
1000
0000
0001
0000
0110
0000
0000
0000
,
1001
0000
0000
0000
0001
0010
0100
1000
1001
0000
0000
0000
1010
0000
0000
0000
,
0001
0100
0000
0110
0000
0110
0000
0000
0000
0000
1000
0000
1000
0000
0001
0000
,
0100
0000
0010
0100
0000
1000
0100
0000
0100
0000
0100
0000
0001
0100
0000
1000
,
0000
0010
0100
0000
1001
0000
0000
0000
1000
0100
0010
0001
0101
0000
0000
0000
,
1010
0000
0000
0000
0001
0100
0000
1100
0000
1100
0000
0000
0000
0000
0010
0000
,
0010
0000
1000
0000
0001
0100
0010
0100
0000
1000
0010
0001
0000
1000
0100
0001
,
1000
0001
1000
0010
0100
0010
0100
0001
1000
0001
1000
0000
0011
0000
0000
0000
,
1001
0000
0000
0000
0001
1000
0010
0100
0110
0000
0000
0000
1010
0000
0000
0000
,
0001
0100
0000
1010
0000
1010
0000
0000
0000
0000
1000
0000
1000
0000
0100
0000
,
1000
0000
0001
0100
0000
1000
0100
0000
0010
0000
0010
0000
0010
1000
0000
0100
,
0000
0001
1000
0000
0110
0000
0000
0000
0010
0001
0100
1000
1010
0000
0000
0000
,
0011
0000
0000
0000
0001
0010
0000
1100
0000
1100
0000
0000
0000
0000
0010
0000
,
0100
0000
0001
0000
0100
0010
0100
0010
0000
1000
0100
0010
0000
0001
0100
1000
,
0010
1000
0010
0100
0010
0100
0010
1000
0010
1000
0010
0000
0101
0000
0000
0000
,
0110
0000
0000
0000
1010
0000
0100
0000
1001
0000
0000
0100
0000
0000
0010
0000
,
0000
0000
0000
0000
0001
0000
0000
1000
0000
0000
0100
0000
0000
0000
0000
0000
,
1001
0000
0000
0100
0000
0000
0010
1000
0010
0001
0100
1000
0100
0000
0000
0100
,
0000
0000
0010
0000
0000
0001
0000
0000
1000
0010
0100
0010
1000
0010
0001
1000
,
0010
1000
0001
1000
0100
0001
0100
1000
0000
0000
0001
0100
0001
0010
0000
0000
,
0010
0100
0010
0100
0010
0100
0001
0100
0001
0100
0001
0100
1000
0001
0100
0010
,
0000
0000
1000
0010
0100
0001
0000
0000
1000
0010
1000
0010
1000
0010
1000
0100
,
1000
0100
1000
0100
0001
0010
0100
1000
0000
0000
1000
0100
0010
0001
0000
0000
,
1001
0000
0100
0010
0100
0000
1001
0000
0010
0100
0010
0000
1001
0000
0100
0010
,
0100
0000
1001
0000
0010
0100
0010
0000
0001
1000
0010
0100
0000
0000
0100
0001
,
1000
0010
0000
0000
0200
0000
0000
0310
0000
0000
0011
0000
0000
0011
0000
0000
,
1001
0000
1000
0100
0000
0010
0100
0000
0010
0001
0000
1000
0010
0100
0010
0100
,
0010
0100
0001
0010
0001
0010
0001
0010
0001
0000
0001
0010
0000
0010
1000
0000
,
1000
0100
0000
0100
0010
1000
0010
0100
0000
0000
0001
0010
0001
0100
0000
0000
,
1010
0100
0001
0010
0110
1010
1001
0100
,
0010
0001
0011
0110
1010
0001
1000
0011
,
0100
0000
0010
0000
1000
0100
1000
0010
1000
0100
0010
1000
0010
0100
0010
1000
,
0010
0011
0000
0000
0000
1100
0000
0000
0000
1001
0000
0100
0000
0010
0000
0000
,
0110
0000
0000
0000
0000
0000
0000
0000
0101
0000
0000
0000
0000
0000
0000
0000
1010
0000
0000
0000
0000
0000
0000
0000
0000
0000
0011
0000
0000
0000
0000
0000
0000
0000
0000
0000
0000
0000
0000
0100
0000
0000
0000
0000
0000
0000
0000
0000
,
1000
0000
0000
0100
0000
0000
0010
0000
0000
0001
0000
0000
0010
0000
0000
0000
0000
0000
0000
0000
0000
1100
0000
0000
0000
0000
0000
0000
0110
0000
0000
0000
0000
0000
0011
0000
0000
0000
0000
0000
0101
0000
0000
0000
0000
0000
0000
0000
,
1001
0000
0000
0000
0000
0000
0000
0000
0000
0000
0000
0000
1010
0000
0000
0000
0000
0000
0000
0000
0000
0000
0000
0000
0100
0000
0000
0001
0000
0000
0100
0000
0000
1000
0000
0000
0010
0000
0000
0000
0000
0000
0000
0000
0000
0000
0110
0000
,
0000
0000
1010
0000
0000
1010
0000
0000
1010
0000
0000
0000
0010
0000
1000
0000
0010
0000
0001
0000
0100
0000
0001
0000
,
1000
0100
1000
0001
0001
0001
0100
0100
0100
0001
0001
0001
,
0010
0100
0010
0100
1000
0100
1000
0001
1000
0010
0010
0010
,
0001
0001
0001
1000
1000
1000
2002
0000
0000
0000
0000
0000
,
0000
0000
0000
3003
,
0000
0010
0100
0010
0100
0010
0000
0000
0000
0000
0000
0000
1000
0010
0000
0100
,
0000
1000
0001
0000
0100
0000
0010
0000
0110
0000
0000
0000
1001
0000
0000
0000
,
0001
0010
0100
1000
1100
0000
0000
0000
0110
0000
0000
0000
1000
0001
0000
0110
,
0000
0110
0000
0000
0000
0000
1000
0000
1000
0000
0001
0000
0100
0000
0010
0100
,
0000
0010
1000
0000
0001
0000
0001
0000
0001
0000
0100
0010
0000
0100
1000
0000
,
0101
0000
0000
0000
1000
0100
0010
0001
0101
0000
0000
0000
0110
0000
0000
0000
,
1000
0010
0000
0101
0000
0101
0000
0000
0000
0000
0010
0000
0010
0000
0100
0000
,
0010
1000
0010
1000
0000
0010
0100
0010
0000
0001
0010
1000
,
0010
1000
0010
0100
0010
0100
0010
0001
1000
0001
0000
0000
,
1010
0000
0101
0000
0110
0100
2002
0000
,
0000
0000
0000
3003
0001
0010
0100
0001
,
0010
0000
0000
0000
0100
0000
0000
0000
0001
0000
0000
0000
0000
0010
0000
0000
0000
0000
0000
0200
0000
0000
0000
0000
0000
0000
0000
2000
0000
0000
0000
0000
,
0000
0000
0000
0000
0000
0000
0000
0000
3000
0000
0000
0000
0000
0300
0000
0000
;
