#TITLE:WAVE TASTE;
#SUBTITLE:;
#ARTIST:SEGA;
#TITLETRANSLIT:;
#SUBTITLETRANSLIT:;
#ARTISTTRANSLIT:;
#CREDIT:;
#BANNER:wave-banner.jpg;
#BACKGROUND:wave-bg.jpg;
#LYRICSPATH:;
#CDTITLE:;
#MUSIC:wave.mp3;
#OFFSET:-0.057;
#SAMPLESTART:50.957;
#SAMPLELENGTH:12.000;
#SELECTABLE:YES;
#BPMS:0.000=120.000,90.750=119.980,95.000=120.000;
#STOPS:42.000=0.200
,43.000=0.200
,44.250=0.100
,47.500=0.100
,49.500=0.100
,53.500=0.200
,105.000=0.140
;
#BGCHANGES:;
// cache tags:
#FIRSTBEAT:4.000;
#LASTBEAT:136.000;
#SONGFILENAME:Songs/toune 2/Wave Taste/blank.sm;
#HASMUSIC:1;
#HASBANNER:1;
#MUSICLENGTH:67.004;
// end cache tags

//---------------dance-single - ----------------
#NOTES:
     dance-single:
     :
     Hard:
     9:
     0.793,0.761,0.433,0.030,1.000,341.000,29.000,2.000,0.000,0.000:
0000
0000
0000
0000
,
0110
0000
0001
0000
0110
0000
0001
0000
0010
0100
0010
0100
0010
0100
0010
0100
,
1000
0000
1000
0000
0001
1000
0001
1000
0000
0000
0010
1000
0010
1000
0000
0000
,
0001
0000
0001
0000
1000
0100
1000
0100
0000
0000
0010
0001
0010
0001
0000
0000
,
1010
0000
1100
0000
0010
0001
0010
0001
0000
0000
1000
0100
1000
0100
0000
0000
,
1010
0100
0001
0100
0010
1000
0010
0100
,
0001
0000
0001
0000
1000
0000
1000
0100
0001
0000
0001
0000
0001
0000
0001
0100
,
1000
0000
1000
0000
1000
0000
1000
0100
0001
0100
1000
0100
0001
0100
1000
0100
,
0001
0000
0001
0000
0010
0000
0100
0001
0010
0100
1000
0000
1001
0000
1000
0000
,
0010
1000
0100
0001
0100
1000
0001
0100
,
0010
0000
1000
0000
0010
0000
0000
0000
0001
0000
0010
1000
0110
0001
0100
0001
,
0000
0000
0000
0000
0000
0000
0000
0000
0000
0000
0000
0000
0000
0000
0000
0000
0000
0000
0000
0000
1100
0000
0000
0000
0110
0000
0000
0000
0011
0000
0000
0000
0000
0000
0000
0000
0000
0000
0000
0000
0000
0000
0010
0000
0000
0001
0000
0000
,
0100
1000
0100
0010
0001
0000
0000
1000
0100
0010
0001
0010
0000
1000
0000
0001
,
0010
0000
0000
0001
0000
0000
0010
0000
0000
0001
0000
0000
0000
0000
0000
0000
0000
0000
1010
0000
0000
0000
0000
0000
1001
0000
0000
0000
0100
0000
0000
0000
0010
0000
0000
0000
0100
0000
0000
0000
0001
0000
0000
0000
0010
0000
0000
0000
,
0000
0000
0000
0000
0000
0010
0000
0010
0000
1000
0000
0010
1000
0010
1000
0010
,
0000
1000
0010
1000
0010
1000
0000
1000
0000
0010
0000
1000
0010
1000
0010
1000
,
0000
0010
1000
0010
1000
0001
0010
0100
1000
0001
0000
0100
0010
1000
0001
0010
,
0100
1000
0100
0010
0001
1000
0000
1000
0000
1000
0000
1010
0000
1001
0000
1100
,
0000
1001
0000
1001
0000
0110
0000
0100
0000
0100
0000
0100
0001
0010
0000
0010
,
0000
0010
0000
0010
1000
0100
0000
0100
0000
0100
0000
0100
0001
0010
1000
0100
,
0001
0010
1000
0100
0001
0010
0000
0010
0000
0010
0000
0010
0001
0100
1000
0100
,
0001
0100
1000
0100
0010
0100
0010
0100
0010
0100
0010
0100
0010
0100
0010
0100
,
0010
0100
0010
0100
0010
1001
0000
1100
0000
0010
0001
1000
0000
0000
0000
0010
,
0100
0010
0100
0000
0000
0000
1001
0010
0001
0010
1000
0100
1001
0000
0000
0010
,
1000
0010
1000
0000
0000
0001
0010
0001
0010
0100
1000
0100
1000
0010
0100
0001
,
1000
0010
0000
0000
0010
0000
0000
0010
0000
0100
0000
0001
0000
0010
0000
0100
,
0000
0000
0000
1001
0000
0000
0000
0000
0000
0100
0000
0000
0000
0000
0000
1001
0000
0000
0000
0000
0010
0000
0000
0000
1001
0000
0000
0000
0000
0000
0000
0000
0000
0000
0000
0000
0010
0000
0000
0000
0000
0000
0000
0000
0000
0000
0000
0000
,
0100
0000
0001
0000
0010
0000
0100
1000
0100
1000
0100
0000
0010
0001
0010
0001
,
0010
0000
0001
0000
1000
0010
1000
0010
0000
0000
0100
0001
0100
0001
0100
0000
,
1010
0000
1001
0000
1000
0100
0010
0100
0000
0000
1000
0001
1000
0001
0100
0010
,
1000
0001
0010
0000
1100
0000
0010
0000
0001
0000
1000
0000
0010
0100
0001
1000
,
0010
0000
0010
0000
0010
0000
1000
0100
0001
0000
0001
0000
0001
0000
0001
0100
,
1000
0000
1000
0000
1000
0000
1000
0100
0001
0000
0001
0000
0001
0100
1000
0100
,
2002
0000
0000
0000
,
3003
0000
0000
0000
;
