#TITLE:Kom Hem;
#SUBTITLE:(Shpadoinkle);
#ARTIST:Barbados;
#TITLETRANSLIT:;
#SUBTITLETRANSLIT:;
#ARTISTTRANSLIT:;
#CREDIT:;
#BANNER:../thisandthat-bn.png;
#BACKGROUND:../thisnthat-bg.png;
#LYRICSPATH:;
#CDTITLE:;
#MUSIC:Kom Hem.ogg;
#OFFSET:-0.692;
#SAMPLESTART:45.451;
#SAMPLELENGTH:12.000;
#SELECTABLE:YES;
#DISPLAYBPM:134.000;
#BPMS:0.000=134.050,228.000=268.100,228.250=134.050,228.500=268.100,228.750=134.050,229.000=268.100,229.250=134.050,229.500=268.100,229.750=134.050,230.000=268.100,230.250=134.050,230.500=268.100,230.750=134.050,231.000=268.100,231.250=134.050,231.500=268.100,231.750=134.050,359.000=67.025,376.000=134.050;
#STOPS:228.000=0.089
,228.500=0.056
,229.000=0.056
,229.500=0.056
,230.000=0.056
,230.500=0.056
,231.000=0.056
,231.500=0.056
;
#BGCHANGES:;
// cache tags:
#FIRSTBEAT:34.000;
#LASTBEAT:446.000;
#SONGFILENAME:Songs/Seph, Gson & Shpadoinkle's Pack of This 'n That/Kom Hem [11]/Kom Hem.sm;
#HASMUSIC:1;
#HASBANNER:1;
#MUSICLENGTH:105.000;
// end cache tags

//---------------dance-single - Shpadoinkle----------------
#NOTES:
     dance-single:
     Shpadoinkle:
     Challenge:
     11:
     1.000,1.000,0.305,1.000,1.000,982.000,32.000,159.000,6.000,2.000:



0000
0000
0000
0000
,
0000
0000
0000
0000
,
0000
0000
0000
0000
,
0000
0000
0000
0000
,
0000
0000
0000
0000
,
0000
0000
0000
0000
,
0000
0000
0000
0000
,
0000
0000
0000
0000
,
0000
0000
0000
0000
0000
0000
0000
0000
1000
0001
0000
0100
0010
0000
1000
0000
,
0002
0000
0000
0000
,
0000
0023
0230
2300
,
3020
0000
0030
2000
3002
0000
0000
0000
,
0000
0000
0000
0000
0003
0000
2000
0000
3200
0000
0000
0000
0320
0000
0032
2003
,
3020
0000
0000
0000
,
0030
2000
3002
0023
,
0230
0000
0000
0000
0000
0000
0000
0000
0000
0000
0000
0000
0000
0000
2300
3002
,
0203
0000
0000
0300
,
1001
0000
1000
0000
0001
0000
0020
0030
0200
0300
2000
3000
0100
0000
0020
0030
,
0001
0000
0200
0300
1000
0000
0100
0000
0001
0000
0010
0000
0100
0000
1000
0000
,
1010
0000
0010
0000
1000
0000
0002
0003
0020
0030
2000
3000
0010
0000
0002
0003
,
0100
0010
1000
0100
0010
0001
0010
0100
,
0110
0000
0010
0000
0001
0000
2000
3000
0020
0030
0200
0300
1000
0000
0200
0300
,
0010
0000
2000
3000
0100
0000
0010
0000
0001
0000
0100
0000
0010
0000
1000
0000
,
1001
0000
0001
0000
0010
0000
0200
0300
2000
3000
0200
0300
0010
0000
0002
0003
,
0100
0010
1000
0001
0010
0100
0010
0001
,
1001
0000
1000
0000
0010
0000
0200
0300
0002
0003
2000
3000
0010
0000
0002
0003
,
0010
0000
2000
3000
0100
0000
0010
0000
0001
0000
0100
0000
0010
0000
1000
0000
,
1100
0000
0100
0000
0010
0000
0002
0003
0020
0030
0200
0300
0020
0030
0002
0003
,
1000
0010
0100
0001
0100
1000
0100
0001
,
1010
0000
1000
0000
0010
0000
0001
0000
0020
0030
2000
3000
0200
0300
0020
0030
,
0001
0000
0200
0300
0010
0000
1000
0000
0100
0000
0010
0000
0001
0000
1000
0000
,
1100
0000
0100
0000
0010
0000
0200
0300
2000
3000
0002
0003
0200
0300
0020
0030
,
1000
0001
0010
0100
0010
0001
1000
0010
,
1010
1000
0001
0020
0230
2300
0000
3200
,
0000
0320
0000
0032
0020
0000
0033
0001
,
2000
0000
3020
0000
,
0230
0000
0302
0000
,
1013
1000
0010
0200
0302
0023
0000
2030
,
0000
3020
0000
0032
0000
0003
0000
1000
,
0020
0000
0230
0000
,
0302
0000
0000
0003
2020
0000
0000
3030
,
1000
0100
1000
0100
1000
0100
1000
0100
1000
0100
0010
0001
1000
0100
0010
0001
,
1000
0010
0100
0001
1000
0001
1000
0001
0100
0001
0100
0001
0010
0001
0010
0001
,
1000
0010
1000
0010
1000
0010
1000
0010
0100
0001
0100
0001
0100
0001
0100
0001
,
1000
0010
0100
0001
1000
0100
0010
0001
0010
0100
0010
0100
1000
0001
1000
0001
,
0100
0010
0100
0010
0100
0010
0100
0010
0100
0010
0100
0010
1000
0001
0010
0100
,
1000
0001
0010
0100
1000
0100
1000
0100
0010
0001
0010
0001
0100
0001
0100
0001
,
1000
0010
1000
0010
1000
0010
1000
0010
1000
0010
0100
0001
1000
0100
1000
0001
,
0100
0001
0100
0001
0100
0001
0100
0001
0100
0000
0000
0000
0202
0000
0303
0000
,
0001
0010
0001
0010
0001
0010
0001
0010
0001
1000
0010
0100
0001
1000
0010
0100
,
0001
0010
0001
1000
0010
0100
0010
0100
0001
1000
0001
1000
0001
0010
0001
0010
,
0100
1000
0100
1000
0100
1000
0100
1000
0100
1000
0001
0010
0001
0100
0010
0100
,
0010
0100
0001
0010
0100
1000
0100
0010
0001
1000
0001
0100
0001
0010
0001
0010
,
0001
1000
0001
1000
0001
1000
0001
1000
0001
1000
0001
1000
0001
1000
0100
0010
,
0001
0010
0100
1000
0010
0100
0010
0100
0001
0100
0001
0100
0010
1000
0010
1000
,
0001
0010
0001
0010
0001
0010
0001
0010
0001
0010
0001
1000
0100
0010
0001
0010
,
0100
1000
0100
1000
0100
1000
0100
1000
0100
1000
0100
1000
0100
0000
1000
0000
,
0002
0003
0002
0003
0200
0300
0200
0300
0020
0030
0020
0030
2000
3000
2000
3000
,
2010
3010
1000
0010
0001
0010
1000
0100
,
0021
0031
1000
0010
0120
0130
0001
0010
,
0120
0130
1000
0001
0010
0100
0010
0001
,
2010
3010
1000
0001
1002
1003
0010
0100
,
0201
0301
1000
0010
0100
1000
0100
0010
,
2100
3100
0010
0001
1002
1003
0010
0100
,
0210
0310
1000
0001
0100
0001
0010
0100
,
1200
1300
0001
0010
0100
0010
0001
1000
,
0110
0010
1000
0002
0203
0320
0000
0032
,
0000
0023
0000
2030
0200
3300
0000
1000
,
0002
0000
0203
0000
,
0320
0000
2030
0000
,
3101
0001
1000
0020
0230
0302
0000
0203
,
0000
2300
0000
3200
0000
0300
0000
0010
,
2000
0000
3200
0000
,
0320
0000
0000
0030
2002
0000
0000
3003
,
0001
0100
0001
0100
0001
0100
0001
0100
0001
0100
0001
0100
0001
1000
0010
0100
,
0001
1000
0100
0010
0001
1000
0001
1000
0001
0010
0001
0010
0100
1000
0100
1000
,
0010
0100
0010
0100
0010
0100
0010
1000
0100
0010
0100
0010
0100
0010
0001
0010
,
0100
1000
0001
0010
0100
1000
0001
0010
0001
0010
0001
1000
0001
1000
0001
1000
,
0010
1000
0010
1000
0010
1000
0010
1000
0010
1000
0010
1000
0010
1000
0010
1000
,
0010
0100
0010
1000
0001
0010
0001
0010
0001
1000
0001
1000
0100
0010
0100
0010
,
0001
1000
0001
1000
0001
1000
0001
1000
0001
1000
0001
1000
0001
0010
0100
1000
,
0010
0100
0010
0100
0010
0100
0010
0100
0010
0000
0000
0000
2002
0000
0000
3003
,
1000
0010
1000
0010
1000
0010
1000
0010
1000
0010
1000
0010
1000
0100
0010
0001
,
0010
0100
0010
0100
1000
0001
1000
0001
1000
0010
1000
0010
0100
0001
0100
0001
,
0010
0001
0010
0001
0010
0001
0010
0001
0010
0001
0010
0100
1000
0010
0100
0001
,
0100
0001
0100
0001
0100
0001
0100
0001
1000
0010
0100
0001
1000
0010
1000
0010
,
0100
0001
0100
0001
0100
0001
0100
0001
0100
0001
0100
0001
0100
0001
0010
0100
,
1000
0100
0010
0001
1000
0010
1000
0010
1000
0001
1000
0001
0100
0010
0100
0010
,
1000
0010
1000
0010
1000
0010
1000
0010
1000
0010
1000
0100
0010
0001
0010
0100
,
1000
0100
1000
0100
1000
0100
1000
0100
1000
0100
1000
0100
2000
0000
3020
0000
,
0000
0030
1001
0000
0000
0000
0000
0000
2000
0000
3200
0000
0320
0000
0032
0000
,
0003
0100
0020
0000
0030
0000
0000
0000
0000
1000
0020
0000
0230
0000
0302
0000
,
0000
0000
0000
0003
0000
0000
0000
0000
2000
0000
3002
0000
0203
0000
2300
0000
,
0000
0000
0000
3100
0020
0000
4030
0000
0000
0000
0000
0000
0000
0000
0000
0000
,
0000
0000
0000
0000
0000
0000
0000
3000
2002
0000
3003
0000
1000
0100
1000
0100
,
1000
0010
1000
0010
1000
0001
1000
0001
0100
0001
0100
0001
1000
0100
1000
0100
,
1000
0010
1000
0010
1000
0001
1000
0001
0100
0001
0100
0001
1000
0010
1000
0010
,
1000
0010
1000
0010
1000
0001
1000
0001
1000
0001
1000
0001
0100
0010
0100
0010
,
0100
0010
0100
0010
0100
0001
0100
0001
0100
0001
0100
0001
1000
0100
0010
0001
,
1000
0010
0100
0001
1000
0100
0010
0001
1000
0010
0100
0001
1000
0010
0100
0010
,
1000
0100
0010
0100
1000
0010
0100
0010
1000
0100
0010
0100
1000
0001
1000
0001
,
1000
0001
1000
0001
1000
0001
1000
0001
1000
0010
0100
0001
0010
0100
0010
0100
,
0020
0000
0000
0000
0000
0000
0030
0000
2002
0000
3003
0000
2000
0000
3000
0001
,
0010
0100
2000
0000
0000
0000
0000
3000
0010
0000
1000
0000
0001
0000
0100
0000
,
0040
4030
3400
0340
,
0000
0000
0000
0000
0031
1000
0001
1000
0001
0000
2000
0000
0000
0000
3000
0000
,
0001
1000
0020
0000
0130
0010
0100
0010
1000
0010
1000
0010
2000
0000
0000
3100
,
2000
0000
0000
3000
0100
0010
0001
0010
0100
1000
0010
0100
0020
0000
1030
0000
,
0002
0000
0103
0000
0020
0000
1030
0000
0200
0000
0000
0000
0310
0001
0010
0001
,
0010
0001
0010
0001
0010
0001
1000
0010
0100
0010
0100
0001
0100
0001
0100
0001
,
0200
0000
0000
0000
0000
0000
0000
0300
0002
0000
0000
0003
0220
0000
M00M
0000
,
0000
M00M
0000
M00M
0330
0000
0000
0000
;
