#TITLE:Milky Factory;
#SUBTITLE:;
#ARTIST:Kobaryo;
#TITLETRANSLIT:;
#SUBTITLETRANSLIT:;
#ARTISTTRANSLIT:;
#CREDIT:owenviau1;
#BANNER:../BN.PNG;
#BACKGROUND:;
#LYRICSPATH:;
#CDTITLE:../CDTitleOV1.png;
#MUSIC:Kobaryo - Milky Factory.ogg;
#OFFSET:-3.385;
#SAMPLESTART:30.127;
#SAMPLELENGTH:29.999;
#SELECTABLE:YES;
#DISPLAYBPM:143.503:287.005;
#BPMS:0.000=143.503,32.000=287.005,96.000=143.503,128.000=287.005,192.000=143.503,272.000=287.005,336.000=143.503,488.000=287.005,596.000=143.503,597.000=287.005,615.000=143.503,618.000=287.005;
#STOPS:;
#BGCHANGES:;
// cache tags:
#FIRSTBEAT:0.000;
#LASTBEAT:621.333;
#SONGFILENAME:Songs/owenviau1 Simfiles 07_final/Milky Factory - [owenviau1] v1.0.8/Milky Factory.sm;
#HASMUSIC:1;
#HASBANNER:1;
#MUSICLENGTH:201.613;
// end cache tags

//---------------dance-single - 15.28 (15) (owenviau----------------
#NOTES:
     dance-single:
     15.28 (15) (owenviau:
     Hard:
     15:
     1.000,1.000,0.174,0.575,0.960,1458.000,35.000,116.000,12.000,1.000:
1000
0100
0010
0001
1000
0010
0100
0010
,
1000
0000
0001
0100
0010
0000
1000
0001
0100
0000
0001
1000
0010
0100
0010
0000
,
1000
0001
0010
0100
1000
0001
0100
0010
,
1000
0000
0100
0010
0001
0000
0100
0001
1000
0100
0010
0001
0100
0010
0100
0001
,
10M0
0100
0010
0001
0100
0010
1000
0010
,
0100
0000
0001
0000
1000
0000
0100
0000
0010
0001
1000
0010
0100
0010
1000
0001
,
0010
0100
1000
0010
0100
0001
2000
3001
,
0200
0000
0020
0300
2000
0030
0002
3000
0020
0003
0000
0000
0230
0000
0000
0000
,
1300
0001
0100
0010
0100
0001
1000
0100
,
1000
0001
0100
0010
1000
0001
0010
0001
,
1000
0100
0010
0001
1000
0010
1000
0001
,
0100
0000
0010
0000
0100
0000
0001
0000
1000
0000
0100
0000
0010
0001
1000
0010
,
0100
0001
1000
0010
0100
0010
1000
0001
,
0010
0001
1000
0100
0010
0001
1000
0010
,
0100
0010
1000
0001
0010
0001
0100
0010
,
1000
0001
0100
0001
0010
0100
1000
0001
2000
0000
0000
0000
3002
0000
0000
0000
,
1003
0100
1000
0010
0100
0001
0100
0010
,
1000
0001
1000
0100
0010
0001
0100
0010
,
1000
0001
0010
0100
1000
0001
0100
0001
,
1000
0000
0010
0000
0100
0000
0010
0000
1000
0000
0001
0000
0010
0100
1000
0001
,
1000
0010
0100
0010
1000
0001
0010
0001
,
1000
0100
0010
0001
1000
0010
0100
0001
,
0100
0000
0010
0000
1000
0100
1000
0001
0100
0000
0010
0000
1000
0001
1000
0100
,
0020
0000
0030
2002
0000
3003
0102
0000
,
1003
0000
0010
0000
0100
0010
1000
0001
0010
0000
0100
0000
1000
0000
0001
0000
,
0100
0000
0010
1000
0010
0000
0100
0001
40M0
0000
3100
0000
0010
0000
0002
0000
,
1003
0000
0010
0000
0100
0001
1000
0100
0020
0032
2003
3020
0230
0302
2003
3002
,
0023
0000
0000
0000
0000
0000
0000
0000
0000
0000
0000
0000
0130
0000
0000
0000
0000
0000
1000
0000
0000
0000
0000
0000
0001
0000
0000
0000
0100
0000
0000
0000
0010
0000
0000
0000
0100
0000
0000
0000
0001
0000
0000
0000
1000
0000
0000
0000
0100
0000
0000
0000
0000
0000
0010
0000
0000
0000
0000
0000
0001
0000
0000
0000
0000
0000
1000
0000
0000
0000
0000
0000
0010
0000
0000
0100
0000
0000
0010
0000
0000
0000
0000
0000
1000
0000
0000
0000
0000
0000
0001
0000
0000
0000
0000
0000
,
0020
0000
0000
0000
0000
0000
0000
0000
0430
0000
0000
0000
0000
0000
0000
0000
1300
0000
0000
0000
0010
0000
0100
0000
0000
0000
0001
1000
0002
0000
0000
0000
,
0013
0000
0000
0100
0000
0000
4000
0000
0000
0000
0000
0000
3000
0000
0000
4000
0000
0000
0000
0000
0000
3000
0000
0000
1000
0000
0000
0000
0010
0000
0000
0000
0100
0000
0000
0000
0004
0000
0000
0000
0000
0000
0000
0000
0000
0000
0000
0000
,
2003
0000
0000
0000
0000
0000
0000
0000
3040
0000
0000
0000
0000
0000
0000
0000
0130
0000
0000
0000
0001
0000
1000
0000
0000
0000
0010
0100
0020
0000
0000
0000
,
1030
0000
0000
0000
0000
0000
0001
0000
0000
0000
0000
0000
0400
0000
0000
0000
0000
0000
0000
0000
0000
0000
0000
0000
0300
0000
0000
0000
0000
0000
0400
0000
0000
0000
0000
0000
0000
0000
0000
0000
0000
0000
0300
0000
0000
0000
0000
0000
0010
0000
0000
0000
0000
0000
0000
0000
1000
0000
0000
0000
0001
0000
0000
0000
0000
0000
0010
0000
0000
0000
0000
0000
0100
0000
0000
0000
0000
0000
1000
0000
0000
0000
0000
0000
0010
0000
0000
0100
0000
0000
0001
0000
0000
1000
0000
0000
,
0001
0010
0100
1000
0001
0100
0010
0100
,
0001
1000
0100
0010
0001
1000
0010
1000
,
0001
0100
0010
0100
0001
1000
0010
1000
,
0001
0000
0010
0000
0100
0000
1000
0000
0001
0000
0100
0000
0010
1000
0001
0100
,
0001
1000
0010
0100
0001
1000
0100
1000
,
0001
0100
0001
1000
0010
0100
0001
1000
,
0100
1000
0001
0010
0100
1000
0001
1000
,
0100
0010
0001
1000
0001
0100
0010
1000
0002
0000
0000
0000
2003
0000
0000
0000
,
3010
0100
0010
1000
0001
0010
0100
1000
,
0001
0000
0010
0000
0001
0000
1000
0000
0010
0000
0100
0000
0010
0000
1000
0001
,
1000
0100
0010
0001
1000
0001
0100
0010
,
1000
0001
0100
0010
0100
0000
0001
0000
0100
0000
0010
1000
0010
0000
0000
0000
,
0100
0001
1000
0010
0100
0001
1000
0100
,
1000
0000
0001
0000
0100
0000
0001
0000
1000
0000
0010
0000
0100
0000
0001
1000
,
0001
0010
0100
1000
0001
0100
0010
0100
,
0001
0000
1000
0010
1000
0000
0001
0000
0100
0010
0100
0001
1000
0010
1000
0001
,
0100
0000
0010
1000
0001
0000
0010
0000
0100
0000
1000
0000
0001
0000
0100
0000
,
0010
0000
0100
0001
1000
0000
0010
0000
0100
0000
0010
0000
1000
0000
0001
0000
,
0010
0000
0100
1000
0001
0000
0100
0000
0010
0000
0100
0000
0001
0000
1000
0000
,
0010
0000
1000
0001
1000
0000
0010
0000
0200
0000
0001
0000
0302
0003
0000
0000
,
1000
0000
0100
0000
0010
0000
0001
1000
0001
0000
0100
0000
0010
0000
0100
0000
,
0001
0000
1000
0000
0100
0000
0010
0001
0100
0000
0010
0000
1000
0000
0001
0000
,
0010
0000
0001
0000
1000
0000
0010
0100
0010
0000
1000
0000
0001
0000
0010
0000
,
0100
0000
1000
0000
0001
0000
0100
0010
1000
0000
0001
0000
1000
0100
0010
0001
,
1000
0000
0000
0000
0010
0000
0000
0000
0100
0000
0000
0000
0010
0000
1000
0000
0001
0000
0000
0M00
1000
0000
0000
0000
0010
0000
0000
0000
0100
0000
0000
0000
,
0001
0000
1000
0000
0100
0000
0010
0001
0100
0000
0010
0000
1000
0000
0001
0000
,
0010
0000
0001
0000
1000
0000
0010
0100
0010
0000
1000
0000
0001
0000
0010
0000
,
0100
0000
1000
0000
0001
0000
0100
0010
1000
0000
0001
0000
1000
0000
0010
0000
,
0101
0000
0000
0101
0000
0000
0101
0000
0101
0000
0000
0101
0000
0000
0202
0000
,
0303
0000
1010
0000
0000
1010
0000
0000
1010
0000
0000
1010
0000
0000
1010
0000
,
2002
0000
3003
1001
0000
0000
1001
0000
1001
0000
0000
1001
0000
0000
2002
0000
,
3003
0000
0011
0000
0000
0011
0000
0000
0011
0000
0000
0011
0000
0000
0012
0000
,
1003
0000
0010
0100
0010
0000
1000
0001
0100
0001
1000
0100
0010
0000
0001
0100
,
0010
0000
0000
0000
1000
0000
0010
0000
0100
0000
0000
0000
0001
0000
1000
0000
0010
0100
0010
1000
0001
0000
0010
0000
0100
0000
1000
0000
0010
0000
0100
0000
,
0001
0000
1000
0010
1000
0000
0001
0010
0100
1000
0001
0100
0010
0000
1000
0001
,
0100
0000
0000
0000
0010
0000
1000
0000
0010
0000
0000
0000
0100
0000
0001
0000
2000
0000
0000
0000
3020
0000
0000
0000
0130
0001
1000
0010
1000
0001
0100
0010
,
1000
0001
0100
0001
1000
0010
0100
0001
,
1000
0100
1000
0001
0020
0000
0000
0000
,
0130
1000
0001
0100
0010
0100
0001
1000
,
0010
1000
0001
0010
0200
0000
4300
0000
,
3001
0100
0010
0100
0001
1000
0010
1000
,
0001
0010
0100
1000
0002
0000
0000
0000
,
0103
0010
1000
0010
0100
0001
0010
0001
,
1000
0010
0100
0001
2000
0000
3040
0000
,
0130
0001
1000
0100
1000
0001
0010
0100
,
1000
0001
0100
0010
0200
0000
0000
0000
,
0301
1000
0001
0010
0100
1000
0001
0100
,
0010
1000
0001
1000
0200
0000
0320
0000
,
0031
1000
0100
1000
0001
0100
0010
0100
,
0001
1000
0100
0010
0002
0000
0000
0000
,
1013
0000
0100
0001
1000
0000
0100
0010
,
0002
0000
0000
0000
0203
0000
0000
0000
0310
1000
0010
0100
0001
1000
0001
0010
,
M200
M000
M000
M000
M000
M000
M000
M000
M000
0000
0000
0000
0000
0000
0000
0000
0000
0000
0000
0000
0000
0000
0000
0000
0000
0000
0000
0000
0000
0000
0000
0000
,
0000
0000
0000
0000
,
1300
0000
0001
0100
0000
0001
0100
0000
0000
0000
0000
0000
0000
0000
0000
0000
,
0010
0000
1000
0001
0000
1000
0001
0000
0000
0000
0000
0000
0020
0000
0000
0000
,
0130
0000
1000
0001
0000
0100
0002
0000
0013
0100
0000
1000
0200
0000
0310
0001
,
0000
1000
0020
0000
0130
0000
0001
1000
0000
0010
2000
0000
3001
0000
0100
0010
,
0000
0100
0002
0000
1003
0010
0000
0010
0200
0000
0301
0000
1000
0100
0000
1000
,
0020
0000
0130
0001
0000
1000
0200
0000
2300
0000
3020
0000
0130
0001
1000
0010
,
0100
0010
1000
0001
0100
0001
0010
0100
1000
0001
0100
0010
0100
0001
1000
0010
,
1000
0001
0100
0010
0100
0001
1000
0010
1000
0001
0100
0010
1000
0001
0010
0001
,
1000
0100
0010
0001
0100
0001
1000
0010
0100
0010
1000
0001
0010
0001
1000
0100
,
0010
0001
1000
0010
0100
0001
0100
0010
1000
0001
0010
0100
1000
0001
0100
0010
,
1000
0000
0000
0000
,
0000
0000
2000
0000
,
3001
0000
0010
0100
1000
0000
0020
0000
0130
0001
1000
0001
0100
0000
0020
0000
,
1030
0000
0000
0001
0000
0000
1000
0000
0000
0000
0000
0000
0010
0000
0000
0000
0000
0000
0100
0000
0000
0000
0000
0000
0001
0000
0000
0000
0000
0000
0000
0000
0000
0000
0000
0000
1000
0000
0000
0000
0010
0000
0000
0000
0100
0000
0000
0000
0001
0000
0000
0000
0000
0000
0000
0000
0000
0000
0000
0000
1000
0000
0000
0000
0000
0000
0000
0000
0000
0000
0000
0000
0100
0000
0000
0010
0000
0000
0001
0000
0000
1000
0000
0000
0010
0000
0000
1000
0000
0000
0001
0000
0000
0100
0000
0000
,
0020
1030
0001
0100
0010
0100
0002
1003
0100
1000
0002
0103
0020
1030
0002
0013
,
0002
1003
0100
1000
0002
0103
0010
1000
0020
0130
0001
1000
0200
1300
0001
0010
,
0002
1003
0100
0010
0001
0100
0002
1003
0010
0100
0020
1030
0002
0013
0002
1003
,
0020
1030
0100
0010
0001
0100
0002
1003
0010
0100
0001
1000
0200
0310
0001
1000
,
0040
0000
0000
0000
,
0000
0000
0000
0000
,
1030
0000
0100
0000
0010
0001
1000
0010
0000
0100
0001
0000
1000
0100
0010
0001
,
1000
0000
0010
0000
0100
0001
1000
0010
0000
0100
0001
0000
1000
0010
0100
0001
,
0100
0000
0010
0000
1000
0001
0010
0001
0000
0100
0010
0000
1000
0001
1000
0100
,
0010
0000
0001
0000
0100
0010
0100
0001
0000
1000
0010
0000
0100
0001
1000
0010
,
1000
0000
0001
0000
0100
0001
1000
0010
0000
0100
0001
0000
1000
0100
0010
0001
,
1000
0000
0010
0000
0100
0001
1000
0010
0000
0100
0001
0000
1000
0010
0100
0001
,
0100
0000
0010
0000
1000
0001
0010
0001
0000
0100
0010
0000
1000
0001
1000
0100
,
0010
0000
0001
1000
0010
0000
0100
0001
0010
0000
0200
0300
2000
3000
0020
0030
,
1000
0000
0100
0000
0010
0001
1000
0010
0000
0100
0001
0000
1000
0100
0010
0001
,
0100
0000
0010
0000
1000
0001
1000
0010
0000
0100
0001
0000
1000
0010
0100
0001
,
0100
0000
0010
0000
1000
0001
0010
0001
0000
0100
0010
0000
1000
0001
1000
0100
,
0010
0000
0001
0000
0100
0010
0100
0001
0000
1000
0010
0100
0001
0000
1000
0000
,
0010
0100
0001
1000
0100
1000
0001
0100
0010
0100
0001
1000
0100
0010
0001
1000
,
0010
0100
0001
1000
0100
1000
0001
0010
0001
0100
0010
1000
0001
0100
0001
1000
,
0010
0000
0100
0000
0001
0000
1000
0000
0100
0000
0010
0000
0001
0000
0100
0000
0010
0000
0100
0000
0001
0000
1000
0000
0010
0100
0010
1000
0001
0100
0001
1000
,
0020
0000
0200
0030
0002
0300
2000
0003
0002
3000
0000
0000
0203
0000
0000
0000
,
0310
1000
0001
0100
0001
1000
0010
0100
,
0001
0000
1000
0000
0100
0000
1000
0000
0001
0000
0010
0000
0100
1000
0001
0100
,
0001
1000
0010
0100
0010
1000
0001
0010
,
0001
0000
1000
0000
0100
0000
0010
0000
0001
0100
0010
1000
0020
0000
0130
0000
,
0001
1000
0010
1000
0001
0100
0010
1000
,
0001
0000
0010
0000
0001
0000
1000
0000
0100
0000
0010
0000
0001
0100
0010
1000
,
0010
0100
0001
1000
0100
1000
0010
0100
,
0002
0000
0203
0000
0320
0000
2030
0000
3001
0100
0001
1000
0010
0100
0010
1000
,
0001
0100
0010
0100
0001
1000
0100
1000
,
0010
0000
0100
0000
0001
0000
1000
0000
0100
0000
0010
0000
0001
1000
0001
0100
,
0010
1000
0001
0010
0001
1000
0010
0100
,
0010
0000
1000
0000
0001
0000
0010
0000
0100
1000
0001
0100
0002
0000
1003
0000
,
0010
0100
0010
1000
0001
0010
0100
1000
,
0001
0000
0100
0000
0010
0000
1000
0000
0010
0000
0100
0000
0001
1000
0001
0100
,
0020
0000
1030
0000
0001
0100
0001
1000
0010
0100
0001
0000
1000
0000
0100
0010
,
0001
1000
0010
1000
0002
0000
0013
0000
0200
0000
1300
0000
0020
0000
0130
0000
,
0000
0000
0001
1000
0001
0100
0010
0100
,
0001
0000
1000
0000
0010
0000
1000
0000
0001
0000
0100
0000
0001
1000
0001
0100
,
0010
1000
0001
0010
0001
1000
0010
0100
,
0010
0000
1000
0000
0001
0000
0100
0000
0001
1000
0010
0100
0002
0000
1003
0000
,
0100
0010
0001
1000
0010
0100
0010
1000
,
0001
0000
0010
0000
0001
0000
0100
0000
0010
0000
1000
0000
0001
0100
0010
1000
,
0020
0030
0100
0001
1000
0100
1000
0010
,
0000
0000
0100
0000
0001
0000
0000
0000
1000
0010
1000
0001
0100
0010
1000
0001
,
0100
0000
0010
0000
0100
0000
0001
0000
1000
0010
1000
0000
0001
0000
0100
0010
,
0100
0000
0001
0000
1000
0100
1000
0000
0004
0000
0000
0000
1003
0100
1000
0001
,
0100
0010
0100
0000
0001
0000
1000
0000
0010
0100
0010
0000
1000
0000
0001
0010
,
0002
0000
0003
2000
0000
3000
0020
0000
0130
0000
0001
0000
0100
0000
0000
0000
0020
0000
0000
0000
1030
0000
0000
0000
0001
0000
0010
0000
0001
0000
0000
0000
,
1000
0010
1000
0001
0100
0010
0100
0000
0001
0000
1000
0010
4000
0000
0000
0000
,
3001
0100
0001
1000
0010
0100
0010
1000
0001
0010
0100
1000
0002
0000
0103
0000
,
0010
1000
0010
0100
0001
1000
0001
0010
0100
1000
0001
0100
0002
0000
1003
0000
,
0020
0000
0130
0000
0020
0000
1030
0000
0002
0000
0103
0000
0010
0000
1000
0001
,
0100
0000
0010
1000
0001
0010
0200
1300
0020
0000
0030
0000
2002
0000
0000
0000
,
0000
0000
0000
0003
3000
0000
0000
0000
0000
0000
0000
0000
,
0000
0000
0000
0000
,
0000
0000
0000
0000
,
0000
0000
0000
0000
,
0000
0000
0000
0000
,
0000
0000
0000
0000
,
0000
0000
0000
0000
,
0000
0000
0000
0000
;

//---------------dance-single - 24.20 (24) (owenviau----------------
#NOTES:
     dance-single:
     24.20 (24) (owenviau:
     Challenge:
     24:
     1.000,1.000,0.169,0.560,1.000,1897.000,34.000,113.000,12.000,0.000:
1000
0100
0010
0001
1000
0010
0100
0010
,
1000
0000
0001
0000
1000
0000
0010
0000
0100
0000
0001
1000
0010
0100
0010
0000
,
1000
0001
0010
0100
1000
0001
0100
0010
,
1000
0000
0010
0000
0100
0000
0001
0000
1000
0100
0010
0001
0100
0010
0100
0001
,
10M0
0100
0010
0001
0100
0010
1000
0010
,
0100
0000
0001
0000
1000
0000
0100
0000
0010
0001
1000
0010
0100
0010
1000
0001
,
0010
0100
1000
0010
0100
0001
2000
3001
,
0200
0000
0020
0300
2000
0030
0002
3000
0020
0003
0000
0000
0230
0000
0000
0000
,
1300
0001
0100
0010
0100
0001
1000
0010
1000
0001
0100
0010
1000
0001
0010
0001
,
0100
0010
1000
0001
1000
0100
0010
0001
0100
0010
1000
0001
0100
0001
1000
0010
,
0100
0001
0100
0010
1000
0001
0010
0001
1000
0100
1000
0010
0100
0010
1000
0001
,
0100
0001
0010
0100
1000
0001
0100
0010
0100
0001
1000
0010
1000
0001
0100
0001
,
1000
0100
0010
0001
0100
0010
1000
0001
0010
0001
0100
0010
1000
0001
0100
0001
,
1000
0010
0100
0001
1000
0100
1000
0001
0010
0100
1000
0010
0100
0001
0100
0010
,
1000
0001
0010
0100
1000
0001
0010
0001
0100
0010
1000
0001
0100
0001
0010
0100
,
1000
0001
0100
0001
0010
0100
1000
0001
2000
0000
0000
0000
3002
0000
0000
0000
,
1003
0010
0100
0010
1000
0001
0100
0001
1000
0010
0100
0001
0100
0010
1000
0001
,
0010
0001
1000
0010
1000
0001
0100
0010
0100
0001
1000
0010
1000
0001
0100
0001
,
1000
0100
0010
0001
0100
0010
1000
0010
0100
0001
1000
0100
1000
0001
0100
0010
,
0100
0001
1000
0010
1000
0001
0100
0010
1000
0001
0010
0100
1000
0001
0100
0001
,
1000
0100
0010
0001
0100
0010
1000
0001
0100
0001
1000
0010
0100
0010
1000
0001
,
0010
0001
0100
0010
1000
0001
0100
0001
1000
0010
0100
0010
1000
0001
0010
0001
,
0100
0010
1000
0001
0010
0100
1000
0001
0100
0001
0010
0100
1000
0001
1000
0100
,
0020
0000
0030
2002
0000
3003
0102
0000
,
1003
0000
0010
0000
0100
0010
1000
0001
0010
0000
0100
0000
1000
0000
0001
0000
,
0100
0010
0100
0001
40M0
3100
0010
0002
,
1003
0000
0010
0000
0100
0001
1000
0100
0020
0032
2003
3020
0230
0302
2003
3002
,
0023
0000
0000
0000
0000
0000
0000
0000
0000
0000
0000
0000
0130
0000
0000
0000
0000
0000
1000
0000
0000
0000
0000
0000
0001
0000
0000
0000
1000
0000
0000
0000
0010
0000
0000
0000
0100
0000
0000
0000
0001
0000
0000
0000
1000
0000
0000
0000
0100
0000
0000
0000
0000
0000
0010
0000
0000
0000
0000
0000
0001
0000
0000
0000
0000
0000
1000
0000
0000
0000
0000
0000
0010
0000
0000
0100
0000
0000
0010
0000
0000
0000
0000
0000
1000
0000
0000
0000
0000
0000
0001
0000
0000
0000
0000
0000
,
0020
0000
0000
0000
0000
0000
0000
0000
0430
0000
0000
0000
0000
0000
0000
0000
1300
0000
0000
0000
0010
0000
0100
0000
0000
0000
0001
1000
0002
0000
0000
0000
,
0013
0000
0000
0100
0000
0000
4000
0000
0000
0000
0000
0000
3000
0000
0000
4000
0000
0000
0000
0000
0000
3000
0000
0000
1000
0000
0000
0000
0010
0000
0000
0000
0100
0000
0000
0000
0004
0000
0000
0000
0000
0000
0000
0000
0000
0000
0000
0000
,
2003
0000
0000
0000
0000
0000
0000
0000
3040
0000
0000
0000
0000
0000
0000
0000
0130
0000
0000
0000
0001
0000
1000
0000
0000
0000
0010
0100
0020
0000
0000
0000
,
1030
0000
0000
0000
0000
0000
0001
0000
0000
0000
0000
0000
0400
0000
0000
0000
0000
0000
0000
0000
0000
0000
0000
0000
0300
0000
0000
0000
0000
0000
0400
0000
0000
0000
0000
0000
0000
0000
0000
0000
0000
0000
0300
0000
0000
0000
0000
0000
0010
0000
0000
0000
0000
0000
0000
0000
1000
0000
0000
0000
0001
0000
0000
0000
0000
0000
0010
0000
0000
0000
0000
0000
0100
0000
0000
0000
0000
0000
1000
0000
0000
0000
0000
0000
0010
0000
0000
0100
0000
0000
0001
0000
0000
1000
0000
0000
,
0001
0100
0010
0100
0001
1000
0010
1000
0100
0010
0001
0100
0010
1000
0010
0100
,
0001
1000
0100
0010
0001
1000
0010
0100
0001
1000
0100
1000
0010
0100
0001
0100
,
0010
1000
0001
0010
0100
1000
0001
0010
0001
0100
0010
1000
0010
0100
0001
1000
,
0100
1000
0001
0100
0010
1000
0001
0010
0100
1000
0010
0100
0001
1000
0010
1000
,
0100
0010
0001
0100
0010
1000
0010
0100
0001
1000
0100
0010
0001
1000
0010
0100
,
0001
1000
0100
1000
0010
0100
0001
0100
0010
1000
0001
0010
0100
1000
0001
0010
,
0001
0100
0010
1000
0010
0100
0001
1000
0100
1000
0001
0100
0010
1000
0001
0010
,
0100
1000
0010
0100
0001
0100
0010
1000
0002
0000
0000
0000
2003
0000
0000
0000
,
3010
0100
0001
0100
0010
1000
0001
0010
0001
0100
0010
1000
0001
0100
0001
1000
,
0010
0100
0010
1000
0001
0010
0100
1000
0001
0100
0010
1000
0010
0100
0001
1000
,
0100
0010
0001
0100
0010
1000
0001
0100
0001
1000
0100
0010
0001
1000
0010
0100
,
0010
1000
0001
0100
0001
0010
0100
1000
0001
0100
0010
1000
0010
0000
0000
0000
,
1000
0001
0010
0001
0100
0010
1000
0001
0100
0001
1000
0010
0100
0010
1000
0001
,
0010
0100
1000
0001
0100
0010
1000
0010
0100
0001
1000
0100
0010
0001
0100
0010
,
1000
0001
0100
0001
0010
0100
1000
0001
0100
0010
0100
0001
1000
0010
1000
0001
,
0100
0010
1000
0001
0100
0000
0001
0000
1000
0010
0100
0001
1000
0010
1000
0001
,
0100
0000
0010
1000
0001
0000
0010
0000
0100
0000
1000
0000
0001
0000
0100
0000
,
0010
0000
0100
0001
1000
0000
0010
0000
0100
0000
0010
0000
1000
0000
0001
0000
,
0010
0000
0100
1000
0001
0000
0100
0000
0010
0000
0100
0000
0001
0000
1000
0000
,
0010
0000
1000
0001
1000
0000
0010
0000
0200
0000
0001
0000
0302
0003
0000
0000
,
1000
0000
0100
0000
0010
0000
0001
1000
0001
0000
0100
0000
0010
0000
0100
0000
,
0001
0000
1000
0000
0100
0000
0010
0001
0100
0000
0010
0000
1000
0000
0001
0000
,
0010
0000
0001
0000
1000
0000
0010
0100
0010
0000
1000
0000
0001
0000
0010
0000
,
0100
0000
1000
0000
0001
0000
0100
0010
1000
0000
0001
0000
1000
0100
0010
0001
,
1000
0000
0000
0000
0010
0000
0000
0000
0100
0000
0000
0000
0010
0000
1000
0000
0001
0000
0000
0M00
1000
0000
0000
0000
0010
0000
0000
0000
0100
0000
0000
0000
,
0001
0000
1000
0000
0100
0000
0010
0001
0100
0000
0010
0000
1000
0000
0001
0000
,
0010
0000
0001
0000
1000
0000
0010
0100
0010
0000
1000
0000
0001
0000
0010
0000
,
0100
0000
1000
0000
0001
0000
0100
0010
1000
0000
0001
0000
1000
0000
0010
0000
,
0101
0000
0000
0101
0000
0000
0101
0000
0101
0000
0000
0101
0000
0000
0202
0000
,
0303
0000
1010
0000
0000
1010
0000
0000
1010
0000
0000
1010
0000
0000
1010
0000
,
2002
0000
3003
1001
0000
0000
1001
0000
1001
0000
0000
1001
0000
0000
2002
0000
,
3003
0000
0011
0000
0000
0011
0000
0000
0011
0000
0000
0011
0000
0000
0012
0000
,
1003
0000
0010
0100
0010
0000
1000
0001
0100
0001
1000
0100
0010
0000
0001
0100
,
0010
0000
0000
0000
1000
0000
0010
0000
0100
0000
0000
0000
0001
0000
1000
0000
0010
0100
0010
1000
0001
0000
0010
0000
0100
0000
1000
0000
0010
0000
0100
0000
,
0001
0000
1000
0010
1000
0000
0001
0010
0100
1000
0001
0100
0010
0000
1000
0001
,
0100
0000
0000
0000
0010
0000
1000
0000
0010
0000
0000
0000
0100
0000
0001
0000
2000
0000
0000
0000
3020
0000
0000
0000
0130
0001
1000
0010
1000
0001
0100
0010
,
1000
0001
0100
0001
0010
0100
1000
0001
0100
0010
0100
0001
1000
0010
1000
0001
,
0100
0010
1000
0010
0100
0001
1000
0100
0020
0000
0000
0000
0000
0000
0000
0000
,
0031
0100
0010
1000
0001
0100
0001
1000
0010
0100
0010
1000
0001
0010
0001
0100
,
0010
1000
0001
0010
0001
0100
0010
1000
0002
0000
0000
0000
4003
0000
0000
0000
,
3010
0100
0001
0100
0010
1000
0001
0010
0001
1000
0100
0010
0001
0100
0010
1000
,
0001
0100
0001
1000
0010
0100
0010
1000
0002
0000
0000
0000
0000
0000
0000
0000
,
0103
0010
0100
0001
1000
0010
1000
0100
0010
0001
0100
0010
1000
0001
0010
0100
,
1000
0001
0010
0001
0100
0010
1000
0001
2000
0000
0000
0000
3040
0000
0000
0000
,
0130
0001
0100
0010
1000
0001
0010
0001
0100
0010
1000
0001
0100
0001
1000
0010
,
0100
0001
0100
0010
1000
0001
1000
0010
0200
0000
0000
0000
0000
0000
0000
0000
,
0301
0010
0100
1000
0001
0100
0010
1000
0001
0100
0001
1000
0010
0100
0010
1000
,
0001
0010
0001
1000
0010
0100
0001
1000
0200
0000
0000
0000
0320
0000
0000
0000
,
0031
1000
0010
0100
0010
1000
0001
0100
0001
1000
0010
0100
0010
1000
0001
0010
,
0001
0100
0010
1000
0010
0100
0001
1000
0002
0000
0000
0000
0000
0000
0000
0000
,
1003
0010
0100
0001
1000
0000
0100
0010
,
0002
0000
0000
0000
0203
0000
0000
0000
0310
1000
0010
0100
0001
1000
0001
0010
,
M200
M000
M000
M000
M000
M000
M000
M000
M000
0000
0000
0000
0000
0000
0000
0000
0000
0000
0000
0000
0000
0000
0000
0000
0000
0000
0000
0000
0000
0000
0000
0000
,
0000
0000
0000
0000
,
1300
0000
0001
0100
0000
0001
0100
0000
0000
0000
0000
0000
0000
0000
0000
0000
,
0010
0000
1000
0001
0000
1000
0001
0000
0000
0000
0000
0000
0020
0000
0000
0000
,
0130
0000
1000
0001
0000
0100
0002
0000
0013
0100
0000
1000
0200
0000
0310
0001
,
0000
1000
0020
0000
0130
0000
0001
1000
0000
0010
2000
0000
3001
0000
0100
0010
,
0000
0100
0002
0000
1003
0010
0000
0010
0200
0000
0301
0000
1000
0100
0000
1000
,
0020
0000
0130
0001
0000
1000
0200
0000
2300
0000
3020
0000
0130
0001
1000
0010
,
0100
0010
1000
0001
0100
0001
0010
0100
1000
0001
0100
0010
0100
0001
1000
0010
,
1000
0001
0100
0010
0100
0001
1000
0010
1000
0001
0100
0010
1000
0001
0010
0001
,
1000
0100
0010
0001
0100
0001
1000
0010
0100
0010
1000
0001
0010
0001
1000
0100
,
0010
0001
1000
0010
0100
0001
0100
0010
1000
0001
0010
0100
1000
0001
0100
0010
,
1000
0020
0000
0000
0000
0000
0000
0000
0000
0000
0000
0000
0030
0000
0000
0000
0000
0000
0000
0000
0000
0000
0000
0000
0000
0000
0000
0000
0000
0000
0000
0000
0000
0000
0000
0000
0000
0000
0000
0000
0000
0000
0000
0000
0000
0000
0000
0000
0000
0000
0000
0000
0000
0000
0000
0000
0000
0000
0000
0000
0000
0000
0000
0000
0000
0000
0000
0000
0000
0000
0000
0000
0000
0000
0000
0000
0000
0000
0000
0000
0000
0000
0000
0000
0000
0000
0000
0000
0000
0000
0000
0000
0000
0000
0000
0000
0000
0000
0000
0000
0000
0000
0000
0000
0000
0000
0000
0000
0000
0000
0000
0000
0000
0000
0000
0000
0000
0000
0000
0000
0000
0000
0000
0000
0000
0000
0000
0000
0000
0000
0000
0000
0000
0000
0000
0000
0000
0000
0000
0000
0000
0000
0000
0000
0000
0000
0000
0000
0000
0000
0000
0000
0000
0000
0000
0000
0000
0000
0000
0000
0000
0000
0000
0000
0000
0000
0000
0000
0000
0000
0000
0000
0000
0000
0000
0000
0000
0000
0000
0000
0000
0000
0000
0000
0000
0000
0000
0000
0000
0000
0000
0000
,
0000
0000
2000
0000
,
3001
0000
0010
0100
1000
0000
0020
0000
0130
0001
1000
0001
0100
0000
0020
0000
,
1030
0000
0000
0001
0000
0000
1000
0000
0000
0000
0000
0000
0010
0000
0000
0000
0000
0000
0100
0000
0000
0000
0000
0000
0001
0000
0000
0000
0000
0000
0000
0000
0000
0000
0000
0000
1000
0000
0000
0000
0010
0000
0000
0000
0100
0000
0000
0000
0001
0000
0000
0000
0000
0000
0000
0000
0000
0000
0000
0000
1000
0000
0000
0000
0000
0000
0000
0000
0000
0000
0000
0000
0100
0000
0000
0010
0000
0000
0001
0000
0000
1000
0000
0000
0010
0000
0000
1000
0000
0000
0001
0000
0000
0100
0000
0000
,
0020
1030
0001
0100
0010
0100
0002
1003
0100
1000
0002
0103
0020
1030
0002
0013
,
0002
1003
0100
1000
0002
0103
0010
1000
0020
0130
0001
1000
0200
1300
0001
0010
,
0002
1003
0100
0010
0001
0100
0002
1003
0010
0100
0020
1030
0002
0013
0002
1003
,
0020
1030
0100
0010
0001
0100
0002
1003
0010
0100
0001
1000
0200
0310
0001
1000
,
0040
0000
0000
0000
,
0000
0000
0000
0000
,
1030
0000
0100
0000
0010
0001
1000
0010
0000
0100
0001
0000
1000
0100
0010
0001
,
1000
0000
0010
0000
0100
0001
1000
0010
0000
0100
0001
0000
1000
0010
0100
0001
,
0100
0000
0010
0000
1000
0001
0010
0001
0000
0100
0010
0000
1000
0001
1000
0100
,
0010
0000
0001
0000
0100
0010
0100
0001
0000
1000
0010
0000
0100
0001
1000
0010
,
1000
0000
0001
0000
0100
0001
1000
0010
0000
0100
0001
0000
1000
0100
0010
0001
,
1000
0000
0010
0000
0100
0001
1000
0010
0000
0100
0001
0000
1000
0010
0100
0001
,
0100
0000
0010
0000
1000
0001
0010
0001
0000
0100
0010
0000
1000
0001
1000
0100
,
0010
0000
0001
1000
0010
0000
0100
0001
0010
0000
0200
0300
2000
3000
0020
0030
,
1000
0000
0100
0000
0010
0001
1000
0010
0000
0100
0001
0000
1000
0100
0010
0001
,
0100
0000
0010
0000
1000
0001
1000
0010
0000
0100
0001
0000
1000
0010
0100
0001
,
0100
0000
0010
0000
1000
0001
0010
0001
0000
0100
0010
0000
1000
0001
1000
0100
,
0010
0000
0001
0000
0100
0010
0100
0001
0000
1000
0010
0100
0001
0000
1000
0000
,
0010
0100
0001
1000
0100
1000
0001
0100
0010
0100
0001
1000
0100
0010
0001
1000
,
0010
0100
0001
1000
0100
1000
0001
0010
0001
0100
0010
1000
0001
0100
0001
1000
,
0010
0000
0100
0000
0001
0000
1000
0000
0100
0000
0010
0000
0001
0000
0100
0000
0010
0000
0100
0000
0001
0000
1000
0000
0010
0100
0010
1000
0001
0100
0001
1000
,
0020
0000
0200
0030
0002
0300
2000
0003
0002
3000
0000
0000
0203
0000
0000
0000
,
0310
1000
0001
0100
0001
1000
0100
0010
0001
0100
0010
1000
0001
0010
0100
1000
,
0010
0100
0010
1000
0001
0100
0001
0010
0100
1000
0001
0010
0001
1000
0010
1000
,
0100
0010
0001
1000
0010
0100
0010
1000
0001
0100
0001
1000
0100
1000
0010
0100
,
0001
0100
0010
1000
0001
0010
0100
1000
0001
0100
0010
1000
0020
0000
0130
0000
,
0001
1000
0010
0100
0010
1000
0001
0100
0001
0010
0100
1000
0001
0010
0001
0100
,
0010
0100
0001
1000
0010
1000
0001
0100
0010
0100
0001
1000
0001
0100
0010
1000
,
0010
0100
0001
1000
0100
1000
0001
0010
0100
1000
0010
0100
0001
1000
0010
1000
,
0002
0000
0203
0000
0320
0000
2030
0000
3001
0100
0001
1000
0010
0100
0010
1000
,
0001
0010
0100
1000
0001
0100
0010
0100
0001
1000
0010
1000
0001
0100
0010
0100
,
0001
1000
0100
1000
0010
0100
0001
1000
0100
0010
0001
0100
0010
1000
0001
0100
,
0010
0100
0001
1000
0010
1000
0001
0100
0010
1000
0001
0010
0100
1000
0010
0100
,
0001
0100
0010
1000
0001
0010
0100
1000
0010
0100
0001
1000
0002
0000
0103
0000
,
0010
1000
0010
0100
0001
1000
0100
1000
0010
0100
0001
1000
0100
0010
0001
1000
,
0010
1000
0001
0100
0010
1000
0010
0100
0001
1000
0100
0010
0001
1000
0001
0100
,
0020
0000
1030
0000
0001
0100
0001
1000
0010
0100
0001
0000
1000
0000
0100
0010
,
0001
1000
0010
1000
0002
0000
0013
0000
0200
0000
1300
0000
0020
0000
0130
0000
,
0000
0000
0000
0000
0001
0100
0010
1000
0001
1000
0100
0010
0001
0100
0010
1000
,
0001
0010
0100
1000
0010
0100
0010
1000
0001
0100
0001
0010
0100
1000
0001
0010
,
0001
1000
0010
1000
0100
0010
0001
1000
0010
0100
0010
1000
0001
0100
0001
1000
,
0100
1000
0010
0100
0001
0100
0010
1000
0001
0010
0100
1000
0002
0000
1003
0000
,
0010
0100
0010
1000
0001
0100
0001
0010
0100
1000
0001
0010
0001
0100
0010
1000
,
0010
0100
0001
1000
0100
0010
0001
0100
0010
1000
0001
0010
0001
0100
0010
1000
,
0020
0030
0100
0001
1000
0100
1000
0010
,
0000
0000
0100
0000
0001
0000
0000
0000
1000
0010
1000
0001
0100
0010
1000
0001
,
0100
0010
0100
0001
1000
0010
1000
0100
0010
0001
0100
0010
0100
0001
1000
0100
,
1000
0010
0100
0001
1000
0100
0010
0001
4000
0000
0000
0000
3010
0100
1000
0001
,
0100
0010
0100
0001
1000
0010
1000
0001
0100
0010
0100
0001
1000
0100
0010
0001
,
0200
0000
0300
0020
0000
0030
2000
0000
3001
0000
0100
0000
0001
0000
0000
0000
2000
0000
0000
0000
3010
0000
0000
0000
0100
0000
0001
0000
1000
0000
0100
0000
,
1000
0010
0100
0010
1000
0001
0010
0100
1000
0001
0100
0010
4000
0000
0000
0000
,
3001
0100
0001
1000
0010
0100
0010
1000
0001
0010
0100
1000
0002
0000
0103
0000
,
0010
1000
0010
0100
0001
1000
0001
0010
0100
1000
0001
0100
0001
1000
0010
1000
,
0001
0100
0010
0100
0001
1000
0100
0010
0001
0100
0010
1000
0001
0000
1000
0001
,
0100
0000
0010
1000
0001
0010
0200
1300
0020
0000
0030
0000
2002
0000
0000
0000
,
0000
0000
0000
0003
3000
0000
0000
0000
0000
0000
0000
0000
,
0000
0000
0000
0000
,
0000
0000
0000
0000
,
0000
0000
0000
0000
,
0000
0000
0000
0000
,
0000
0000
0000
0000
,
0000
0000
0000
0000
,
0000
0000
0000
0000
;
