#TITLE:Renaissance;
#SUBTITLE:;
#ARTIST:Jean-Luc Ponty;
#TITLETRANSLIT:;
#SUBTITLETRANSLIT:;
#ARTISTTRANSLIT:;
#CREDIT:;
#BANNER:renaissance-banner.png;
#BACKGROUND:renaissance-bg.png;
#LYRICSPATH:;
#CDTITLE:melonman67.png;
#MUSIC:1. [Opening] Track 1.mp3;
#OFFSET:1.200;
#SAMPLESTART:37.866;
#SAMPLELENGTH:12.000;
#SELECTABLE:YES;
#BPMS:0.000=137.000,33.000=125.000,36.500=137.000,48.000=143.000,51.500=137.000,85.500=135.000,89.000=136.660,248.000=136.400,298.000=133.000,301.000=139.000,305.000=136.400,325.000=138.000,333.000=134.000,336.000=136.400,361.000=136.700,372.000=144.000,377.000=125.000,379.000=136.540,456.000=131.000,457.000=136.500;
#STOPS:;
#BGCHANGES:;
// cache tags:
#FIRSTBEAT:4.000;
#LASTBEAT:605.750;
#SONGFILENAME:Songs/Keys of Flames/Renaissance (Melonman67)/renaissance.sm;
#HASMUSIC:1;
#HASBANNER:1;
#MUSICLENGTH:278.204;
// end cache tags

//---------------dance-single - ----------------
#NOTES:
     dance-single:
     :
     Challenge:
     11:
     0.818,1.000,0.237,0.155,1.000,1484.000,66.000,43.000,0.000,0.000:
0000
0000
0000
0000
,
1000
0000
0100
0000
,
0010
0000
0001
0000
,
1000
0000
0100
0000
,
0010
0000
0001
0000
,
1000
0100
0010
0001
,
1000
0100
0010
0001
,
1000
0100
0010
0001
1000
0100
0010
0001
,
1000
0100
0010
0001
1000
0100
0010
0001
,
0000
2002
0000
0000
0000
0000
0000
3003
,
0000
0000
0000
0000
0000
0000
1000
0000
0000
0000
0100
0000
0000
0000
0010
0000
0000
0000
0001
0000
1000
0000
0010
0000
0100
0000
0001
0000
0010
0000
0100
0000
1000
0000
0100
0000
0010
0000
0001
0000
0010
0000
0100
0000
0000
1000
0000
0000
,
0100
1000
0100
1000
0100
1000
0100
1000
0100
1000
0100
1000
0100
1000
0100
1000
,
0200
0000
0000
0000
0000
0000
0300
1000
,
0100
0010
0001
0000
1000
0000
0001
0000
,
1000
0010
1000
0010
1000
0010
1000
0010
1000
0010
1000
0010
1000
0010
1000
0010
,
1000
0010
1000
0010
1000
0010
1000
0010
1000
0010
1000
0000
0000
0000
0000
0000
,
0001
0010
0100
1000
0001
0000
0000
0000
1000
0000
0000
0000
0010
0000
0000
0000
,
0100
0001
0100
0001
0100
0001
0100
0001
0100
0001
0100
0001
0100
0001
0100
0001
,
0100
0001
0100
0001
0100
0001
0100
0001
0100
0001
0100
0000
0000
0000
0001
0000
,
0100
0010
1000
0000
0100
0000
0000
1000
,
0000
0000
0000
0001
1000
0001
1000
0001
1000
0001
1000
0001
1000
0001
1000
0001
1000
0001
1000
0001
1000
0001
1000
0001
,
1000
0001
1000
0001
1000
0001
1000
0001
1000
0001
0000
0000
0000
0000
0000
0001
0000
0000
0010
0000
0000
0100
0000
0000
,
1000
0000
0001
0000
1001
0000
0000
0000
1000
0000
1000
0010
0100
0001
0010
0001
,
0010
0100
1000
0000
1010
0000
0000
0000
1000
0000
1001
0000
0000
0000
0001
0000
,
0010
0000
0100
0000
1100
0000
0000
0000
0001
0000
1000
0001
0100
0001
0000
0000
,
0001
0000
0010
0100
0000
0000
1000
0000
0001
0000
0000
0000
1000
0010
0100
0000
,
0001
0000
0010
0000
1100
0000
0000
0000
1000
0000
1000
0001
0010
0001
0100
0010
,
1000
0001
0100
0000
0011
0000
0000
0000
0001
0000
0101
0000
0000
0000
0001
0000
,
0010
0000
0001
0000
1001
0000
0000
0000
0001
0000
1000
0001
0010
0100
0000
0000
,
1000
0000
0100
1000
0200
0000
0000
0300
0020
0000
0000
0030
0002
0000
0000
0003
,
2000
0000
0001
0000
3001
0010
0100
0010
0100
1000
0001
0100
0010
1000
0001
0010
,
0100
1000
0001
0000
1100
0000
0000
0000
1000
0000
1010
0000
0000
0000
0010
0000
,
0100
0000
0001
0000
0010
0000
0000
0000
0100
0000
1000
0001
0100
0010
0000
0000
,
1000
0000
0001
0010
0000
0000
0100
0000
1000
0000
0000
0000
0001
0010
0100
1000
,
0001
0000
1000
0001
0000
0000
1000
0000
0001
0000
1000
0001
0100
0010
1000
0100
,
1000
0100
0010
0000
0001
0000
0000
0000
0001
0000
0011
0000
0000
0000
0010
0000
,
0100
0000
1000
0000
1001
0000
0000
0000
0001
0000
0100
0010
1000
0001
0000
0000
,
1000
0000
0001
0010
0000
0000
0100
0000
0110
0000
0000
0000
0011
0000
0000
0000
,
0011
0000
0000
0000
0001
0010
0100
1000
0100
0010
0100
0010
0001
0010
0100
1000
,
0010
0100
0001
0000
1001
0000
0000
0000
0010
0000
1001
0000
0000
0000
0001
0000
,
0010
0000
0100
0000
1100
0000
0000
0000
1000
0000
0001
0010
0100
1000
0000
0000
,
0001
0000
1000
0010
0000
0000
0100
0000
0001
0000
0010
0000
0100
0010
0000
0000
,
0010
0000
0100
1000
0000
0000
0001
0000
0100
0000
0010
1000
0001
0010
0100
0010
,
0001
1000
0001
0000
1000
0000
0001
0000
2000
0000
0000
0000
0000
0000
0000
0000
,
3100
0010
0001
0000
1000
0100
0010
0100
,
0100
1000
2000
0000
3000
1000
0001
0001
,
0010
0000
0010
0000
0001
0010
0100
0010
0100
1000
0100
0000
1000
0000
0001
0000
,
1000
0000
0001
0000
1000
0000
0001
0000
0001
0000
0001
0000
0000
0001
0000
1000
,
0010
0000
0100
0000
0001
0000
1000
0000
0100
0000
0010
0000
0001
0000
0010
0010
,
0100
0000
1000
1000
0001
0010
0100
1000
0001
0010
0100
1000
0001
0000
0001
0000
,
1000
0020
0000
0000
0030
0100
0001
0010
,
0100
0000
1000
0200
0000
0000
0000
0000
0300
0000
0110
0000
0000
0000
0010
0000
,
0001
1000
0001
0020
0000
0032
0000
0023
,
0000
0000
0030
0000
0001
0010
0200
0000
0000
0000
1300
0000
1000
0000
0100
0000
,
0010
0100
0002
0000
0000
0103
0110
0110
,
0100
2000
0000
3010
0200
0000
0301
1000
,
0010
0000
0100
0000
0001
0010
0000
0100
0000
1000
0100
0000
0010
0001
0000
0000
,
1000
0001
0010
0100
1000
0100
0010
0001
,
1000
0010
0100
0001
0010
0100
0010
0001
1000
0100
0010
0001
0100
0010
1000
0100
0010
0100
1000
0010
0100
0001
0010
0100
,
0010
0001
1000
0100
0010
0100
1000
0001
0010
0100
1000
0010
0100
0001
0100
0010
1000
0010
0100
0001
0010
0100
0010
0001
,
1000
0010
0100
0010
1000
0100
0010
0100
1000
0001
0010
0100
1000
0010
0100
0001
0010
0001
1000
0010
0100
0001
0010
0100
,
0010
0100
1000
0010
0100
0001
0100
0010
0100
0001
0010
0100
1000
0100
0010
0001
1000
0010
1000
0001
0100
0001
1000
0100
,
1000
0000
0001
0000
0010
0000
0001
0000
0010
0000
0100
0000
0010
0000
0000
0001
0000
0000
0010
0000
0000
0100
0000
0000
0010
0000
0000
0100
0000
0000
1000
0000
0000
0100
0000
0000
0010
0000
0000
0001
0000
0000
1000
0000
0000
0010
0000
0000
,
0100
0001
0010
0000
1001
0000
0000
0000
0100
0000
0101
0000
0000
0000
0001
0000
,
0010
0000
0100
0000
1001
0000
0000
0000
0001
0000
1000
0010
0100
0001
0000
0000
,
1000
0000
0001
0100
0000
0000
0001
0000
0010
0000
0100
1000
0100
1000
0100
1000
,
0100
0000
0010
0000
0001
0000
0000
0000
1000
0000
0001
0000
0010
0100
1000
0100
,
0010
0010
0001
1000
0100
0100
0010
0001
1000
0010
0100
0100
0001
0100
0010
1000
,
0100
0100
0010
0001
0010
0100
1000
1000
0100
0001
0100
1000
0010
0010
0100
0001
,
0000
0001
1000
1000
0010
0100
0000
0001
0010
0010
0100
1000
0000
1000
0010
0100
,
0001
0001
0010
0010
0100
0010
0001
0010
0100
1000
0200
0000
0000
0000
0000
0000
,
0000
0000
0300
0000
1000
0100
0010
0100
0001
0100
2000
0000
0000
0000
3100
0100
,
0010
0100
1000
0010
0200
0000
0000
0000
0301
0001
0100
0010
1000
0100
0020
0000
,
0000
0000
0000
0000
0030
0001
0001
0010
0001
0001
0010
0001
0010
0100
1000
0010
,
0100
0001
1000
0010
0200
0000
0000
0000
0301
0000
0000
0000
0101
0000
1010
0000
,
0101
0022
0000
0033
0001
1001
0000
1000
,
0010
0000
0100
0000
0101
0000
0000
0000
0001
0000
0010
0001
1000
0010
0000
0000
,
0100
0000
0001
0010
0000
0000
0100
0000
1000
0000
1001
0000
0001
0000
0100
0000
,
1001
0000
1000
0000
0010
0000
0101
1010
,
1100
0000
0000
0011
0000
0000
0000
0000
0000
1100
0000
0000
0000
0000
0000
1000
0010
0100
0001
0010
0100
0010
0001
1000
,
0010
0000
0100
0000
0001
0000
0010
0000
0100
0000
1000
0000
0100
0000
0010
0000
0001
0000
0010
0000
0100
0000
1000
0000
0001
0000
0000
0000
0000
0000
0000
0000
0000
0000
0000
0000
1000
0000
0000
0010
0000
0000
0100
0000
0000
0001
0000
0000
,
0010
0100
0010
0001
0010
1000
0010
0001
1000
0010
0100
0001
0010
0100
0010
0001
,
0010
0100
1000
0100
1000
0000
0000
0000
0001
0000
0000
0000
0101
0000
0000
0010
,
1000
0000
0101
0000
0000
0000
0001
0000
0010
0000
0100
0000
1000
0000
0001
0010
,
0100
0000
1000
0000
0000
0000
0001
0000
0100
0000
0010
0000
0100
0000
0010
1000
,
0100
0010
0000
0001
0010
0100
1000
0000
,
0001
1000
0010
0100
0001
0010
0100
1000
0100
0010
0001
1000
0010
0100
0001
0010
0100
1000
0001
1000
0100
0010
0100
1000
,
0001
0100
0010
1000
0100
0010
0001
0010
0100
1000
0001
0100
0010
1000
0100
0010
0100
1000
0001
0100
0010
1000
0010
0100
,
0001
0010
0100
1000
0100
0010
0001
1000
0001
0100
0001
0010
0100
1000
0010
0100
0001
0010
0001
1000
0100
1000
0100
0010
,
0100
0010
0001
1000
0010
0100
0001
0010
0100
1000
0010
0100
0001
0010
0100
0010
0001
1000
0010
0100
0001
0010
0100
1000
,
0010
0100
0001
0100
0010
1000
0001
0000
0000
0000
0000
0000
0000
0000
0000
0000
0000
0000
1000
0000
0100
0000
0010
0000
,
0001
0010
0100
0000
2000
0000
0000
0000
0000
0000
0000
3000
,
0001
0010
0100
1000
0000
0001
0000
1000
0000
0000
0000
0000
,
0000
0000
0000
1000
0000
0001
0000
2000
0000
0000
0000
0000
0000
0000
0000
3000
0000
0000
0000
0000
0000
0001
0000
1000
,
0000
0000
0000
0000
0000
0000
0000
0000
0002
0000
0000
0000
0000
0000
0000
0000
0000
0000
0000
0000
0000
0000
0000
0000
0000
0000
0000
0000
0000
0000
0000
0000
0000
0000
0000
0000
0000
0000
0000
0000
0000
0000
0000
0000
0000
0000
0000
0000
0000
0000
0000
0000
0000
0000
0000
0000
0000
0000
0000
0000
0000
0000
0000
0000
0000
0000
0000
0000
0000
0000
0000
0000
0003
0000
0000
0000
0000
0000
0000
0000
0000
0000
0000
0000
0000
0000
0000
0000
0000
0000
0000
0000
0000
0000
0000
0000
1000
0000
0000
0000
0000
0000
0000
0000
0000
0000
0000
0000
0000
0000
0000
0000
0000
0000
0100
0000
0000
0000
0000
0000
0000
0000
0000
0000
0000
0000
0000
0000
0000
0000
0000
0000
0010
0000
0000
0000
0000
0000
0000
0000
0000
0000
0000
0000
0000
0000
0000
0000
0000
0000
0001
0000
0000
0000
0000
0000
0000
0000
0000
0000
0000
0000
0000
0000
0000
0000
0000
0000
1000
0000
0000
0000
0000
0000
0000
0000
0000
0000
0000
0000
0000
0000
0000
0000
0000
0000
0001
0000
0000
0000
0000
0000
,
0000
0000
0000
0000
0000
0000
0000
0000
0001
0000
0000
0000
0000
0000
0000
0010
0000
0000
0100
0000
0000
1000
0000
0000
0001
0000
0000
0000
0000
0000
0010
0000
0000
0000
0000
0000
0100
0000
1000
0000
0100
0000
0000
0000
0000
1000
0000
0000
,
0000
0000
0000
0000
0000
0000
0000
0000
0000
0000
0000
0000
2000
0000
0000
0000
0000
0000
3000
0000
0000
0001
0000
0010
,
0000
0100
0000
1000
0000
0100
0000
0010
0000
0100
0000
1000
0000
0100
0000
0010
0000
0001
0000
1000
0000
0010
0000
0100
,
0000
0001
0000
0010
0000
0100
0000
1000
0100
0010
0001
1000
0002
0000
0000
0000
0000
0000
0000
0000
0000
0003
0000
0000
,
0000
0000
1000
0000
0001
0000
0010
0000
0000
0000
0001
1000
0020
0000
0000
0000
,
0000
0000
0000
0000
0000
0000
0030
0000
0000
0000
0000
0000
0000
0000
0000
0000
0000
0000
0100
0000
0000
0001
0000
0000
0010
0000
0100
0000
1000
0000
0001
0000
1000
0000
0001
0000
1000
0000
0001
0000
1000
0000
0001
0000
0000
0000
0000
0000
,
0000
0000
0000
0000
0000
0000
0000
0000
0000
0000
0000
0000
0000
0000
0000
0000
0000
0000
1000
0000
0000
0100
0000
0000
0010
0000
0000
0000
0000
0000
0001
0000
0000
0010
0000
0000
0001
0000
0000
0000
0000
0000
0000
0000
0010
0000
0000
0000
,
0100
0000
1000
0000
0010
0100
0001
0010
0100
1000
0100
0010
0001
0010
1000
0010
,
0001
1000
0010
0100
0001
0010
0000
0000
1100
0000
0000
0000
0000
0000
1000
0010
,
0100
0001
0000
0010
0000
0100
1000
0001
0000
0100
0000
0010
1000
0100
1000
0000
,
1000
0000
0100
0000
0010
0000
0001
0000
0010
0000
0100
0000
1000
0000
0000
0001
0000
0000
0010
0000
0000
0100
0000
0000
1000
0000
0000
0010
0000
0000
0100
0000
0000
0001
0000
0000
0010
0000
0000
0100
0000
0000
1000
0000
0000
0000
0000
0000
,
0001
0000
0000
0100
0000
0000
0010
0000
0000
1000
0000
0000
0001
0000
0000
0000
0010
0000
0000
0000
0100
0000
0000
0000
1000
0000
0000
0000
0001
0000
0000
0000
0010
0000
0000
0000
0100
0000
0000
0000
0000
0000
0000
0000
0000
0000
0000
0000
,
0000
0000
1000
0000
0000
0000
0000
0000
0000
0000
0000
0000
0000
0000
0000
1000
0010
0100
0001
0010
0001
1000
0010
0100
,
0001
0010
0100
0010
0001
1000
0200
0000
0000
0000
0000
0000
0300
0000
0000
1000
0010
0100
0001
0010
0100
2000
0000
0000
,
0000
0000
0000
3000
0000
0000
1000
0100
0010
0100
0010
0001
0010
0000
0100
0000
1000
0000
0100
0000
0010
0000
0001
0000
,
1000
0010
0100
0001
0000
0002
0000
0000
0000
0000
0000
0003
,
0000
1000
0100
0020
0000
0000
0000
0000
0000
0000
0030
0000
,
0001
0000
0000
0010
0100
1000
0001
0010
0100
0010
0001
1000
0100
0010
0001
1000
,
0010
0000
0000
0000
0000
0000
0000
0000
0000
0000
0000
0000
0000
0000
0000
0000
0000
0000
1000
0000
0001
0000
0000
0000
1000
0000
0000
0000
0001
0000
0000
0000
1000
0000
0000
0000
0000
0000
0000
0000
0000
0000
0000
0000
0000
0001
0000
0000
,
1000
0001
0000
0000
0000
0000
1001
0000
0000
0000
1100
0000
1010
0000
1100
0000
,
1001
0022
0000
0033
0001
1010
0000
1000
,
0001
0000
0010
0000
0110
0000
0000
0000
1000
0000
0001
0100
0010
1000
0000
0000
,
0001
0000
0010
0100
0000
0000
1000
0000
0010
0000
0100
0000
0001
0010
0100
0000
,
0010
0100
1000
0000
0001
0010
0100
1000
0100
0010
0100
0000
0110
0000
1100
0000
,
1001
0000
0000
0011
0000
0000
0000
0000
0000
1100
0000
0000
0000
0000
0000
0001
0010
0100
1000
0001
0100
0010
0100
0001
,
0010
0000
0100
0000
1000
0000
0001
0000
1000
0000
0010
0000
0100
0000
0001
0000
0100
0000
0010
0000
0100
0000
0001
0000
0010
0000
0000
0000
0000
0000
0000
0000
0000
0001
0000
0000
1000
0000
0000
0010
0000
0000
0100
0000
0000
0001
0000
0000
,
0100
0010
0100
0001
0010
1000
0010
0001
1000
0010
0100
0001
0010
0100
1000
0010
,
0100
0001
0010
0100
1000
0000
0001
0000
0100
0000
0010
0000
1000
0000
0100
0010
,
0001
0000
0001
0000
0000
0000
1000
0000
0010
0000
0100
0000
0001
0000
0010
0100
,
1000
0000
0001
0000
0000
0000
0010
0000
0100
0000
1000
0000
0001
0000
0100
0010
,
1000
0001
0000
0010
0100
1000
0011
0000
,
1000
0010
0100
0001
0010
0100
1000
0010
0100
0001
0010
0001
1000
0100
1000
0010
0100
0001
0010
0100
1000
0100
0010
0001
,
1000
0100
0010
0001
0010
0100
0010
0001
1000
0010
0100
0001
0100
0010
1000
0001
0100
0010
1000
0100
0010
0100
1000
0001
,
0100
0010
1000
0100
0010
0001
0010
0100
1000
0001
0010
0001
1000
0100
1000
0001
0000
0000
0000
0000
0000
1000
0000
0000
,
0010
0100
0001
0000
0010
0000
0100
0000
,
0010
0000
0001
0000
0010
0001
0010
0100
0010
0100
1000
0010
0100
0001
0010
0100
,
1000
0010
0100
0000
0001
0000
0000
0000
1000
0000
1001
0000
0000
0000
0001
0000
,
1000
0000
0010
0000
0101
0000
0000
0000
0001
0000
0010
0100
1000
0001
0000
0000
,
1000
0010
0100
0001
0010
0000
0000
0000
0100
0000
0000
0000
1000
0000
0000
0000
,
0002
0000
0000
0000
0000
0003
0001
0010
,
0002
0000
0000
0000
,
0000
0000
0000
0000
0000
0000
0003
0001
,
0010
0100
1000
0000
0010
0000
0110
0000
,
1000
0001
0100
0010
1000
0001
0010
0100
0010
0001
1000
0100
1000
0010
0100
0001
0010
0001
1000
0100
1000
0010
0100
0001
,
0010
0100
1000
0100
0010
0001
1000
0100
1000
0001
0010
0001
1000
0010
0100
0001
0100
0010
1000
0010
0100
0001
0010
0100
,
1000
0100
1000
0001
0010
0100
0010
0001
1000
0100
0010
0001
1000
0010
0100
0001
0010
0001
1000
0100
1000
0010
0100
0001
,
0010
0100
1000
0010
0100
0001
0010
0001
1000
0100
0010
0100
1000
0010
0100
0001
0010
0100
1000
0100
0010
0001
1000
0100
,
0010
0001
0010
0100
0010
0001
1000
0000
0000
0000
0000
0000
0000
0000
0000
1010
0000
0000
0000
0000
0000
0001
0000
0000
,
0010
0100
1001
0000
0001
0101
0000
0001
,
0010
0100
1001
0000
0001
0011
0000
0001
,
0010
0100
1001
0000
1000
0220
0000
0000
,
0000
0000
0000
0000
,
0000
0000
0000
0000
0000
0000
0000
0330
,
0000
0000
0000
0000
0000
0000
0000
2002
0000
0000
0000
0000
0000
0000
0000
0000
,
0000
0000
0000
0000
,
0000
0000
0000
0000
,
0000
0000
0000
0000
0000
0000
0000
3003
0000
0000
0000
0000
0000
0000
0000
0000
;

//---------------dance-single - ----------------
#NOTES:
     dance-single:
     :
     Hard:
     11:
     0.797,1.000,0.352,0.180,1.000,1404.000,98.000,50.000,0.000,0.000:
0000
0000
0000
0000
,
0001
0000
0010
0000
,
0100
0000
1000
0000
,
0001
0000
0010
0000
,
0100
0000
1000
0000
,
1001
0001
1010
0001
,
1100
0001
1001
1000
,
0011
0010
0100
1000
1010
1000
0100
1000
,
0110
0010
0100
1000
1001
0010
0100
1000
,
0000
2002
0000
0000
0000
0000
0000
3003
,
0000
0000
0000
0000
0000
0000
1000
0000
0000
0000
0100
0000
0000
0000
0010
0000
0000
0000
0100
0000
0010
0000
0001
0000
0010
0000
0100
0000
0010
0000
0001
0000
0100
0000
0001
0000
0010
0000
0100
0000
1000
0000
0100
0000
0000
1000
0000
0000
,
0100
1000
0100
1000
0100
1000
0100
1000
0100
1000
0100
1000
0100
1000
0100
1000
,
0200
0000
0000
0000
0000
0000
0300
1000
,
0100
0010
0100
0000
0010
0000
0100
0000
,
0010
0001
0010
0001
0010
0001
0010
0001
0010
0001
0010
0001
0010
0001
0010
0001
,
0010
0001
0010
0001
0010
0001
0010
0001
0010
0001
0010
0000
0000
0000
0000
0000
,
0001
0010
0100
1000
0100
0000
0000
0000
0010
0000
0000
0000
0100
0000
0000
0000
,
0010
0100
0010
0100
0010
0100
0010
0100
0010
0100
0010
0100
0010
0100
0010
0100
,
0010
0100
0010
0100
0010
0100
0010
0100
0010
0100
0010
0000
0000
0000
0001
0000
,
0010
0100
1000
0000
0010
0000
0000
0100
,
0000
0000
0000
0001
1000
0001
1000
0001
1000
0001
1000
0001
1000
0001
1000
0001
1000
0001
1000
0001
1000
0001
1000
0001
,
1000
0001
1000
0001
1000
0001
1000
0001
1000
0001
0000
0000
0000
0000
0000
1000
0000
0000
0100
0000
0000
0010
0000
0000
,
0001
0000
0010
0000
1100
0000
0000
0000
1001
0000
1000
0001
0010
0100
0010
0001
,
0010
0100
1000
0000
1010
0000
0000
0000
1000
0000
0011
0000
0000
0000
1000
0000
,
1001
0000
1000
0000
0110
0000
0000
0000
1001
0000
1000
0100
0001
0100
0000
0000
,
0010
0000
0001
0100
0000
0000
0001
0000
0010
0000
0000
0000
0100
0001
0100
0000
,
0100
0000
0010
0000
1100
0000
0000
0000
1001
0000
1000
0001
0010
0100
0010
0001
,
0010
0100
1000
0000
1010
0000
0000
0000
1000
0000
0011
0000
0000
0000
1000
0000
,
1001
0000
1000
0000
0110
0000
0000
0000
1001
0000
1000
0100
0001
0100
0000
0000
,
0010
0000
0001
0100
0000
0000
0001
0000
1001
0000
0000
0000
0100
0001
0000
0000
,
1001
0000
0100
0000
0010
0001
0010
0100
0010
0100
1000
0001
0010
0100
0010
0001
,
0010
0100
1000
0000
1010
0000
0000
0000
1000
0000
0011
0000
0000
0000
1000
0000
,
1001
0000
1000
0000
0110
0000
0000
0000
1001
0000
1000
0100
0001
0100
0000
0000
,
0010
0000
0001
0100
0000
0000
0001
0000
1001
0000
0000
0000
0001
0010
0100
0000
,
0010
0000
0010
0001
0000
0000
0000
0000
1001
0000
1000
0001
0010
0100
0010
0001
,
0010
0100
1000
0000
1010
0000
0000
0000
1000
0000
0011
0000
0000
0000
1000
0000
,
1001
0000
1000
0000
0110
0000
0000
0000
1001
0000
1000
0100
0001
0100
0000
0000
,
0010
0000
0001
0100
0000
0000
0001
0000
1001
0000
0000
0000
0001
0010
0000
0000
,
1001
0000
0000
0000
0010
0001
0010
0100
0010
0100
1000
0001
0010
0100
0010
0001
,
0010
0100
1000
0000
1010
0000
0000
0000
1000
0000
0011
0000
0000
0000
1000
0000
,
1001
0000
1000
0000
0110
0000
0000
0000
1001
0000
1000
0100
0001
0100
0000
0000
,
0010
0000
0001
0100
0000
0000
0001
0000
0010
0000
0000
0000
0100
0001
0100
0000
,
0001
0000
0100
1000
0000
0000
0000
0000
1001
0000
1000
0001
0010
0100
0010
0001
,
0010
0100
1000
0000
1010
0000
1000
0000
0020
0000
0000
0000
0000
0000
0030
0000
,
1001
1000
0110
0000
1000
0100
0010
0100
,
0100
1000
2000
0000
3000
1000
0001
0001
,
0010
0010
0200
0000
1300
0100
0010
0001
,
0010
0000
0001
0000
0010
0000
0001
0000
0001
0000
0001
0000
0000
0001
0000
0001
,
0010
0000
0001
0000
0010
0000
0001
0000
0001
0000
0001
0000
0010
0000
0001
0001
,
0010
0000
0001
0001
0010
0001
0010
0100
0010
0100
1000
0100
0010
0000
0010
0000
,
1000
0200
0000
0000
0300
0100
0010
0100
,
0010
0000
0100
2000
0000
0000
0000
0000
0000
0000
0000
0000
0000
0000
0000
0000
,
0000
0000
3000
0002
0000
0023
0000
0230
,
0000
0000
0300
0000
0010
0100
1000
0000
0000
0000
0001
0000
0001
0000
0010
0000
,
0100
1000
0100
0000
0000
1000
1001
1001
,
1010
1001
0000
1001
1000
0000
1000
0100
,
0010
0000
0001
0000
0010
0100
0000
1000
0000
0100
0010
0000
0001
0000
0010
0000
,
0001
0100
0010
0100
0010
1000
0100
1000
,
1000
0100
0010
0100
0010
0001
1000
0100
0010
0100
0010
0001
1000
0100
0010
0100
0010
0001
1000
0100
0010
0100
0010
0001
,
1000
0100
0010
0100
0010
0001
1000
0100
0010
0100
0010
0001
1000
0100
0010
0100
0010
0001
1000
0100
0010
0100
0010
0001
,
1000
0100
0010
0100
0010
0001
1000
0100
0010
0001
0010
0100
1000
0100
0010
0001
0010
0100
1000
0100
0010
0001
0010
0100
,
1000
0100
0010
0001
0010
0100
1000
0100
0010
0001
0010
0100
1000
0100
0010
0001
0010
0100
1000
0100
0010
0001
0010
0100
,
1000
0100
0010
0001
0010
0100
2000
0000
0000
0000
0000
0000
3000
0000
0000
0000
0000
0000
0000
0000
0000
0001
0000
0000
,
0010
0200
0000
0300
2000
0000
3000
0002
,
0000
0023
0000
0230
0000
2300
0000
3002
,
0000
2003
0000
3001
0010
0000
0100
0100
,
0010
0000
0200
0000
0000
0000
0000
0000
0000
0000
0300
0000
0000
1000
0100
1000
,
0100
0100
1000
1000
0100
0100
1000
0100
0010
0100
1000
1000
0100
0010
0100
1000
,
0100
0100
1000
0100
0010
0100
1000
1000
0100
0010
0100
1000
0100
0100
1000
0100
,
0000
1000
0100
0100
1000
0100
0000
1000
0100
0100
1000
0100
0000
1000
0100
1000
,
0001
0010
0100
1000
0200
0000
0000
0000
0000
0000
0320
0000
0000
0000
0000
0000
,
0000
0000
0030
0000
0001
0001
0010
0010
0100
1000
0001
0000
0000
0000
0001
0001
,
0010
0100
1000
0001
0010
0000
0000
0000
0001
0001
0010
0100
1000
0001
0020
0000
,
0000
0000
0030
0000
0000
0001
0001
0010
0001
0001
0010
0001
0010
0100
1000
0001
,
0010
0100
0010
0000
0200
0000
0000
0000
0300
0000
0000
0000
1100
0000
0110
0000
,
1100
0022
0000
0033
1000
0011
0000
1000
,
1001
0000
1000
0000
0110
0000
0000
0000
1001
0000
1000
0100
0001
0100
0000
0000
,
0010
0000
0001
0100
0000
0000
0001
0000
1001
0000
0110
0000
0001
0000
0000
0000
,
0110
0001
1100
0000
0000
0000
0011
0101
,
0110
0000
0000
1010
0000
0000
0000
0000
0000
1100
0000
0000
0000
0000
0000
0001
0100
0001
0100
0001
0100
0001
0100
0001
,
0100
0000
0001
0000
0100
0000
0001
0000
0100
0000
0001
0000
0100
0000
0001
0000
0100
0000
0001
0000
0100
0000
0001
0000
0100
0000
0000
0000
0000
0000
0000
0000
0000
0000
0000
0000
0001
0000
0000
0010
0000
0000
0001
0000
0000
0010
0000
0000
,
0100
1000
0100
0010
0001
0010
0100
0010
0100
1000
0100
0010
0001
0010
0100
0010
,
0100
1000
0100
0010
0100
0000
0000
0000
0000
0000
0000
0000
0001
0000
0000
0010
,
0100
0000
0010
0000
0000
0000
0001
0000
0010
0000
0100
0000
0010
0000
0100
1000
,
0001
0000
1000
0000
0000
0000
0001
0000
0010
0000
0100
0000
1000
0000
0001
0010
,
0100
0010
0000
0100
1000
0001
1000
0000
,
0002
0000
0000
0000
0000
0000
0000
0003
,
1000
0001
1000
0001
1000
0001
1000
0001
1000
0001
1000
0001
1000
0001
1000
0001
1000
0001
1000
0100
1000
0100
1000
0100
,
0010
0100
1000
0100
0010
0100
1000
0100
0010
0100
0010
0100
0010
0001
0010
0100
0010
0001
0010
0100
0010
0001
0010
0001
,
0010
0001
0010
0100
0010
0001
0010
0100
0010
0001
0010
0100
0010
0100
0010
0100
0010
0100
1000
0100
0010
0100
1000
0100
,
0010
0100
1000
0100
1000
0100
1000
0000
0000
0000
0000
0000
0000
0000
0000
0000
0000
0000
1000
0000
0100
0000
0010
0000
,
0100
0010
0001
0000
0020
0000
0000
0000
0000
0030
0000
0000
,
0001
0010
0100
1000
0000
0100
0000
0020
0000
0000
0000
0000
,
0030
0000
0000
0001
0000
0010
0000
0002
0000
0000
0000
0000
0000
0000
0000
0003
0000
0000
0000
0000
0000
1000
0000
0100
,
0000
0000
0000
0000
0000
0000
0000
0000
2000
0000
0000
0000
0000
0000
0000
0000
0000
0000
0000
0000
0000
0000
0000
0000
0000
0000
0000
0000
0000
0000
0000
0000
0000
0000
0000
0000
0000
0000
0000
0000
0000
0000
0000
0000
0000
0000
0000
0000
0000
0000
0000
0000
0000
0000
0000
0000
0000
0000
0000
0000
0000
0000
0000
0000
0000
0000
0000
0000
0000
0000
0000
0000
3000
0000
0000
0000
0000
0000
0000
0000
0000
0000
0000
0000
0000
0000
0000
0000
0000
0000
0000
0000
0000
0000
0000
0000
1000
0000
0000
0000
0000
0000
0000
0000
0000
0000
0000
0000
0000
0000
0000
0000
0000
0000
0100
0000
0000
0000
0000
0000
0000
0000
0000
0000
0000
0000
0000
0000
0000
0000
0000
0000
0010
0000
0000
0000
0000
0000
0000
0000
0000
0000
0000
0000
0000
0000
0000
0000
0000
0000
0100
0000
0000
0000
0000
0000
0000
0000
0000
0000
0000
0000
0000
0000
0000
0000
0000
0000
0010
0000
0000
0000
0000
0000
0000
0000
0000
0000
0000
0000
0000
0000
0000
0000
0000
0000
0001
0000
0000
0000
0000
0000
,
0000
0000
0000
0000
0000
0000
0000
0000
0010
0000
0000
0000
0000
0000
0000
0001
0000
0000
0010
0000
0000
0100
0000
0000
0010
0000
0000
0000
0000
0000
0100
0000
0000
0000
0000
0000
0010
0000
0001
0000
0010
0000
0000
0000
0000
0200
0000
0000
,
0000
0000
0000
0000
0000
0000
0000
0000
0000
0300
0000
0000
2000
0000
0000
0000
0000
0000
3000
0000
0000
0001
0000
0010
,
0000
0100
0000
1000
0000
0001
0000
0100
0000
0010
0000
1000
0000
0100
0000
0010
0000
0001
0000
1000
0000
0010
0000
0100
,
0000
0001
0000
0010
0000
0001
0000
0010
0001
0010
0100
1000
0200
0000
0000
0000
0000
0000
0000
0000
0000
0000
0000
0000
,
0300
0000
1000
0000
0100
0000
0010
0000
0000
0000
0001
0010
0002
0000
0000
0000
,
0000
0000
0000
0000
0000
0000
0000
0000
0000
0000
0000
0000
0003
0000
0000
0000
0000
0000
0010
0000
0000
0100
0000
0000
1000
0000
0010
0000
1000
0000
0010
0000
1000
0000
0010
0000
0200
0000
0000
0000
0000
0000
0000
0000
0000
0000
0000
0000
,
0000
0000
0000
0000
0000
0000
0000
0000
0000
0000
0000
0000
0300
0000
0000
0000
0000
0000
0010
0000
0000
1000
0000
0000
0100
0000
0000
0000
0000
0000
0010
0000
0000
0001
0000
0000
0010
0000
0000
0000
0000
0000
0000
0000
0010
0000
0000
0000
,
0100
0000
1000
0000
0001
0100
0010
1000
0001
0010
0100
1000
0100
0010
0001
1000
,
0010
0100
0001
0010
0100
0010
0000
0000
0001
0000
0000
0000
0000
0000
1000
0100
,
0010
0100
0000
0001
0000
0100
1000
0100
0000
0010
0000
0001
0010
0100
1000
0100
,
1000
0000
0100
0000
0010
0000
0001
0000
0010
0000
0100
0000
1000
0000
0000
0001
0000
0000
0100
0000
0000
0010
0000
0000
1000
0000
0000
0100
0000
0000
0010
0000
0000
0100
0000
0000
0010
0000
0000
0001
0000
0000
0010
0000
0000
0000
0000
0000
,
0100
0000
0000
1000
0000
0000
0100
0000
0000
0010
0000
0000
0001
0000
0000
0000
0010
0000
0000
0000
0100
0000
0000
0000
1000
0000
0000
0000
0001
0000
0000
0000
0010
0000
0000
0000
0100
0000
0000
0000
0000
0000
0000
0000
0000
0000
0000
0000
,
0000
0000
1000
0000
0000
0000
0000
0000
0000
0000
0000
0000
0000
0000
0000
1000
0100
0010
0001
0010
0100
0010
0001
0010
,
0100
1000
0100
0010
0001
0010
0200
0000
0000
0000
0000
0000
0300
0000
0000
1000
0100
0010
0001
0010
0100
2000
0000
0000
,
0000
0000
0000
3000
0000
0000
1000
0100
0010
0100
1000
0100
0010
0000
0001
0000
1000
0000
0100
0000
0001
0000
0100
0000
,
1000
0001
0010
0001
0000
0002
0000
0000
0000
0000
0000
0000
,
0003
1000
0100
0020
0000
0000
0000
0000
0000
0000
0030
0000
,
0001
0000
0000
0001
0100
0010
0100
0010
1000
0100
1000
0010
0100
0001
0100
0010
,
1000
0000
0000
0000
0000
0000
0000
0000
0000
0000
0000
0000
0000
0000
0000
0000
0000
0000
1000
0000
0001
0000
0000
0000
1000
0000
0000
0000
0001
0000
0000
0000
1000
0000
0000
0000
0000
0000
0000
0000
0000
0000
0000
0000
0000
0010
0000
0000
,
1000
0010
0000
0000
0000
0000
1001
0000
0000
0000
1100
0000
0110
0000
1001
0000
,
0110
0022
0000
0033
1000
0011
0000
1000
,
1001
0000
1000
0000
0110
0000
0000
0000
1001
0000
1000
0100
0001
0100
0000
0000
,
0010
0000
0001
0100
0000
0000
0001
0000
0010
0000
0000
0000
0100
0001
0100
0000
,
0010
1000
0010
0100
0001
0010
0100
0010
0100
1000
0100
0000
0011
0000
0110
0000
,
1100
0000
0000
0110
0000
0000
0000
0000
0000
1100
0000
0000
0000
0000
0000
0001
0010
0001
0010
0001
0010
0001
0010
0001
,
0010
0000
0001
0000
0010
0000
0001
0000
0010
0000
0001
0000
0010
0000
0001
0000
0010
0000
0001
0000
0010
0000
0001
0000
0010
0000
0000
0000
0000
0000
0000
0000
0000
0010
0000
0000
0001
0000
0000
0010
0000
0000
0100
0000
0000
0010
0000
0000
,
0100
1000
0100
0010
0001
0010
0100
0010
0100
1000
0100
0010
0001
0010
0100
0010
,
0100
1000
0100
0010
0100
0000
0000
0000
1001
0000
0000
0000
0001
0000
0010
0100
,
1000
0000
0010
0000
0000
0000
0100
0000
0010
0000
1000
0000
0001
0000
0010
0100
,
1000
0000
0100
0000
0000
0000
0010
0000
0100
0000
1000
0000
0001
0000
0100
0010
,
1000
0100
0000
0001
0100
1000
0010
0000
,
0100
0010
0100
0010
0100
0010
0100
0010
0100
0010
0100
0010
0100
0010
0100
0010
0100
0010
0100
0010
0100
0010
0100
0010
,
1000
0010
0100
1000
0100
0010
0100
1000
0100
1000
0100
1000
0100
0010
0100
1000
0100
0010
0100
0010
0100
0010
0100
0010
,
0001
0010
0100
0010
0001
0010
0001
0010
0100
0010
0001
0010
0100
1000
0100
1000
0000
0000
0000
0000
0000
1000
0000
0000
,
0100
0010
0100
0000
0010
0000
0001
0000
,
0010
0001
0010
0001
0010
0001
0010
0001
0010
0001
0010
0001
0010
0001
0010
0001
0010
0001
0010
0001
0010
0001
0010
0001
,
0010
0001
0010
0001
0010
0001
0020
0000
0000
0000
0000
0000
0000
0000
0000
0000
0000
0000
0000
0000
0000
0000
0000
0000
,
0000
0000
0000
0000
0000
0000
0000
0030
,
0001
0010
0100
1000
0100
0000
0000
0000
0010
0000
0000
0000
1000
0000
0000
0000
,
0002
0000
0000
0000
0000
0003
0001
0010
,
0002
0000
0000
0000
,
0000
0000
0000
0000
0000
0000
0003
0001
,
0100
0010
1000
0000
0100
0000
0011
0000
,
1000
0100
1000
0100
1000
0100
1000
0100
1000
0100
1000
0100
1000
0100
1000
0100
1000
0100
1000
0100
1000
0100
1000
0100
,
1000
0100
0010
0100
1000
0100
1000
0100
0010
0100
1000
0100
1000
0100
0010
0100
1000
0100
0010
0100
1000
0100
0010
0100
,
0010
0100
1000
0100
0010
0100
0010
0100
0010
0100
0010
0001
0010
0100
0010
0100
0010
0001
0010
0100
0010
0001
0010
0001
,
0010
0001
0010
0001
0010
0001
0010
0100
0010
0001
0010
0100
1000
0100
0010
0001
0010
0100
1000
0100
0010
0100
1000
0100
,
0010
0100
1000
0100
1000
0100
1000
0000
0000
0000
0000
0000
0000
0000
0000
1010
0000
0000
0000
0000
0000
0000
0000
0000
,
1001
0000
0110
0000
0000
0110
0000
0000
,
1001
0000
0110
0000
0000
0101
0000
0000
,
1001
0000
0110
0000
0000
0022
0000
0000
,
0000
0000
0000
0000
,
0000
0000
0000
0000
0000
0033
0000
0000
,
0000
0000
0000
0000
0000
0000
0000
2002
0000
0000
0000
0000
0000
0000
0000
0000
,
0000
0000
0000
0000
,
0000
0000
0000
0000
,
0000
0000
0000
0000
0000
0000
0000
3003
0000
0000
0000
0000
0000
0000
0000
0000
;
