#TITLE:Dark Matter;
#SUBTITLE:;
#ARTIST:Kobaryo;
#TITLETRANSLIT:;
#SUBTITLETRANSLIT:;
#ARTISTTRANSLIT:;
#CREDIT:Happy Feet;
#BANNER:../_bn-1.png;
#BACKGROUND:../bg-1.png;
#LYRICSPATH:;
#CDTITLE:;
#MUSIC:Dark Matter.ogg;
#OFFSET:1.323;
#SAMPLESTART:65.867;
#SAMPLELENGTH:21.000;
#SELECTABLE:YES;
#BPMS:0.000=175.000;
#STOPS:;
#BGCHANGES:;
// cache tags:
#FIRSTBEAT:4.000;
#LASTBEAT:836.000;
#SONGFILENAME:Songs/Index Tournament 1/Dark Matter/Dark Matter.sm;
#HASMUSIC:1;
#HASBANNER:1;
#MUSICLENGTH:296.254;
// end cache tags

//---------------dance-single - Happy Feet----------------
#NOTES:
     dance-single:
     Happy Feet:
     Challenge:
     16:
     1.000,1.000,0.003,0.027,1.000,3114.000,1.000,8.000,24.000,0.000:

0000
0000
0000
0000
,
1001
0001
0000
0010
0000
0100
0000
1000
,
0000
0000
0001
0000
0000
0000
0100
0000
0000
0000
0020
0030
0000
0000
1000
0000
,
0000
0001
0000
0010
0000
0001
0000
0100
,
0000
0000
0010
0000
0000
0000
1000
0000
0000
0000
0002
0003
0000
0000
0010
0000
,
0000
0100
0000
1000
0000
0001
0000
0100
,
0000
0000
0010
0000
0000
0000
1000
0000
0000
0000
0002
0003
0000
0000
0010
0000
,
0000
0100
0000
1000
0000
0001
0000
0100
,
0000
0000
0001
0000
0000
0000
0010
0000
0000
0000
0200
0300
0000
0000
1000
0000
,
0000
0010
0000
0100
0000
0001
0000
1000
,
0000
0000
0100
0000
0000
0000
1000
0000
0000
0000
0002
0003
0000
0000
0100
0000
,
0000
0010
0000
0100
0000
0001
0000
1000
,
0000
0000
0100
0000
0000
0000
1000
0000
0000
0000
0020
0030
0000
0000
0100
0000
,
0000
0001
0000
0010
0000
0001
0000
1000
,
0000
0000
0100
0000
0000
0000
1000
0000
0000
0000
0002
0003
0000
0000
0100
0000
,
0000
0001
0000
1000
0000
0100
0000
1000
,
0000
0000
0010
0000
0000
0000
0100
0000
0000
0000
0002
0003
0000
0000
1000
0000
,
0001
0100
0001
1000
0100
0010
0001
1000
0010
0100
0001
1000
0100
1000
0010
1000
,
0001
0010
0001
1000
0100
0010
0001
1000
0010
0100
0001
1000
0100
1000
0010
0100
,
0001
1000
0100
0010
0001
1000
0100
0010
0100
1000
0010
0100
0010
1000
0001
1000
,
0010
0100
0001
1000
0001
0010
0100
1000
0001
1000
0010
0100
0001
1000
0100
1000
,
0001
0010
0001
1000
0100
0010
0001
1000
0010
1000
0001
0100
0010
0100
0001
1000
,
0100
0010
0100
1000
0001
1000
0010
1000
0001
0010
0001
0100
0001
1000
0001
1000
,
0010
1000
0100
1000
0001
0010
0001
1000
0010
0100
0001
1000
0100
1000
0001
0010
,
0001
0100
0010
1000
0100
1000
0010
0100
0001
1000
0100
0010
0001
0100
0001
1000
,
0100
1000
0001
0010
0001
1000
0010
1000
0001
0100
0001
1000
0100
0010
0001
1000
,
0010
0100
0001
0100
0010
1000
0100
0010
0001
1000
0100
1000
0010
0100
0001
1000
,
0001
0010
0100
1000
0001
0010
0001
0100
0001
1000
0100
1000
0001
1000
0010
1000
,
0100
1000
0001
0010
0001
1000
0010
0100
0001
1000
0010
1000
0100
0010
0001
1000
,
0100
1000
0001
1000
0010
1000
0001
0100
0001
1000
0010
1000
0100
0010
0001
0100
,
0001
1000
0010
1000
0100
1000
0001
0010
0001
0100
0010
1000
0100
1000
0001
0010
,
0001
1000
0010
0100
0001
1000
0100
1000
0010
0100
0001
1000
0100
0010
0100
1000
,
0001
0010
0001
1000
0010
0100
0001
0100
0010
1000
0100
0010
0001
1000
0010
0100
,
0001
1000
0100
0010
0001
1000
0010
0100
0001
1000
0100
0010
0001
1000
0010
0100
,
0001
1000
0100
0010
0001
1000
0010
0100
0001
1000
0100
0010
0001
1000
0100
1000
,
0010
0100
0001
1000
0100
1000
0010
0100
0001
1000
0100
0010
0001
1000
0100
0010
,
0001
0100
0001
1000
0010
1000
0100
0010
0001
1000
0010
0100
0001
1000
0001
0010
,
0001
1000
0010
0100
0001
1000
0100
0010
0001
1000
0010
0100
0001
1000
0100
0010
,
0001
1000
0010
0100
0001
1000
0100
0010
0100
1000
0010
0100
0001
1000
0100
1000
,
0010
0100
0001
1000
0100
0010
0001
0010
0100
1000
0010
0100
0001
1000
0100
1000
,
0010
0100
0001
1000
0001
0010
0100
1000
0010
0100
0001
1000
0100
1000
0010
0100
,
0001
1000
0100
0010
0001
1000
0010
0100
0001
1000
0100
0010
0100
1000
0001
0010
,
0001
1000
0010
0100
0001
1000
0010
1000
0100
0010
0001
0100
0001
1000
0010
1000
,
0100
1000
0001
0010
0001
0100
0010
1000
0100
1000
0001
1000
0010
0100
0001
1000
,
0100
0010
0001
1000
0010
0100
0001
1000
0100
0010
0001
0010
0100
1000
0010
0100
,
0001
1000
0010
1000
0100
1000
0001
0010
0001
0100
0010
1000
0100
0010
0001
0100
,
0010
1000
0100
1000
0010
0100
0001
1000
0100
0010
0001
0100
0001
1000
0010
0100
,
0001
1000
0001
1000
0001
1000
0001
1000
0001
1000
0001
1000
0001
1000
0001
1000
,
00M0
0000
00M0
0000
00M0
0000
00M0
0000
00M0
0000
00M0
0000
00M0
0000
00M0
0000
00M0
0000
00M0
0000
00M0
0000
00M0
0000
0001
0000
0000
4000
0000
0000
3000
0000
0000
0010
0000
0000
0000
0000
0000
1000
0000
0000
0100
0000
0000
0000
0000
0000
,
0010
0001
1000
0010
0100
0001
1000
0001
0010
0100
1000
0001
0100
0001
1000
0100
,
0010
0100
1000
0001
1000
0010
0100
0001
1000
0100
0010
0100
1000
0001
1000
0010
,
0100
0001
1000
0001
0010
0100
1000
0001
0010
0001
1000
0001
0100
0010
1000
0100
,
0010
0001
1000
0100
1000
0001
1000
0010
0100
0001
1000
0001
0010
0100
1000
0001
,
0100
0001
1000
0100
0010
0100
1000
0001
1000
0010
0100
0001
1000
0001
0010
0100
,
0010
0001
1000
0010
0100
0001
1000
0001
0010
0100
1000
0001
0100
0001
1000
0100
,
0010
0001
1000
0010
0100
0001
1000
0100
0010
0100
1000
0001
1000
0010
0100
0001
,
1000
0100
1000
0100
0010
0001
0100
0010
1000
0100
1000
0100
0010
0001
0100
0010
,
1000
0001
0010
0001
0100
0010
1000
0100
0010
0001
1000
0100
1000
0001
1000
0010
,
0100
0001
1000
0001
0010
0100
1000
0001
0010
0001
1000
0010
0100
0001
1000
0100
,
0010
0001
0100
0001
1000
0001
0010
0100
1000
0010
0100
0001
1000
0100
1000
0010
,
0100
0001
1000
0001
0010
0100
1000
0001
0010
0001
1000
0001
0100
0010
1000
0100
,
0010
0001
1000
0100
1000
0001
1000
0010
0100
0001
1000
0001
0010
0100
1000
0001
,
0010
0001
1000
0001
0100
0010
1000
0100
0010
0001
1000
0100
1000
0001
0010
0001
,
1000
0010
0100
0001
0100
0010
1000
0100
0010
0001
1000
0100
1000
0001
1000
0010
,
0100
0001
0100
0001
0010
0100
1000
0001
0100
0001
0010
0001
0010
0001
1000
0001
,
0100
0010
0100
0001
1000
0001
0010
0100
1000
0001
0010
0001
1000
0010
0100
0001
,
1000
0100
1000
0010
0100
0001
1000
0001
0010
0100
1000
0001
0100
0001
1000
0100
,
0010
0001
1000
0001
0010
0100
1000
0010
0100
0001
1000
0100
1000
0001
0100
0001
,
1000
0001
0010
0100
1000
0010
0100
0001
1000
0100
1000
0001
1000
0010
0100
0001
,
1000
0001
0010
0100
1000
0001
0010
0001
1000
0010
0100
0001
1000
0100
1000
0001
,
0010
0001
1000
0001
0100
0010
1000
0100
0010
0001
1000
0100
1000
0001
0010
0001
,
1000
0001
0100
0010
1000
0100
0010
0001
1000
0100
1000
0001
0010
0001
1000
0100
,
0010
0001
0010
0001
1000
0010
1000
0010
0100
0001
0100
0001
1000
0100
1000
0100
,
0010
0001
0100
0001
1000
0010
0100
0001
1000
0100
1000
0010
0100
0001
1000
0001
,
0010
0100
1000
0001
0010
0001
1000
0100
1000
0010
0100
0001
1000
0001
0010
0100
,
1000
0001
0010
0001
1000
0010
0100
0001
1000
0100
0010
0100
1000
0001
1000
0010
,
0100
0001
1000
0001
0010
0100
1000
0001
0010
0001
1000
0100
1000
0001
0100
0010
,
0100
0001
1000
0001
0010
0100
1000
0001
0010
0001
1000
0010
0100
0001
1000
0100
,
0010
0001
1000
0100
1000
0001
1000
0010
0100
0001
1000
0001
0010
0100
1000
0001
,
0010
0001
1000
0010
0100
0001
1000
0100
1000
0010
0100
0001
1000
0001
0010
0001
,
0100
0010
1000
0100
0010
0001
0100
0010
1000
0100
0010
0001
1000
0001
0010
0001
,
0100
0001
1000
0100
1000
0001
1000
0010
0100
0001
1000
0001
0010
0100
1000
0001
,
0100
0001
0010
0100
1000
0001
1000
0010
0100
0001
1000
0100
0010
0100
1000
0001
,
1000
0010
0100
0001
1000
0001
0010
0100
1000
0001
0010
0001
1000
0001
0100
0010
,
1000
0001
1000
0001
0010
0100
0010
0001
0100
0010
1000
0001
0010
0100
1000
0001
,
0010
0001
1000
0100
1000
0001
1000
0010
0100
0001
1000
0100
0010
0100
1000
0001
,
0010
0001
1000
0010
0100
0001
1000
0100
1000
0001
0100
0010
1000
0001
0010
0100
,
1000
0001
1000
0010
0100
0001
1000
0100
1000
0001
0010
0001
1000
0010
0100
0001
,
1000
0100
1000
0100
0010
0001
0010
0001
1000
0010
1000
0010
0100
0001
0100
0001
,
1000
0010
0100
0001
1000
0001
0010
0100
1000
0001
0010
0001
1000
0100
1000
0001
,
1000
0010
0100
0001
1000
0100
0010
0100
1000
0001
1000
0010
0100
0001
1000
0100
,
0010
0100
1000
0001
0010
0001
1000
0001
0100
0010
0100
0001
1000
0100
1000
0001
,
1000
0010
0100
0001
1000
0001
0010
0100
1000
0001
0010
0001
1000
0010
0100
0001
,
1000
0100
0010
0100
1000
0001
1000
0010
0100
0001
0010
0001
1000
0010
0100
0001
,
1000
0100
1000
0010
0100
0001
1000
0001
0010
0001
1000
0100
1000
0010
0100
0001
,
1000
0001
0010
0100
1000
0001
0010
0001
1000
0010
0100
0001
1000
0001
0010
0001
,
0100
0010
1000
0100
1000
0010
0100
0001
0010
0001
0100
0010
1000
0100
0010
0001
,
0100
0001
1000
0010
0100
0001
1000
0100
1000
0001
0010
0001
1000
0010
0100
0001
,
1000
0100
1000
0001
1000
0010
0100
0001
1000
0100
1000
0001
0010
0001
0100
0010
,
1000
0100
0010
0001
1000
0100
1000
0001
1000
0010
0100
0001
1000
0001
0010
0001
,
1000
0100
0010
0001
1000
0010
1000
0010
0100
0001
1000
0001
0100
0010
1000
0100
,
0010
0001
1000
0100
1000
0001
1000
0010
0100
0001
1000
0100
0010
0100
1000
0001
,
0100
0010
1000
0001
0010
0001
1000
0100
1000
0001
0010
0001
1000
0010
0100
0001
,
1000
0100
1000
0001
1000
0010
0100
0001
1000
0100
1000
0001
0010
0001
0100
0010
,
1000
0100
0010
0001
1000
0100
0010
0001
1000
0010
0100
0001
1000
0100
1000
0100
,
0010
0001
1000
0100
1000
0001
0010
0001
1000
0001
0100
0010
1000
0001
0010
0100
,
1000
0001
0010
0001
1000
0100
1000
0001
1000
0010
0100
0001
1000
0100
0010
0100
,
1000
0001
1000
0010
0100
0001
1000
0100
1000
0001
1000
0010
0100
0001
1000
0001
,
0010
0100
1000
0001
0010
0001
1000
0100
1000
0001
1000
0010
0100
0001
0100
0010
,
1000
0100
0010
0001
1000
0100
1000
0001
0010
0001
1000
0010
0100
0001
0100
0010
,
1000
0001
1000
0001
0010
0100
1000
0001
0010
0001
1000
0100
1000
0010
0100
0001
,
1000
0001
0010
0100
0010
0001
1000
0010
0100
0001
1000
0100
1000
0001
1000
0010
,
0100
0001
0100
0010
1000
0100
0010
0001
1000
0100
1000
0001
0010
0001
1000
0001
,
0100
0010
1000
0100
0010
0001
1000
0100
1000
0001
1000
0010
0100
0001
0100
0010
,
1000
0001
0010
0100
0010
0001
1000
0100
1000
0001
1000
0010
0100
0001
1000
0100
,
1000
0001
0100
0010
1000
0001
0010
0100
1000
0001
0010
0001
1000
0001
0100
0010
,
1000
0001
0010
0100
1000
0001
0010
0001
1000
0010
0100
0001
1000
0100
0010
0100
,
1000
0001
0010
0001
1000
0010
0100
0001
1000
0100
0010
0100
1000
0001
0010
0001
,
1000
0010
0100
0001
1000
0100
1000
0001
1000
0010
0100
0001
1000
0100
0010
0100
,
1000
0001
0010
0001
1000
0010
0100
0001
0100
0010
1000
0100
0010
0001
1000
0100
,
1000
0001
1000
0010
0100
0001
1000
0001
0010
0001
1000
0100
1000
0001
1000
0100
,
0010
0001
0100
0010
1000
0100
0010
0001
0100
0010
1000
0100
0010
0001
0100
0001
,
1000
0001
0100
0010
1000
0100
0010
0001
0100
0010
1000
0100
0010
0001
0100
0001
,
1000
0001
0100
0010
1000
0100
0010
0001
0100
0010
1000
0100
0010
0001
0100
0001
,
1000
0001
0100
0010
1000
0100
0010
0001
0100
0010
1000
0100
0010
0001
0100
0001
,
1000
0001
0100
0010
1000
0100
0010
0001
0100
0010
1000
0100
0010
0001
0100
0001
,
1000
0001
0100
0010
1000
0100
0010
0001
0100
0010
1000
0100
0010
0001
0100
0001
,
1000
0001
0100
0010
1000
0100
0010
0001
0100
0010
1000
0100
0010
0001
0100
0001
,
1000
0001
0100
0010
1000
0100
0010
0001
0100
0010
1000
0100
0010
0001
0100
0001
,
1000
0001
0100
0010
1000
0100
0010
0001
0100
0010
1000
0100
0010
0001
0100
0001
,
1000
0001
0100
0010
1000
0100
0010
0001
0100
0010
1000
0100
0010
0001
0100
0001
,
1000
0001
0100
0010
1000
0100
0010
0001
0100
0010
1000
0100
0010
0001
0100
0001
,
1000
0001
0100
0010
1000
0100
0010
0001
0100
0010
1000
0100
0010
0001
0100
0001
,
1000
0001
0100
0010
1000
0100
0010
0001
0100
0010
1000
0100
0010
0001
0100
0001
,
1000
0001
0100
0010
1000
0100
0010
0001
0100
0010
1000
0100
0010
0001
0100
0001
,
1000
0001
0100
0010
1000
0100
0010
0001
0100
0010
1000
0100
0010
0001
0100
0001
,
1000
0100
1000
0100
0010
0001
0010
0001
1000
0010
1000
0010
0100
0001
0100
0001
,
1000
0001
0100
0010
1000
0100
0010
0001
0100
0010
1000
0100
0010
0001
0100
0001
,
1000
0001
0100
0010
1000
0100
0010
0001
0100
0010
1000
0100
0010
0001
0100
0001
,
1000
0001
0100
0010
1000
0100
0010
0001
0100
0010
1000
0100
0010
0001
0100
0001
,
1000
0001
0100
0010
1000
0100
0010
0001
0100
0010
1000
0100
0010
0001
0100
0001
,
1000
0100
1000
0001
1000
0010
0100
0001
1000
0001
0010
0100
1000
0001
0010
0001
,
1000
0010
0100
0001
0010
0100
1000
0001
0100
0001
1000
0010
1000
0001
0010
0100
,
1000
0001
1000
0001
1000
0001
1000
0001
1000
0001
1000
0001
1000
0001
1000
0001
,
00M0
0000
00M0
0000
00M0
0000
00M0
0000
00M0
0000
00M0
0000
00M0
0000
00M0
0000
00M0
0000
00M0
0000
00M0
0000
00M0
0000
1000
0000
0000
0004
0000
0000
0003
0000
0000
0100
0000
0000
0000
0000
0000
0001
0000
0000
0010
0000
0000
0000
0000
0000
,
0100
1000
0001
0100
0010
1000
0001
1000
0100
0010
0001
1000
0010
1000
0001
0010
,
0100
0010
0001
1000
0001
0100
0010
1000
0001
0010
0100
0010
0001
1000
0001
0100
,
0010
1000
0001
1000
0100
0010
0001
1000
0100
1000
0001
1000
0010
0100
0001
0010
,
0100
1000
0001
0010
0001
1000
0001
0100
0010
1000
0001
1000
0100
0010
0001
1000
,
0010
1000
0001
0010
0100
0010
0001
1000
0001
0100
0010
1000
0001
1000
0100
0010
,
0100
1000
0001
0100
0010
1000
0001
1000
0100
0010
0001
1000
0010
1000
0001
0010
,
0100
1000
0001
0100
0010
1000
0001
0010
0100
0010
0001
1000
0001
0100
0010
1000
,
0001
0010
0001
0010
0100
1000
0010
0100
0001
0010
0001
0010
0100
1000
0010
0100
,
0001
1000
0100
1000
0010
0100
0001
0010
0100
1000
0001
0010
0001
1000
0001
0100
,
0010
1000
0001
1000
0100
0010
0001
1000
0100
1000
0001
0100
0010
1000
0001
0010
,
0100
1000
0010
1000
0001
1000
0100
0010
0001
0100
0010
1000
0001
0010
0001
0100
,
0010
1000
0001
1000
0100
0010
0001
1000
0100
1000
0001
1000
0010
0100
0001
0010
,
0100
1000
0001
0010
0001
1000
0001
0100
0010
1000
0001
1000
0100
0010
0001
1000
,
0100
1000
0001
1000
0010
0100
0001
0010
0100
1000
0001
0010
0001
1000
0100
1000
,
0001
0100
0010
1000
0010
0100
0001
0010
0100
1000
0001
0010
0001
1000
0001
0100
,
0010
1000
0010
1000
0100
0010
0001
1000
0010
1000
0100
1000
0100
1000
0001
1000
,
0010
0100
0010
1000
0001
1000
0100
0010
0001
1000
0100
1000
0001
0100
0010
1000
,
0001
0010
0001
0100
0010
1000
0001
1000
0100
0010
0001
1000
0010
1000
0001
0010
,
0100
1000
0001
1000
0100
0010
0001
0100
0010
1000
0001
0010
0001
1000
0010
1000
,
0001
1000
0100
0010
0001
0100
0010
1000
0001
0010
0001
1000
0001
0100
0010
1000
,
0001
1000
0100
0010
0001
1000
0100
1000
0001
0100
0010
1000
0001
0010
0001
1000
,
0100
1000
0001
1000
0010
0100
0001
0010
0100
1000
0001
0010
0001
1000
0100
1000
,
0001
1000
0010
0100
0001
0010
0100
1000
0001
0010
0001
1000
0100
1000
0001
0010
,
0100
1000
0100
1000
0001
0100
0001
0100
0010
1000
0010
1000
0001
0010
0001
0010
,
0100
1000
0010
1000
0001
0100
0010
1000
0001
0010
0001
0100
0010
1000
0001
1000
,
0100
0010
0001
1000
0100
1000
0001
0010
0001
0100
0010
1000
0001
1000
0100
0010
,
0001
1000
0100
1000
0001
0100
0010
1000
0001
0010
0100
0010
0001
1000
0001
0100
,
0010
1000
0001
1000
0100
0010
0001
1000
0100
1000
0001
0010
0001
1000
0010
0100
,
0010
1000
0001
1000
0100
0010
0001
1000
0100
1000
0001
0100
0010
1000
0001
0010
,
0100
1000
0001
0010
0001
1000
0001
0100
0010
1000
0001
1000
0100
0010
0001
1000
,
0100
1000
0001
0100
0010
1000
0001
0010
0001
0100
0010
1000
0001
1000
0100
1000
,
0010
0100
0001
0010
0100
1000
0010
0100
0001
0010
0100
1000
0001
1000
0100
1000
,
0010
1000
0001
0010
0001
1000
0001
0100
0010
1000
0001
1000
0100
0010
0001
1000
,
0010
1000
0100
0010
0001
1000
0001
0100
0010
1000
0001
0010
0100
0010
0001
1000
,
0001
0100
0010
1000
0001
1000
0100
0010
0001
1000
0100
1000
0001
1000
0010
0100
,
0001
1000
0001
1000
0100
0010
0100
1000
0010
0100
0001
1000
0100
0010
0001
1000
,
0100
1000
0001
0010
0001
1000
0001
0100
0010
1000
0001
0010
0100
0010
0001
1000
,
0100
1000
0001
0100
0010
1000
0001
0010
0001
1000
0010
0100
0001
1000
0100
0010
,
0001
1000
0001
0100
0010
1000
0001
0010
0001
1000
0100
1000
0001
0100
0010
1000
,
0001
0010
0001
0010
0100
1000
0100
1000
0001
0100
0001
0100
0010
1000
0010
1000
,
0001
0100
0010
1000
0001
1000
0100
0010
0001
1000
0100
1000
0001
0010
0001
1000
,
0001
0100
0010
1000
0001
0010
0100
0010
0001
1000
0001
0100
0010
1000
0001
0010
,
0100
0010
0001
1000
0100
1000
0001
1000
0010
0100
0010
1000
0001
0010
0001
1000
,
0001
0100
0010
1000
0001
1000
0100
0010
0001
1000
0100
1000
0001
0100
0010
1000
,
0001
0010
0100
0010
0001
1000
0001
0100
0010
1000
0100
1000
0001
0100
0010
1000
,
0001
0010
0001
0100
0010
1000
0001
1000
0100
1000
0001
0010
0001
0100
0010
1000
,
0001
1000
0100
0010
0001
1000
0100
1000
0001
0100
0010
1000
0001
1000
0100
1000
,
0010
0100
0001
0010
0001
0100
0010
1000
0100
1000
0010
0100
0001
0010
0100
1000
,
0010
1000
0001
0100
0010
1000
0001
0010
0001
1000
0100
1000
0001
0100
0010
1000
,
0001
0010
0001
1000
0001
0100
0010
1000
0001
0010
0001
1000
0100
1000
0010
0100
,
0001
0010
0100
1000
0001
0010
0001
1000
0001
0100
0010
1000
0001
1000
0100
1000
,
0001
0010
0100
1000
0001
0100
0001
0100
0010
1000
0001
1000
0010
0100
0001
0010
,
0100
1000
0001
0010
0001
1000
0001
0100
0010
1000
0001
0010
0100
0010
0001
1000
,
0010
0100
0001
1000
0100
1000
0001
0010
0001
1000
0100
1000
0001
0100
0010
1000
,
0001
0010
0001
1000
0001
0100
0010
1000
0001
0010
0001
1000
0100
1000
0010
0100
,
0001
0010
0100
1000
0001
0010
0100
1000
0001
0100
0010
1000
0001
0010
0001
0010
,
0100
1000
0001
0010
0001
1000
0100
1000
0001
1000
0010
0100
0001
1000
0100
0010
,
0001
1000
0100
1000
0001
0010
0001
1000
0001
0100
0010
1000
0001
0010
0100
0010
,
0001
1000
0001
0100
0010
1000
0001
0010
0001
1000
0001
0100
0010
1000
0001
1000
,
0100
0010
0001
1000
0100
1000
0001
0010
0001
1000
0001
0100
0010
1000
0010
0100
,
0001
0010
0100
1000
0001
0010
0001
1000
0100
1000
0001
0100
0010
1000
0010
0100
,
0001
1000
0001
1000
0100
0010
0001
1000
0100
1000
0001
0010
0001
0100
0010
1000
,
0001
1000
0100
0010
0100
1000
0001
0100
0010
1000
0001
0010
0001
1000
0001
0100
,
0010
1000
0010
0100
0001
0010
0100
1000
0001
0010
0001
1000
0100
0010
0001
1000
,
0001
0000
0000
0000
;
