#TITLE:DEADLOCK XXX;
#SUBTITLE:;
#ARTIST:BlackY;
#TITLETRANSLIT:;
#SUBTITLETRANSLIT:;
#ARTISTTRANSLIT:;
#CREDIT:;
#BANNER:deadlock xxx bn.png;
#BACKGROUND:deadlock xxx bg.png;
#LYRICSPATH:;
#CDTITLE:;
#MUSIC:DEADLOCK XXX.ogg;
#OFFSET:-2.238;
#SAMPLESTART:29.274;
#SAMPLELENGTH:17.296;
#SELECTABLE:YES;
#BPMS:0.000=222.000;
#STOPS:;
#BGCHANGES:;
// cache tags:
#FIRSTBEAT:0.000;
#LASTBEAT:336.000;
#SONGFILENAME:Songs/SPEEEDCOOOORE 4/DEADLOCK XXX - [CondorTalon]/DEADLOCK XXX.sm;
#HASMUSIC:1;
#HASBANNER:1;
#MUSICLENGTH:94.389;
// end cache tags

//---------------dance-single - CondorTalon----------------
#NOTES:
     dance-single:
     CondorTalon:
     Challenge:
     12:
     1.000,1.000,0.106,0.477,1.000,711.000,10.000,45.000,0.000,0.000:

1000
0001
0000
0200
0000
0310
1000
0000
,
0001
0010
0000
0200
0000
0310
0001
1000
,
0001
0100
0000
0020
0000
1030
0001
0000
,
1000
0000
0000
0200
0000
0000
0000
0000
0000
0310
0000
0000
0001
0000
1000
0000
0100
0000
0010
0000
0100
0000
1000
0000
,
0001
0100
0000
0020
0000
1030
0001
0000
,
0010
0000
0000
0000
0100
0000
2000
0000
0000
0000
3001
0100
0010
0100
0001
0100
,
0020
0000
2030
0000
3001
0010
0100
1000
,
0010
0000
2000
0000
0000
0000
3001
0000
1000
0100
0010
0001
1000
0100
0010
0001
,
1000
0010
0000
0200
0000
0301
1000
0000
,
0100
0010
0000
0002
0000
0103
0010
1000
,
0001
1000
0000
0200
0000
1300
0001
0000
,
0100
0000
0000
0020
0000
0000
0000
0000
0000
1030
0000
0000
0001
0000
1000
0000
0100
0000
0010
0000
0001
0000
0010
0000
,
0100
1000
0000
0020
0000
0130
0001
0000
,
1000
0000
0000
0000
0100
0000
0020
0000
0000
0000
0031
1000
0100
1000
0001
1000
,
0200
0000
2300
0000
3010
0100
0001
0100
,
0010
0000
2000
0000
0000
0000
3001
0000
0010
0000
0100
1000
0001
0100
0010
1000
,
0001
0010
0000
0002
0000
0103
0010
0000
,
1000
0001
0000
2000
0000
3100
0010
0100
,
1000
0001
0000
0200
0000
0310
1000
0000
,
0001
0000
0000
0020
0000
0000
0000
0000
0000
0130
0000
0000
1000
0000
0010
0000
0100
0000
0001
0000
1000
0000
0010
0000
,
0100
0010
0000
2000
0000
3001
0010
0000
,
0100
0000
0000
0000
1000
0000
0002
0000
0000
0000
0103
0010
1000
0001
0010
0100
,
2000
0000
3002
0000
0013
0100
1000
0100
,
1000
0000
0002
0000
0000
0000
0013
0000
0100
1000
0100
1000
0001
0100
0001
0100
,
0000
0000
0000
0000
0002
0000
0000
0003
,
1001
0000
1000
0000
0100
0000
0010
0001
1000
0000
0010
0100
0001
0000
0010
0000
,
0001
0000
1000
0000
0010
0000
0100
0001
1000
0000
0100
0010
0001
0000
1000
0000
,
0010
0000
1000
0000
0001
0000
0010
0100
1000
0000
0001
0100
0001
0000
1000
0000
,
0010
0000
0100
0000
0001
0000
1000
0100
0010
0100
1000
0001
2000
0000
0000
0000
,
3010
0000
0100
0000
0001
0000
1000
0100
0010
0000
0100
1000
0001
0000
0100
0000
,
0010
0000
1000
0000
0001
0000
0100
0010
0100
0000
0001
1000
0010
0000
0100
0000
,
0001
0000
0010
0000
0100
0000
1000
0100
1000
0000
0001
0100
0020
0000
0000
0000
,
1030
0000
1000
0000
0001
0000
0001
0000
1000
0100
0010
0001
1000
0001
0010
0100
,
1000
0000
0001
0000
0100
0000
0010
1000
0001
0000
0010
0100
0010
0000
0001
0000
,
1000
0000
0010
0000
1000
0000
0001
0100
0010
0000
0100
0001
1000
0000
0001
0000
,
0010
0000
0100
0000
0010
0000
0001
1000
0010
0000
1000
0001
0010
0000
0100
0000
,
1000
0000
0001
0000
0100
0000
0010
1000
0001
1000
0100
0010
0002
0000
0000
0000
,
1003
0000
0010
0000
0100
0000
0001
1000
0001
0000
0010
0100
1000
0000
0001
0000
,
1000
0000
0010
0000
0100
0000
0001
1000
0100
0000
1000
0001
0200
0000
0000
0000
,
0301
0000
0010
0000
0100
0000
1000
0001
0100
0000
0010
0100
0002
0000
0000
0000
,
1003
0100
0010
0001
1000
0010
0100
0001
1000
0001
0100
0010
1000
0001
0010
0100
,
1000
0001
0000
0020
0000
0130
1000
0000
,
0001
1000
0000
0020
0000
1030
0100
0010
,
0001
0100
0000
0020
0000
1030
0001
0000
,
1000
0000
0000
0200
0000
0000
0000
0000
0000
0310
0000
0000
0001
0000
0100
0000
0010
0000
1000
0000
0010
0000
0100
0000
,
0001
1000
0000
0020
0000
1030
0001
0000
,
0010
0000
0000
0000
0100
0000
2000
0000
0000
0000
3001
0100
0010
1000
0010
0100
,
0002
0000
0023
0000
0130
1000
0001
0100
,
0010
0000
2000
0000
0000
0000
3001
0000
0010
0000
0100
1000
0001
1000
0010
0100
,
0001
0100
0001
1000
0100
1000
0001
0010
0001
1000
0010
1000
,
0001
0100
0001
1000
0100
1000
0001
0010
0001
1000
0010
1000
,
0001
0010
0100
0010
0001
1000
0001
0010
0100
0010
0001
1000
,
0001
0100
0010
0100
0001
1000
0001
0100
0010
0100
0001
1000
,
0001
0010
0100
1000
0010
0100
0001
0010
0100
1000
0010
0100
,
0001
0100
0010
1000
0100
0010
0001
0100
0010
1000
0100
0010
,
0001
0010
0001
0100
0010
1000
0001
0010
0001
0100
0010
1000
,
0001
0100
0001
0010
0100
1000
0001
0100
0001
0010
0100
1000
,
0002
0000
0000
0003
1001
0000
0000
0000
,
1000
0000
0001
0100
0010
0000
1000
0000
0001
0000
0010
0100
1000
0000
0001
0000
,
0100
0000
0010
0000
1000
0001
0100
0000
0001
0010
0100
1000
0001
0010
0100
1000
,
0001
0000
0100
0010
1000
0000
0001
0000
1000
0000
0100
0010
0001
0000
1000
0000
,
0010
0100
0001
0100
0010
1000
0100
0010
0001
0010
0100
1000
,
0001
0000
1000
0010
0100
0000
0010
0000
1000
0000
0001
0010
0100
0000
1000
0000
,
0001
0000
0100
0000
0010
1000
0001
0000
1000
0100
0010
0001
1000
0100
0010
0001
,
1000
0000
0010
0100
0001
0000
1000
0000
0100
0000
0010
0000
0100
1000
0001
0000
,
1000
0000
0010
1000
0000
0001
1000
0100
1000
0000
0010
1000
0000
0001
1000
0000
,
0001
0000
0010
0100
1000
0000
0001
0000
0100
0010
1000
0000
0001
0000
0100
0000
,
0001
0000
0010
0000
0100
1000
0001
0000
1000
0010
0100
0001
1000
0010
0100
0001
,
1000
0000
0100
0010
0001
0000
1000
0000
0001
0000
0100
0000
0010
1000
0010
0000
,
1000
0000
0100
1000
0000
0001
1000
0010
1000
0000
0100
1000
0000
0001
1000
0000
,
0100
0000
0110
0000
0010
0000
0001
0000
1001
0000
1000
0000
,
0010
0000
0110
0000
0100
0000
0001
0000
1001
0000
1000
0000
,
0001
0010
0001
0010
0100
1000
0100
1000
,
0001
0000
0100
0000
0001
0000
0100
0000
0010
1000
0010
1000
0010
1000
0010
1000
,
0001
0001
1000
1000
0001
0000
0010
0010
,
0100
0100
0010
0000
0110
0000
0000
0000
,
0100
0100
1000
1000
0100
0000
1000
1000
,
0010
0010
1000
0000
1001
0000
0000
0000
,
0001
0001
0010
0010
0001
0000
0100
0100
,
0010
0010
0100
0000
0110
0000
0000
0000
,
0010
1000
0001
0000
0010
0100
1000
0001
1000
0000
0010
0100
0001
0100
0010
0000
,
1000
0100
0010
0000
0100
1000
0001
1000
0010
0000
0100
0001
1000
0100
0010
0000
,
0022
0000
0000
0000
,
0000
0000
0000
0000
,
0033
0000
0000
0000
;
