#TITLE:The Fall of Melnibone;
#SUBTITLE:;
#ARTIST:Dark Moor;
#TITLETRANSLIT:;
#SUBTITLETRANSLIT:;
#ARTISTTRANSLIT:;
#CREDIT:;
#BANNER:Fall-bn.png;
#BACKGROUND:Fall-bg.png;
#LYRICSPATH:;
#CDTITLE:;
#MUSIC:The Fall Of Melnibone.ogg;
#OFFSET:-0.240;
#SAMPLESTART:100.012;
#SAMPLELENGTH:12.000;
#SELECTABLE:YES;
#BPMS:0.000=96.700,88.000=95.200,152.000=160.000,568.000=80.000,633.000=160.000,833.000=80.000,853.000=160.000,1147.000=193.400,1219.000=150.000,1331.000=155.000,1367.000=160.000;
#STOPS:151.000=1.418
,568.000=0.750
;
#BGCHANGES:;
// cache tags:
#FIRSTBEAT:8.000;
#LASTBEAT:1475.000;
#SONGFILENAME:Songs/SSSC PACK/[Kyt-Xune] - The Fall of Melnibone/The Fall of Melnibone.sm;
#HASMUSIC:1;
#HASBANNER:1;
#MUSICLENGTH:631.640;
// end cache tags

//---------------dance-single - Blank----------------
#NOTES:
     dance-single:
     Blank:
     Challenge:
     13:
     0.996,1.000,0.340,0.413,1.000,3917.000,215.000,261.000,56.000,20.000:
0000
0000
0000
0000
,
0000
0000
0000
0000
,
1000
0001
0100
0010
1000
0001
0010
0001
0100
0010
1000
0001
,
0010
0100
1000
0100
0010
0001
0100
0010
1000
0001
0010
0001
,
0100
0010
1000
1001
0000
1001
0001
0010
0001
0101
0000
1010
,
1000
0001
0010
0110
0000
0100
1100
0000
0001
0101
0000
0100
,
0010
1000
0001
1001
0000
0101
0100
0010
1000
1100
0000
0110
,
0100
0010
0001
0011
0000
0001
1001
0000
1000
1100
0000
0010
,
0200
0000
0000
0300
0010
0100
0002
0000
0000
0003
0010
0100
,
2000
0000
0000
0000
0000
0000
3100
0010
0100
1000
0001
0100
,
0020
0000
0000
0030
1000
0001
0200
0000
0000
0300
0001
1000
,
0200
0000
0000
0000
0000
0000
1300
0100
0010
0001
0100
0010
,
2000
0000
0000
3001
0010
0001
0100
0010
1000
0002
0000
0000
,
0023
0000
0000
0031
1000
0100
1000
0010
0100
0001
1000
0001
,
0020
0000
0000
0130
1000
0010
0200
0000
0000
0310
0100
0001
,
2000
0000
0000
3100
0010
0100
0020
0000
0000
0031
1000
0100
,
0020
0000
0000
0130
1000
0010
0200
0000
0000
0310
1000
0001
,
2000
0000
0000
3100
0010
0100
0020
0000
0000
0031
1000
0100
,
1000
0001
0100
0010
1000
0001
0010
0001
0100
0010
1000
0100
,
0010
0001
0010
0001
0100
0010
1000
0001
0010
0100
0010
0100
,
1000
0001
0100
0010
1000
0001
0010
0100
1000
0001
0010
0100
,
1000
0100
0010
0002
0000
0000
0000
0000
0000
0000
0000
0000
0000
0000
0000
0000
0000
0000
0000
0000
0000
0000
0000
0000
0003
0000
0000
0000
0000
0000
0000
0000
0000
0000
0000
0000
0000
0000
0000
0000
0000
0000
0000
0000
0000
0000
0000
0000
,
2001
0000
0000
0000
0000
0000
0001
0000
0001
0000
0001
0000
3001
0000
0000
0000
0000
0000
0200
0000
0000
0320
0000
0000
,
2030
0000
0000
0000
0000
0000
0100
0000
0100
0000
0100
0000
3100
0000
0000
0000
0000
0000
0020
0000
0000
0032
0000
0000
,
2003
0000
0000
0010
0010
0010
3020
0000
0000
0100
0100
0100
,
0230
0000
0000
0001
0001
0001
0301
0010
0100
0010
0100
1000
,
0020
0000
0000
0000
0000
0000
0100
0000
0100
0000
0100
0000
0130
0000
0000
0000
0000
0000
0020
0000
0000
0230
0000
0000
,
0302
0000
0000
0000
0000
0000
1000
0000
1000
0000
1000
0000
1003
0000
0000
0000
0000
0000
0020
0000
0000
0230
0000
0000
,
0320
0000
0000
1000
1000
1000
2030
0000
0000
0100
0100
0100
,
0200
0000
3300
0110
,
0022
0000
0000
0033
1001
0000
1100
0000
,
2010
0001
3100
0110
,
0012
0013
2100
3100
,
2002
0000
3003
0101
,
0220
0330
1010
1001
,
0012
0100
1003
1100
,
2010
0010
0200
0020
,
0002
0000
0000
3333
,
0011
0010
0100
1000
0001
0000
0001
0100
0010
1000
0001
0000
1000
0100
0010
0001
,
1000
0000
1000
0010
0100
0001
1000
0000
0100
0000
0010
0000
0100
0000
1100
0000
,
1010
0100
0001
1000
0010
0000
0010
0100
0001
0010
0100
0000
0100
0010
0001
1000
,
0100
0010
0100
1000
0010
0100
0001
0100
0110
0000
0001
0000
0011
0000
1000
0000
,
1100
1000
0001
0100
0010
0000
1000
0001
0010
0100
1000
0000
0010
1000
0001
0100
,
0010
0000
0100
0001
1000
0001
0010
0000
0100
0000
1000
0000
0010
0000
0110
0000
,
1001
0100
0010
1000
0001
0000
0010
0100
0010
0001
0100
0000
0010
1000
0001
0000
,
0101
0010
1100
0001
0011
1000
0110
0100
,
0001
0100
0001
1000
0100
0000
0010
0001
0100
0000
0010
0000
0100
0001
1000
0100
,
1000
0000
0010
0100
0010
0000
1000
0000
0100
0000
0010
0000
0100
0000
1000
0000
,
0010
0100
0010
1000
0100
0000
0010
0001
1000
0000
0010
0000
1000
0001
0100
0010
,
2000
0100
0010
3001
,
1000
0001
0100
0010
1000
0000
0001
0010
0100
0000
1000
0000
0010
0100
0001
1000
,
0100
0000
0010
0100
1000
0000
0001
0000
0010
0000
0001
0000
0100
0000
0010
0000
,
1000
0001
0010
0001
0100
0000
0010
1000
0100
0000
0010
0000
0100
1000
0010
0100
,
0001
0100
0010
1000
0001
0010
0001
0100
0010
1000
0100
0010
0001
1000
0010
0100
,
0001
0100
0001
0100
0001
0000
1000
0100
0000
0000
1000
0000
1010
0000
0000
0000
,
0100
0001
0100
0001
0100
0000
0010
0100
0000
0000
0010
0000
1010
0000
0000
0000
,
0001
0010
0100
0010
0001
0000
0100
0010
0000
0000
1000
0000
1001
0000
0000
0000
,
0100
0010
0100
0001
1000
0000
0100
0010
0000
0000
0100
0000
0110
0000
0000
0000
,
0001
1000
0100
0010
0001
0000
0100
0010
0100
0001
1000
0000
0001
0010
0100
1000
,
0010
0000
0100
0010
1000
0001
1000
0000
0001
0000
0010
0000
0100
0000
0010
0000
,
0001
1000
0100
1000
0010
0000
0100
0001
1000
0010
1000
0000
0001
0010
0100
0000
,
1001
0100
0010
1000
,
1001
0000
0000
0000
0011
0000
0000
0000
0110
0000
0100
1000
0001
0000
0000
0000
,
1000
1000
MMMM
0010
0010
0010
MMMM
0100
,
0100
0100
MMMM
0001
0001
0001
MMMM
0010
,
0010
0010
MMMM
0100
0100
0100
MMMM
1000
,
1000
1000
MMMM
0010
0010
0010
MMMM
0100
,
0001
0001
MMMM
1000
1000
1000
MMMM
0100
,
0100
0100
MMMM
0010
0010
0010
MMMM
0001
,
0001
0001
MMMM
1000
1000
1000
MMMM
0010
,
0010
0100
0001
1000
0001
0010
0100
1000
,
0020
0230
2300
3002
0023
0230
0302
2003
,
3200
0302
2003
3020
0230
2300
3020
0230
,
0302
0023
0230
2300
3200
0302
0203
0320
,
2030
3020
0032
0203
2300
3200
0320
2030
,
3002
0203
0302
2003
3200
0302
0203
2300
,
3020
0000
0000
0230
0000
0000
0302
0000
0000
2003
0000
0000
3010
0000
0100
0000
0001
0000
1000
0000
0001
0000
0010
0000
,
0100
1000
0000
0010
0100
0001
0000
1000
,
0010
0000
0100
0000
0001
0000
0010
0000
0100
1000
0001
0100
0010
0100
0001
1000
,
0100
0010
0000
0001
2000
0000
3020
0000
,
2030
3200
0000
0300
,
0020
0000
0000
0000
0000
0000
0000
0000
0000
0000
0000
0000
0000
0000
0000
0000
0230
0000
0000
0000
0000
0000
0000
0000
0000
0000
0000
0000
0000
0000
0000
0000
0320
0000
0000
0000
0000
0000
0000
0000
0000
0000
0000
0000
0000
0000
0000
0000
0032
0000
0000
0000
0000
0000
0000
0000
0000
0000
0000
0000
0000
0000
0000
0003
,
1002
0000
0000
0000
1000
0000
0000
0000
0100
0000
0000
0000
0013
0100
0010
0100
,
1000
0010
0000
0100
0002
0023
0230
0320
,
0230
0000
0000
0000
0000
0000
2300
3020
,
0230
0302
2003
3200
,
0320
0000
0000
0000
0001
0000
0000
0000
1000
0000
0000
0000
0130
1000
0010
0100
,
0001
0010
1000
0001
1000
0010
0001
0100
,
1000
0001
1000
0100
0010
1000
0100
0001
,
1000
0010
0001
0010
1000
0001
0100
0010
,
0001
0000
0100
0000
0010
0000
0001
0000
1000
0100
0001
0100
0010
1000
0001
0010
,
0200
1000
2300
0001
3001
0100
0010
1000
,
0200
0010
0320
0001
0031
1000
0100
1000
,
0010
0100
1000
0001
0010
0100
0001
1000
,
0100
0000
0001
0100
1000
0100
1000
0001
0100
0000
1000
0100
0010
1000
0001
1000
,
0100
0000
0010
0000
0000
0000
0100
0000
1001
0000
0010
0000
0000
0000
0100
0001
,
0010
0000
0100
0000
0000
0000
1000
0000
1001
0000
0001
0000
0000
0000
0100
0010
,
1000
0000
0100
0000
0000
0000
0010
0000
1001
0000
0001
0000
0000
0000
0100
0001
,
1000
0000
0100
0000
0000
0000
0010
0000
0001
0010
0001
0100
0010
1000
0100
0010
,
0001
0000
1000
0000
0000
0000
0100
0000
1001
0000
1000
0000
0000
0000
0010
0100
,
0001
0000
0010
0000
0000
0000
0001
0000
1001
0000
1000
0000
0000
0000
0010
1000
,
0010
0000
1000
0000
0000
0000
0010
0000
1001
0000
0100
0000
0000
0000
0010
0100
,
0001
0000
1000
0000
0000
0000
0100
0000
0010
0100
1000
0100
0010
0001
0100
0010
,
1010
0000
1000
0001
0100
0010
1000
0001
0010
0001
0100
0010
1000
0001
0010
0100
,
0110
0000
0100
1000
0001
0100
0010
0100
0001
1000
0100
1000
0010
0100
0001
1000
,
1001
0000
1000
0001
0010
0001
0100
0010
1000
0001
0010
0100
1000
0100
0010
0001
,
0011
0000
0001
0100
0010
0100
0010
1000
0001
1000
0100
0010
0100
1000
0001
0100
,
0110
0000
0100
0001
0100
0010
1000
0001
0010
0001
0100
0010
1000
0001
1000
0100
,
0110
0000
0001
0100
0010
1000
0001
0010
0001
0100
0010
1000
0100
0010
0001
1000
,
1100
0000
0010
0001
1000
0100
1000
0001
0100
0010
1000
0001
0010
0001
0100
0010
,
0110
0000
0100
0000
0001
0000
1000
0000
0001
0010
0100
0010
0100
1000
0100
0010
,
0001
0100
0010
1000
0100
0010
0100
0010
0001
0100
0010
1000
0100
0010
0100
0010
,
0001
0100
0010
1000
0100
0010
0100
0010
0001
0100
0010
1000
0100
0010
0100
0010
,
0001
1000
0100
1000
0010
0100
0001
0010
0001
1000
0100
1000
0010
0100
0001
0010
,
0001
1000
0100
1000
0010
0100
0001
0010
0001
1000
0100
1000
0020
0000
0030
0000
,
0100
0001
0100
0010
1000
0001
0010
0100
1000
0001
0100
0001
0010
0100
0010
0001
,
0100
0000
0010
1000
0000
0010
0100
0000
0101
0000
0100
0001
2000
0000
0000
0000
,
3100
0010
0100
1000
0001
1000
0020
0000
0000
0000
0000
0000
0130
0000
0000
0000
,
0010
0100
0001
1000
0100
0010
0002
0000
0000
0000
0000
0000
0103
0000
0000
0000
,
1010
0101
0011
1100
,
0001
1000
0001
1000
0001
1000
0001
1000
0001
1000
0001
1000
0001
0000
0000
0000
,
0100
0010
0100
0001
1000
0100
0020
0000
0000
0000
0000
0000
0130
0000
0000
0000
,
0010
0001
0100
0010
1000
0100
0020
0000
0000
0000
0000
0000
0031
0000
0000
0000
,
0011
0101
1010
1100
,
1000
0000
0000
0000
0110
0000
0000
0000
0001
0010
0100
1000
0001
0010
0100
1000
,
1001
0000
1000
0100
0010
0100
1000
0001
0100
0010
0100
0001
1000
0001
0010
0100
,
1100
0000
0100
0010
0001
0100
0010
1000
0100
1000
0001
0100
0010
1000
0100
0010
,
0011
0000
0001
0100
0010
0100
0001
1000
1001
0000
1000
0001
0100
0010
1000
0100
,
1100
0000
0100
0010
0100
1000
0001
0100
0010
1000
0010
0100
0001
1000
0001
0010
,
0110
0000
0010
0001
0100
0010
0100
0001
1000
0010
1000
0100
0010
0100
1000
0001
,
0101
0000
0001
0100
0001
1000
0100
0010
0100
1000
0001
0100
0010
1000
0010
0100
,
0101
0000
0100
0001
1000
0001
0010
0100
1000
0100
0010
0001
0100
0010
1000
0100
,
0110
0000
0100
1000
0001
0100
0001
1000
0010
0100
0001
1000
0100
0010
0100
1000
,
1001
0000
0100
0001
1000
0001
0010
0100
0010
0100
1000
0001
0100
0010
1000
0001
,
1000
0100
1000
0100
0010
0100
0010
0100
0010
0001
0010
0001
1000
0001
1000
0001
,
0100
0010
1000
0100
0010
0000
0100
1000
0010
0100
0001
0000
0010
0001
0100
0010
,
0100
0000
0010
1000
0001
0000
1000
0000
0100
0000
0010
0000
0100
0000
1000
0000
,
0001
0100
0001
1000
0100
0000
0010
0001
0100
0010
1000
0000
0100
0010
0100
1000
,
0010
0100
0001
1000
0001
0010
0001
0100
0010
1000
0100
1000
0010
0100
0001
1000
,
0100
0010
0001
0010
0100
0000
1000
0001
1000
0001
1000
0000
0001
0100
0010
0100
,
0001
0000
1000
0001
1000
0000
0010
0000
0100
0000
0001
0000
0010
0000
0100
0000
,
1000
0001
0100
0010
1000
0000
0100
0010
0100
1000
0010
0000
0100
0001
1000
0100
,
1001
0000
0000
0000
0000
0000
0000
0000
0000
1000
0001
1000
0002
0000
0000
0000
0000
0000
0000
0000
0000
0000
0000
0000
0103
0000
0000
0000
0000
0000
0010
0000
0000
1000
0000
0000
2000
0000
0000
0000
0000
0000
0100
0000
0000
0000
0000
0000
,
3001
0000
0001
0100
0001
0000
0010
0000
0100
0000
1000
0001
0100
0001
1000
0100
,
0010
0100
1000
0010
0100
0000
0100
0000
0001
1000
0000
0000
0200
0000
0010
1000
,
0300
0000
0000
0000
0000
0000
0000
0000
0000
0000
0000
0000
0000
0000
0000
0000
0000
0000
0000
0000
0000
0000
0000
0000
1000
0000
0000
0000
0000
0000
0000
0000
0000
0000
0000
0000
0001
0000
0000
0000
0000
0000
0000
0000
0000
0000
0000
0000
0100
0000
0000
0000
0000
0000
0000
0000
0000
0000
0000
0000
0000
0000
0000
0000
0000
0000
0000
0000
0000
0000
0000
0000
0020
0000
0000
0000
0000
0000
0000
0000
0000
0000
0000
0000
0000
0000
0000
0000
0000
0000
0000
0000
0000
0000
0000
0000
0000
0000
0000
0000
0000
0000
0000
0000
0000
0000
0000
0000
1000
0000
0000
0000
0000
0000
0000
0000
0000
0000
0000
0000
0000
0000
0000
0000
0000
0000
0100
0000
0000
0000
0000
0000
0000
0000
0000
0000
0000
0000
0000
0000
0000
0000
0000
0000
1030
0000
0000
0000
0000
0000
0000
0000
0100
0000
0000
0000
0000
0000
0000
0000
1000
0000
0000
0000
0000
0000
0000
0000
0001
0000
0000
0000
0000
0000
0000
0000
0100
0000
0000
0000
0000
0000
0000
0000
0010
0000
0000
0000
0000
0000
0000
0000
,
0100
0000
0001
0000
1000
0000
0001
0000
0010
0000
0100
0000
2000
0000
0000
0000
0000
0000
0000
0000
0000
0000
0000
0000
0010
0000
0000
0000
0000
0000
0001
0000
0000
0000
0000
0000
3010
0000
0000
0010
0000
0000
0100
0000
0000
0000
0000
0000
,
0001
0000
0010
0100
0100
0000
1000
0000
0010
0000
1000
0001
0001
0000
0010
0000
,
0100
1000
0001
0001
0100
0000
0010
0000
0100
0000
0001
0000
1000
1000
0100
0000
,
0000
0000
0000
0000
0010
0000
0001
0000
0001
0000
0000
0000
1000
0000
0000
0000
0100
0000
0000
0000
0000
0000
0010
0000
0010
0000
0001
1000
0001
0000
0100
0000
,
0010
0010
0010
0010
2000
0000
0000
0000
3002
0000
0000
0103
0010
0100
0001
1000
,
0200
0000
1000
0000
0320
0000
0001
0000
0230
0000
0010
0000
1300
0001
1000
0100
,
0010
0100
1000
0010
0200
0000
0000
0000
0302
0000
0000
1003
0200
0000
0000
1300
,
0001
0100
0020
0000
0130
0001
0100
0010
1000
0100
0010
0100
1000
0001
0100
0001
,
1000
0000
0010
0000
0100
0000
0001
0000
1000
0000
0100
0000
0000
0000
0010
0000
0100
0000
1000
0000
0000
0000
0001
0010
0001
0000
0100
0000
0000
0000
0010
0000
,
0100
0000
0001
0000
0000
0000
1000
0000
0100
0000
1000
0000
0000
0000
0010
0000
0100
0000
0010
0000
0000
0000
0100
0001
1000
0000
0100
0000
0000
0000
0010
0000
,
0100
0000
1000
0000
0010
0100
0010
1000
0100
0000
0010
0000
0000
0000
0001
0000
0100
0000
0001
0000
0000
0000
0100
0010
1000
0000
0100
0000
0000
0000
1000
0000
,
0001
0000
0010
0000
0000
0000
0100
0010
0001
0000
0100
0000
0000
0000
0010
0000
1000
0000
0100
0000
0000
0000
0010
0100
1000
0000
0001
0000
0000
0000
0100
0000
,
0001
1000
0100
0010
0100
1000
0001
0100
0010
0000
1000
0000
0100
0000
0010
0000
0100
0000
1000
0000
0001
0000
0100
0000
0010
0000
1000
0000
0001
0000
0010
0000
,
0001
0100
0010
1000
0001
0010
0001
0100
0010
1000
0100
0010
0001
0010
0100
1000
,
0100
0010
0100
1000
0001
0100
0010
0100
0001
0100
0010
1000
0001
0010
0001
0100
,
0010
1000
0001
0010
0001
0100
0010
1000
0100
0010
0100
1000
0010
0100
0001
0100
,
0010
1000
0001
0100
0001
1000
0001
0010
0100
1000
0010
1000
0001
0100
0010
1000
,
0001
0010
0100
0010
0100
1000
0010
0100
0001
0100
0001
1000
0100
0010
0100
1000
,
0010
0100
0001
0100
0010
1000
0001
0010
0001
0100
0010
1000
0010
0100
0010
1000
,
0001
1000
0100
0010
0001
0010
0100
1000
0010
0100
0001
0100
0010
1000
0100
0010
,
0001
0010
0100
0010
0001
1000
0100
1000
0001
1000
0100
1000
0001
1000
0100
1000
,
0001
1000
0100
1000
0001
0100
0001
1000
0001
0100
0001
1000
0001
0100
0001
1000
,
0001
0100
0001
1000
0010
0100
0001
0100
0010
0100
0001
0100
0010
0100
0001
0100
,
0010
0100
0001
0100
0001
1000
0100
0010
0100
1000
0001
1000
0100
0010
0100
1000
,
0001
1000
0100
0010
0100
1000
0001
0100
0010
0100
0001
1000
0001
0010
0100
1000
,
0010
1000
0001
0100
0010
0100
0001
1000
0100
0010
0100
1000
0010
0100
0001
1000
,
0100
0000
0011
1000
0001
0110
1000
0001
,
1100
0001
0011
0001
0100
0110
0010
1000
,
1001
0000
0000
0000
0001
0100
0010
1000
0001
0100
0010
1000
0001
1000
0001
1000
,
0001
0010
0001
0010
0100
1000
0010
1000
0001
0100
0010
1000
0100
0010
0100
1000
,
0001
0000
0101
0010
1000
1001
1000
0100
,
0110
0001
1001
0001
0100
1010
1000
0001
,
0011
0000
0000
0000
0010
0001
0100
0010
0100
0001
1000
0100
0010
0100
1000
0010
,
0100
0001
1000
0100
0020
0000
0000
0000
0001
0000
0000
0000
0130
1000
0010
0100
,
0001
1000
0100
0010
0001
0100
0001
1000
0100
0010
0100
1000
0010
0100
0001
0010
,
0001
0100
0010
0100
0001
1000
0100
0010
0100
1000
0010
0100
0010
0100
0001
0010
,
0001
0100
0010
1000
0100
0010
0001
0010
0100
1000
0010
0100
0001
0010
0001
0100
,
0010
1000
0010
0100
0001
1000
0100
0010
0100
1000
0001
0010
0100
0010
0001
0100
,
0010
0100
0010
1000
0001
0010
0001
0100
0010
1000
0100
1000
0010
0100
0001
0010
,
0001
0100
0010
1000
0001
1000
0100
1000
0010
0100
0001
1000
0001
0010
0001
0100
,
0010
1000
0001
0010
0001
0100
0010
0100
0010
1000
0010
0100
0001
1000
0100
0010
,
0100
1000
0100
0010
0001
0100
0010
0100
0001
1000
0001
0010
0001
0100
0010
1000
,
0100
0010
0100
1000
0001
0100
0010
1000
0001
0010
0001
0100
0010
1000
0100
1000
,
0010
0100
0001
1000
0100
0010
0100
1000
0010
0100
0001
1000
0001
0010
0001
0100
,
0010
1000
0100
0010
2001
0000
0000
0000
0100
0000
0000
0000
0010
0000
0000
0000
,
3001
0000
0000
0101
0000
0000
0010
0010
0010
0010
0000
0000
,
1000
1200
0001
0010
,
1300
0000
0000
0001
0000
0000
0100
0100
0100
0100
0001
1000
,
0100
0010
0100
0020
0000
0000
0100
0000
0000
1000
0000
0000
,
0031
0000
0000
0010
0000
0000
0001
0001
0001
0001
0000
0000
,
0101
0000
0000
0000
0010
0000
0010
1000
0100
0000
0100
0010
0001
0000
0001
0010
,
0100
0000
1000
0100
0010
0000
0010
0100
1000
0000
1000
0001
0100
0000
0100
0001
,
1000
0000
0100
0010
0001
0000
0100
0010
1000
0000
0001
0100
0001
0000
1000
0100
,
1000
0000
0010
0100
0001
0000
0010
0100
1000
0000
0100
1000
0010
0100
0001
0010
,
0001
0100
0010
1000
0200
0000
2300
0000
3200
0000
0320
0000
0032
0000
0203
0000
,
0320
0000
0000
0000
,
0000
0000
0230
0320
0230
0302
2003
3200
,
0320
0000
0230
0000
1300
0100
0001
0100
1000
0010
0100
0001
0010
1000
0010
0001
,
0100
0010
1000
0100
0020
0000
0230
0000
2300
0000
3020
0000
0230
0000
0302
0000
,
0023
0000
0000
0000
,
0000
0000
0032
0203
0320
0230
0302
2003
,
3200
0000
0320
0000
0031
0100
1000
0100
0010
1000
0001
0100
0001
0010
1000
0010
,
0001
1000
0100
1000
0010
0100
0001
0100
0020
0000
1000
0000
0200
0000
0000
0000
,
0330
0000
0100
0001
1000
0100
0010
0100
2000
0000
0010
0000
0002
0000
0000
0000
,
3003
0000
0000
0000
0001
0000
0010
0000
0001
0000
0100
0000
0010
0000
1000
0000
0100
0010
0100
0000
1000
0000
0010
0000
0100
0001
0100
0010
1000
0001
0010
0001
,
0100
0010
1000
0001
0010
0100
1000
0100
0110
0000
0000
0000
0000
0000
0000
0000
0111
0000
0000
0000
1110
0000
0000
0000
1011
0000
0000
0000
1101
0000
0000
0000
,
1110
1000
0111
0000
0111
1011
1110
1011
,
0111
0000
0001
0000
1000
0100
0010
0100
1000
0001
0010
0001
0100
0010
1000
0001
,
0010
0001
0100
0010
0100
0010
1000
0001
0010
0001
0100
0010
1000
0100
0010
0001
,
0010
0100
1000
0001
0100
0010
0100
0001
1000
0001
0010
0100
1000
0010
1000
0001
,
0100
0010
1000
0001
0010
0001
0100
0010
1000
0100
1000
0010
0200
0000
0000
0000
,
0000
0000
0000
0000
0301
0010
0001
0100
0010
1000
0100
0010
0001
0010
0100
1000
,
0010
0100
0001
1000
0001
0010
0001
0100
0010
1000
0100
0010
0100
1000
0010
0100
,
0001
0010
0001
0100
0010
1000
0100
1000
0001
0010
0100
1000
0010
0100
0001
1000
,
0100
0010
0001
0100
0010
1000
0100
1000
0001
0100
0010
1000
0100
0000
0000
0000
,
0011
0000
0010
0100
1000
0100
0001
0100
1000
0010
0100
0001
0010
0100
0010
0001
,
0100
0010
1000
0001
0100
1000
0100
0010
1000
0100
0001
0100
1000
0001
0010
0001
,
0100
0010
1000
0001
0010
0001
0100
1000
0100
0001
0010
0100
1000
0010
0100
0001
,
1000
0100
0010
0100
1000
0010
0100
0001
0010
0001
0100
0010
1000
0001
0010
0100
,
2000
0000
0000
0000
3001
0010
0001
0100
0010
1000
0100
0001
0100
1000
0010
0100
,
0001
0010
0001
0100
0010
1000
0001
0100
0010
0001
0010
1000
0100
0010
0100
1000
,
0010
0100
0001
0010
0001
0100
0010
1000
0100
0010
0001
1000
0100
1000
0010
0100
,
0001
0100
0010
1000
0100
0001
0100
0010
0001
0100
0010
1000
0001
0100
1000
0100
,
0001
1000
0100
0010
1001
0000
0000
0000
0000
0000
1010
0000
0101
0000
0000
0000
,
0000
0011
0110
0100
1001
0010
0110
0000
,
1000
0000
0000
0000
1100
0000
0100
0010
0100
1000
0010
0000
0100
0001
0100
0010
,
0100
0000
0010
0100
0001
0000
0010
0100
1100
0000
1000
0001
0101
0000
0010
1000
,
1010
0000
0100
0000
0001
0000
0010
0001
0100
0010
1000
0000
0100
0010
0100
1000
,
0010
0000
0100
0001
0010
0000
0100
1000
1001
0000
0001
0100
0110
0000
0100
0001
,
2002
0000
3003
0000
1100
0000
0100
0010
0001
1000
0010
0000
1000
0010
0100
0001
,
0010
0000
0100
1000
0010
0000
1000
0001
0101
0000
0010
1000
1100
0000
0100
0010
,
1001
0000
0001
0000
0100
0000
0010
1000
0100
0010
0001
0000
0010
0100
1000
0100
,
0010
0000
0001
0100
0010
1000
0100
1000
0010
0100
0001
0010
0100
1000
0010
0100
,
0001
1000
0100
0010
0011
0000
1100
0000
0000
0000
0000
0000
1001
0000
0110
0000
,
0000
0000
0101
0110
0000
0000
1001
1100
,
0000
0000
0110
1001
0202
0303
0110
1010
,
0000
0000
1100
0011
0000
0000
1001
0101
,
0000
0000
0110
1010
2200
3300
1000
0001
,
0101
0100
0010
1000
1001
0001
0010
0100
,
0110
0100
1000
0001
0202
0303
0010
1000
,
0001
1000
0100
0001
0100
1000
0010
0100
,
0010
1000
0001
0010
0200
0300
1100
0110
,
0000
0000
1001
0101
0000
0000
0110
1010
,
0000
0000
1001
0011
0220
0330
1100
1001
,
0000
0000
0101
0110
0000
0000
1010
1001
,
0000
0000
0101
1001
2200
3300
1000
0100
,
0001
0000
0100
0000
0010
0000
0001
0000
0200
0000
0000
0000
0310
0000
0010
1000
,
0100
0000
0100
0010
0001
0000
0001
0010
0100
0000
0100
1000
0010
0000
0100
0000
,
1000
0000
0100
0000
0001
0000
1000
0000
0200
0000
0000
0000
0310
0000
0010
0001
,
1000
0000
1000
0100
0010
0000
0010
0100
1000
0000
1000
0001
0100
0000
0010
0000
,
1000
0000
0100
0000
0010
0000
0001
0000
0020
0000
0000
0000
0130
0000
0100
1000
,
0010
0000
0010
0100
0001
0000
0001
0010
0100
0000
0010
0000
0010
0000
0100
0000
,
0001
0000
0100
0000
1000
0000
0010
0000
0200
0000
0000
0000
0310
1000
0001
0010
,
0001
0100
0010
1000
0100
0010
0100
1000
0010
0100
0001
0010
0200
0000
2000
0000
,
3300
0000
2000
0200
3300
0000
0020
0002
,
0033
0000
0200
0020
2000
3330
0200
0002
,
0303
0000
0020
0200
0330
0000
0200
2000
,
3300
0000
2000
0002
0020
3033
0001
0100
,
0110
0010
1000
0001
1001
1000
0100
0010
,
0011
0001
0100
0010
2002
3003
1000
0100
,
0110
0010
0100
1000
1001
0001
0100
0010
,
1000
0000
0100
0000
0010
0001
0100
0010
1000
0001
0010
0001
2000
0000
0020
0000
,
3030
0000
0200
0002
0303
0000
0020
0002
,
0033
0000
2000
0200
0002
3303
0200
0020
,
0330
0000
0002
2000
3003
0000
0020
2000
,
3030
0000
0020
0200
2000
3330
0200
0000
,
0000
0302
0000
0000
2003
0000
0000
3200
,
0000
0000
0000
0000
0310
0001
1000
0001
0100
0010
1000
0100
0020
0000
0000
0000
,
0000
0000
0000
0000
0031
1000
0100
0000
0010
0000
0100
0000
1000
0010
0100
0000
,
0001
0000
1000
0000
0100
0010
0100
0000
1000
0000
0010
0000
0100
0000
0001
0000
,
1000
0100
0010
0001
0010
0100
1000
0010
0100
0000
0001
0000
2000
0000
0000
0000
,
0000
3200
0000
0000
0320
0000
0000
0032
,
0000
0000
0000
0000
0203
0000
0000
0000
0000
0000
0310
0000
1000
0001
1000
0100
,
0010
0100
1000
0010
0100
0001
0010
0001
0100
0010
1000
0001
0010
0100
1000
0100
,
1000
0001
0010
0001
0100
0010
1000
0001
0010
0001
1000
0100
0001
0100
1000
0010
,
0100
0001
0010
0001
0100
1000
0100
0010
1000
0001
0010
0001
0100
0010
1000
0100
,
0010
0001
0010
0100
0010
0001
0100
0010
0001
0010
1000
0001
0010
0001
0100
0010
,
1000
0100
0001
0100
0010
0100
1000
0010
0100
0001
0010
0001
0100
0010
1000
0100
,
0010
0001
0010
0100
1000
0010
0100
0001
2000
0000
0000
0000
3100
0010
0100
1000
,
0001
0010
0001
0100
0010
1000
0100
1000
0001
0100
0010
0100
0001
1000
0100
1000
,
0010
0000
0000
0100
0000
0000
0001
0000
0000
1000
0000
0000
0100
0000
0000
0010
0000
0000
0001
0000
0000
0010
0000
0000
0100
0000
0000
1000
0000
0000
0010
0000
0000
0100
0000
0000
0001
0000
0000
0000
0010
0000
0000
0000
0100
0000
0000
0000
,
0010
0001
0100
0010
1000
0100
0110
0000
0000
1001
0001
0100
,
0010
1000
0100
0010
0001
1000
1001
0000
0000
0101
0100
0010
,
1000
0001
0100
0001
0010
0100
1000
0010
0100
0001
0010
0100
,
0010
0001
0100
0010
1000
0100
0010
0001
0010
0100
0010
0001
,
0100
0010
1000
0100
1000
0010
0100
0001
1000
0100
0010
0001
,
1000
0001
0100
0010
0100
0010
1000
0001
1000
0010
0100
0001
,
1000
0100
0010
0100
0010
0001
1000
0001
0100
0010
0100
0001
,
1000
0100
0010
0100
1000
0001
0100
0010
0100
0001
0010
0100
,
1000
0010
0100
0001
0100
0010
1000
0010
0100
0001
1000
0001
,
0010
0100
1000
0010
0100
0001
1000
0100
0010
0001
0100
1000
,
0100
0010
1000
0100
0010
0100
1000
0010
0100
0001
0010
1000
,
0010
0001
0100
0010
1000
0100
0010
0100
1000
0010
0001
0010
,
0100
0001
1000
0100
0010
0001
0010
0100
1000
0100
0001
0100
,
0010
0001
0100
0010
1000
0100
1000
0001
0100
0010
1000
0001
,
0010
0100
1000
0100
0010
0001
0100
0010
1000
0001
0010
0001
,
0100
0010
1000
0020
0000
0130
0001
1000
0100
0020
0000
0000
,
0001
0000
0000
1000
0000
0000
0130
0100
0100
0100
1000
0010
,
0100
0000
0000
0000
0001
0000
0000
0000
0010
0000
0000
0000
1001
0000
0000
0000
0000
0000
0000
0000
0000
0000
0000
0000
0000
0000
0000
0000
0000
0000
0000
0000
0000
0000
0000
0000
1000
0000
0000
0001
0000
0000
0011
0000
0000
0000
0000
0000
,
0000
0000
0100
1000
0010
0100
0101
0000
0000
0000
0000
0000
0001
0010
0110
0000
,
0000
0000
0010
0100
0010
0001
1001
0000
0000
0000
0000
0000
0001
1000
1010
0000
,
0000
0000
0100
0001
1000
0100
1100
0000
0000
0000
0000
0000
0001
0010
0011
0000
,
0000
0000
0010
0001
0100
0010
1000
0001
1000
0100
0010
0100
2000
0000
0000
0000
,
0100
3020
0130
0110
,
0101
0000
0000
0000
1100
0000
0000
0000
0110
0000
0000
0000
0001
1000
0100
0000
,
0000
0000
0010
0001
1000
0010
0100
0000
0000
0000
0000
0000
0010
0100
0001
0000
,
0000
0000
0010
0001
1000
0010
0100
0001
0100
0010
1000
0001
2000
0000
0000
0000
,
0010
3002
0100
1003
,
1100
0000
0000
0000
0110
0000
0000
0000
0011
0000
0000
0000
0001
0010
0100
0000
,
0000
0000
1000
0001
0100
0010
1000
0000
0000
0000
0000
0000
0010
0100
0001
0000
,
0000
0000
0010
0100
0010
0100
1000
0100
0010
0001
1000
0010
0100
0000
0100
0001
,
1000
0000
1000
0100
0010
0000
0010
0001
0100
0000
0010
1000
0100
0000
0100
0010
,
0001
0000
0001
1000
0100
0000
0100
1000
0010
0000
0100
0001
1000
0000
1000
0001
,
0010
0000
0010
0001
0100
0000
0100
0010
1000
0000
0010
0100
0001
0000
0101
0000
,
1100
0000
0000
0000
0110
0000
1001
0000
0001
0000
0100
0001
1000
0000
0100
0010
,
0001
0000
0010
0100
1000
0000
0010
0100
0001
0000
0100
0010
0100
0000
0001
1000
,
0100
0000
0010
0100
1000
0000
0100
0010
0001
0000
0100
0010
2000
0000
0000
0000
,
0100
0000
0000
0000
0100
0000
0000
0000
0100
0000
0000
0000
3100
0000
0010
0001
,
1000
0001
0100
0010
1000
0100
1000
0010
0100
0001
0010
0100
1000
0100
0001
0000
,
0100
0000
1000
0010
0100
1000
0100
0000
0001
0000
1000
0000
0100
0010
0001
0000
,
0010
0000
0100
0001
0100
1000
0010
0000
0100
0000
0010
0000
0001
0010
1000
0000
,
0001
0000
0100
0001
1000
0100
0010
0000
0001
0000
1000
0000
0100
0001
0100
0000
,
0010
0000
0001
1000
0001
0100
0010
1000
0100
1000
0010
0100
0001
0010
0100
0000
,
1000
0000
0010
0100
1000
0100
0001
0000
1000
0000
0100
0000
0001
0100
0010
0000
,
0001
0000
0100
0010
0001
0010
1000
0000
0100
0000
1000
0000
0010
0100
1000
0000
,
0100
0000
0001
1000
0100
0010
1000
0000
0010
0000
0001
0000
0100
0010
0100
0000
,
0001
0000
1000
0010
0100
0001
0010
0000
0100
1000
0010
0100
0001
1000
0001
1000
,
0010
1000
0010
1000
0010
0100
0010
0100
1000
0100
1000
0100
0001
0100
0001
0100
,
0001
0010
0001
0010
1000
0010
1000
0010
1000
0001
1000
0001
0100
0001
0100
0001
,
0100
0010
0100
0010
0100
1000
0100
1000
0010
1000
0010
1000
0001
0100
0001
0100
,
0010
0100
0010
0100
0001
1000
0001
1000
0100
0010
0100
0010
0100
1000
0010
0100
,
0001
0010
0001
0100
0010
1000
0100
0001
0100
0010
0001
0100
1000
0100
0010
1000
,
0100
0010
0100
1000
0010
0100
0001
0010
0001
0100
0010
1000
0200
0000
0000
0000
,
2000
0000
0020
0000
0002
3333
2111
0000
,
0000
0000
0000
0000
0000
0000
0000
0000
3000
0000
0000
0000
1000
0100
0010
0100
,
1000
0010
0100
0001
0010
0001
0100
0010
1000
0001
0010
0100
1000
0100
0010
0100
,
1000
0001
0100
0010
0100
0001
0010
0001
0100
0010
1000
0001
0010
0100
0010
0100
,
0010
0001
0100
0010
1000
0001
1000
0100
0010
0100
1000
0010
0100
0001
0100
0010
,
0100
0001
1000
0001
0010
0001
0100
0010
1000
0100
0010
0100
1000
0010
0100
0001
,
1000
0100
0010
0100
1000
0001
0100
0010
1000
0100
0010
0001
1000
0001
0100
0010
,
1000
0001
0100
0001
1000
0100
0010
0100
1000
0010
0100
0001
1000
0001
0100
0010
,
0000
1000
0001
0000
1001
0000
0101
0000
0110
0000
1001
0000
1100
1000
0001
0100
,
0010
1000
0001
0010
0001
0100
0010
1000
0100
0010
0100
0010
0001
1000
0001
0100
,
0010
1000
0100
1000
0001
0100
0010
1000
0100
0010
0001
1000
0010
0100
0010
1000
,
0100
0010
0100
1000
0001
0010
0001
0100
0010
1000
0100
1000
0001
0100
0010
1000
,
0001
0010
0100
1000
0100
0010
0001
0100
0010
1000
0100
1000
0001
0100
0010
1000
,
0001
0010
0001
1000
0100
1000
0010
0100
0001
0010
0100
1000
0010
0100
0001
1000
,
0100
0010
0001
0100
0010
1000
0001
1000
0100
0010
0100
1000
0001
0100
0010
0100
,
0001
1000
0010
1000
0100
0010
0001
1000
0001
1000
0100
0010
0200
0000
0000
0000
,
0000
0000
0000
0000
1300
0001
0100
0010
1000
0100
0010
0001
1000
0010
0100
0001
,
0010
0001
0100
0010
1000
0100
0010
0001
0010
0100
1000
0010
0100
0001
0010
0001
,
0100
0010
1000
0010
0100
0001
1000
0100
1000
0001
0010
0100
0010
0100
1000
0010
,
1000
0010
0100
0001
0010
0100
0010
0001
1000
0001
1000
0010
0100
0001
1000
0100
,
1000
0010
0100
0001
1000
0001
0010
0100
0010
0001
0100
0010
1000
0100
1000
0010
,
0100
0001
1000
0100
1000
0100
0010
0001
1000
0001
0100
0010
1000
0010
1000
0001
,
0010
0001
0100
0010
1000
0001
0010
0100
0010
0001
0010
0001
1000
0010
0100
0001
,
1000
0100
1000
0010
0100
0001
0100
0001
0010
0100
0010
0001
0100
0010
1000
0100
,
1000
0010
0100
0001
0010
0001
0100
0010
1000
0001
0010
0100
0010
0001
0100
0010
,
1000
0100
0010
0100
1000
0001
0100
0010
1000
0001
0100
0010
1000
0100
0001
0100
,
1000
0010
0001
0010
0100
0001
0100
1000
0100
0001
0010
0100
2002
0000
0000
0000
,
0000
0000
0000
0000
,
0000
0000
0000
0000
0000
0000
0000
0000
3003
0000
0000
0000
0100
0010
1000
0100
,
0011
0000
1100
1000
0001
0100
0010
1000
0100
0010
0001
1000
1001
0000
0000
0000
;
