#TITLE:XenomaX;
#SUBTITLE:;
#ARTIST:DM Ashura;
#TITLETRANSLIT:;
#SUBTITLETRANSLIT:;
#ARTISTTRANSLIT:;
#CREDIT:;
#BANNER:XenomaX - DM Ashura feat. Omega & Mr. T-bn.png;
#BACKGROUND:XenomaX - DM Ashura feat. Omega & Mr. T-bg.png;
#LYRICSPATH:;
#CDTITLE:;
#MUSIC:XenomaX - DM Ashura feat. Omega & Mr. T.mp3;
#OFFSET:0.000;
#SAMPLESTART:53.960;
#SAMPLELENGTH:12.000;
#SELECTABLE:YES;
#BPMS:0.000=349.999,66.500=350.000,256.500=170.001,287.500=349.999;
#STOPS:;
#BGCHANGES:;
// cache tags:
#FIRSTBEAT:27.000;
#LASTBEAT:547.000;
#SONGFILENAME:Songs/IzzySM Keyboard Mega Pack/XenomaX/xenomax.sm;
#HASMUSIC:1;
#HASBANNER:1;
#MUSICLENGTH:102.922;
// end cache tags

//---------------dance-single - ----------------
#NOTES:
     dance-single:
     :
     Hard:
     10:
     1.000,1.000,1.000,0.379,0.087,678.000,122.000,39.000,0.000,6.000:
0000
0000
0000
0000
,
0000
0000
0000
0000
,
0000
0000
0000
0000
,
0000
0000
0000
0000
,
0000
0000
0000
0000
,
0000
0000
0000
0000
,
0000
0000
0000
0000
0000
0000
0100
0010
,
0000
0000
0001
1000
0000
1000
0001
0000
,
0100
0000
0000
0110
0000
0000
1100
0000
,
0110
0011
0110
1100
,
0011
0110
1001
0110
,
1100
0000
0001
0010
0000
0010
0001
0000
,
0110
0000
0000
0110
0000
1000
0100
0010
,
0001
1000
0010
0100
1000
0001
1000
0010
,
0100
1000
0100
1000
0100
1000
0100
1000
,
0100
0000
0000
1000
0000
0000
0100
0000
0010
0000
0100
0000
0010
0000
0100
0000
0010
0000
0100
0000
0010
0000
0100
0000
,
0010
0000
0100
0000
0010
0000
0100
0000
0000
0000
0000
0000
0010
0000
0000
0100
0000
0000
0010
0000
0000
0000
0000
0000
,
0001
0010
0000
0010
0001
0000
0010
0001
,
0000
0100
0010
0000
0010
0100
0010
0000
,
0001
0010
0000
0010
0001
0000
1000
0100
,
1000
0100
1000
0000
0110
0000
0100
0010
,
0100
0000
0001
0010
0000
0010
0001
0000
,
0100
0010
0100
0000
0001
0010
0000
0010
,
0001
0000
0000
1000
0001
0000
0010
0100
,
0000
0100
0010
0000
0100
0010
0100
0000
,
1000
0100
0000
0100
1000
0000
0010
0100
,
0000
0100
0010
0000
0001
0010
0001
0000
,
1000
0100
0000
0100
1000
0000
0010
0100
,
0000
0100
0010
0000
0100
0010
0100
0000
,
1000
0100
0010
0000
0001
0010
0100
0000
,
0100
0010
0100
1000
0100
0001
1000
0010
,
0100
0000
0100
0010
0100
1000
0001
1000
,
0010
0200
0000
1000
0000
1000
0300
0010
,
1000
0000
0002
0010
0000
0010
0003
0100
,
1000
0000
1000
0010
0000
0010
0000
0002
,
0010
0000
0000
0000
0000
0000
0000
0000
0000
0000
0000
0000
0000
0000
0000
0000
0010
0000
0000
0000
0000
0000
0000
0000
0000
0003
0000
0000
0000
0000
0000
0000
0100
0000
0000
0000
0000
0000
0000
0000
0010
0000
0000
0000
0000
0000
0000
0000
0000
0000
0000
0000
0000
0000
0000
0000
0010
0000
0000
0000
0000
0000
0000
0000
,
0100
0000
0002
1000
0000
1003
0000
0100
,
0010
0000
0010
0100
0000
0001
0010
0001
,
0010
0100
0000
0100
0010
0000
0001
0010
,
0000
0010
0001
0000
1000
0100
1000
0000
,
2000
0100
0000
0100
3000
0010
0001
0000
,
0200
0010
0000
0010
0300
0001
0100
0000
,
2000
0100
0000
0100
3000
0010
1000
0000
,
0200
0010
0000
0010
0300
0001
0010
0000
,
0002
0010
0000
0010
0003
1000
0100
0000
,
0020
0100
0000
0100
0030
1000
0100
0020
,
0000
0000
0000
1030
1000
0100
1000
0100
,
0001
0100
0010
0100
1000
0001
1000
0010
,
0000
0200
0010
0000
0010
0300
0010
0001
,
2000
0100
0000
0100
3000
0100
0010
0000
,
0002
0010
0000
0010
0003
0010
1000
0000
,
0200
0010
0000
0010
0300
0001
0010
0000
,
2000
0100
0000
0100
3000
0100
0100
0000
,
2000
0100
0000
0100
3000
0010
0100
0000
,
1001
0100
0000
0010
0100
0000
0001
0010
,
0000
0010
1000
0000
0100
0010
0100
0000
,
2000
0100
0000
0100
3000
0100
0010
0000
,
0002
0010
0000
0010
0003
1000
0100
0000
,
0200
0010
0000
0010
0300
0100
0010
0000
,
2000
0100
0000
0100
3000
0001
0100
0000
,
0020
0100
0000
0100
0030
1000
0100
0000
,
0002
0010
0000
0010
0003
0010
0100
0000
,
1000
0100
0010
0100
0001
1000
0100
0010
,
0100
0001
1000
0100
0010
0100
0001
0100
,
0010
0000
0000
0110
0000
0000
0100
0000
0010
0000
0000
0000
2100
0000
0000
0000
0000
0000
0000
0000
0000
0000
0000
0000
,
3210
0000
0000
0000
0000
0000
0000
0000
0000
0000
0000
0000
0000
0000
0000
0000
0000
0000
0000
0000
0300
0000
0000
0000
0021
0000
0000
0000
0000
0000
0000
0000
0000
0000
0000
0000
0000
0000
0000
0000
0030
0000
0100
0000
0000
0010
0000
0000
,
1200
0000
0000
0321
,
1032
0000
0000
0003
2100
0000
0000
0000
,
3201
0000
0000
0000
0000
0000
0000
0000
0001
0300
0000
0200
,
0000
0000
0000
0000
0000
0000
0000
0000
0000
0000
0000
0000
0000
0000
0000
0000
0000
0000
0000
0000
2300
0000
0000
0000
0000
0000
0000
0000
0000
0000
0000
0000
0000
0000
0000
0000
0000
0000
0000
0000
0000
0000
0000
0000
0000
3210
0000
0000
,
0000
0000
0000
0000
0000
0300
0102
1000
,
1103
0110
1100
0110
0011
0110
1100
1100
,
0000
0110
0000
0011
0000
0110
0000
1100
,
0000
0011
0000
0110
0000
0110
0000
1100
,
0000
0110
0000
0011
0000
1100
0000
0110
,
0000
0001
0010
0100
0000
0110
0000
1100
,
0000
0110
0000
0011
0000
0110
0000
1001
,
0000
0110
0000
1100
0000
0110
0000
0011
,
0000
0110
0000
1100
0000
0100
0010
0100
,
0000
0110
0000
1100
0000
0011
0000
0110
,
0000
1100
0000
0011
0000
0110
0000
1100
,
0000
0110
0000
0011
0000
1100
0000
0110
,
0000
0010
0100
0010
0000
1100
0000
0110
,
0000
0011
0000
0110
0000
1100
0000
0011
,
0000
0110
0000
1001
0000
0110
0000
1100
,
0000
0011
0000
0110
0000
1000
0100
1000
,
0000
0110
0000
0011
0000
1100
0000
0110
,
0000
1001
0000
0110
0000
1100
0000
0100
,
0010
0000
0010
0100
0000
0110
0000
1000
,
0100
0000
0100
1000
0000
0110
0000
0001
,
0010
0100
0000
1000
0100
1000
0000
0010
,
0100
0010
0000
1000
0100
1000
0000
0001
,
0010
0000
0010
0001
0000
0110
0000
0100
,
0010
0000
0010
0100
0000
1001
0000
1000
,
0100
0010
0000
0001
0100
0001
0000
1000
,
0100
0001
0000
0010
0100
0010
0000
1000
,
0100
0000
0100
1000
0000
0110
0000
0100
,
1000
0000
1000
0100
0000
0110
0000
0001
,
0010
0100
0000
1000
0100
0001
0000
0010
,
0100
1000
0000
0010
0100
0010
0000
1000
,
0100
0000
0100
1000
0000
0110
0000
0100
,
0010
0000
0010
0001
0000
0110
0000
1000
,
0100
0010
0000
1000
0100
1000
0000
0010
,
1000
0100
0010
0001
1001
0000
0010
0100
,
0000
0100
0010
0000
0011
0000
1000
0100
,
0000
0100
1000
0000
0110
0000
0000
0010
,
0100
0000
0100
0010
0000
0011
0000
1000
,
0100
0000
0010
0001
0000
0110
0000
0010
,
0100
0000
0100
0010
0000
0011
0000
0010
,
0100
0000
0100
1000
0000
0110
0000
0001
,
0010
0000
0010
0001
0000
0100
0010
0000
,
0010
0100
0000
0001
0010
0001
0000
1000
,
0100
0000
0100
1000
0000
0110
0000
0001
,
0010
0000
0010
0001
0000
0110
0000
1000
,
1000
0000
1000
1000
0000
1100
0000
0010
,
0010
0000
0100
0100
0000
0011
0000
0110
,
0011
0000
1100
0110
0000
0110
0000
1001
,
0000
0110
0000
0011
0000
1001
0000
0100
,
1000
0100
0001
1000
0010
0100
0010
0001
,
1000
0000
0000
0010
0000
0000
0100
0000
0000
0001
0000
0000
0100
0000
0010
0000
0100
0000
0001
0000
1000
0000
0100
0000
,
0000
0100
0010
0000
0010
0100
0000
0001
,
0010
0000
0010
0001
0000
1000
0100
0000
,
0100
1000
0000
0010
0100
0000
0100
0010
,
0000
1000
0100
0000
0100
1000
0000
0010
,
0100
0000
0100
0010
0000
0001
0010
0000
,
0100
1000
0000
0100
0010
0000
0100
1000
,
0000
0010
0100
0000
1000
0100
0000
1000
,
0100
0000
0010
0100
0000
0001
0010
0000
,
0100
0010
0000
1000
0100
0000
0001
1000
,
0000
0010
0100
0000
0001
0010
0000
1000
,
0100
0000
0010
0001
0000
0001
0010
0000
,
0100
1000
0000
0100
0010
0000
1000
0100
,
0000
1000
0010
0000
0010
0100
0000
0001
,
0010
0200
0000
0000
0300
1000
0100
0020
,
0000
0001
0000
0031
0000
1000
0100
0010
,
0100
1001
1001
0000
1001
0110
0000
2002
,
0000
0000
0000
3003
;
