#TITLE:The Midnight Carnival;
#SUBTITLE:I-No's Boss Theme;
#ARTIST:Daisuke Ishiwatari;
#TITLETRANSLIT:;
#SUBTITLETRANSLIT:;
#ARTISTTRANSLIT:;
#CREDIT:;
#BANNER:banner.jpg;
#BACKGROUND:bg.jpg;
#LYRICSPATH:;
#CDTITLE:cdtitle.png;
#MUSIC:The midnight carnival.mp3;
#OFFSET:-7.000;
#SAMPLESTART:77.562;
#SAMPLELENGTH:12.000;
#SELECTABLE:YES;
#BPMS:0.000=155.030;
#STOPS:;
#BGCHANGES:;
// cache tags:
#FIRSTBEAT:4.000;
#LASTBEAT:455.000;
#SONGFILENAME:Songs/mongol/The midight Carnival/The midnight carnival.sm;
#HASMUSIC:1;
#HASBANNER:1;
#MUSICLENGTH:189.152;
// end cache tags

//---------------dance-single - ----------------
#NOTES:
     dance-single:
     :
     Challenge:
     13:
     1.000,1.000,1.000,0.085,1.000,1611.000,259.000,16.000,0.000,2.000:
0000
0000
0000
0000
,
0100
0010
0100
0010
0100
0010
0100
0010
0101
1010
0101
1010
0101
1010
0101
1010
,
0101
0010
0100
1000
0010
1000
0010
1000
0100
0010
0001
0010
0100
0010
0001
1000
,
0100
1000
0100
0001
1000
0100
1000
0001
0010
0100
1000
0100
0001
0100
1000
0010
,
0001
0100
0010
0001
1000
0010
0001
1000
0100
0010
0100
1000
0001
0100
0010
1000
,
0100
0001
0100
0010
1000
0100
0000
0100
0011
0000
0100
1000
0011
0000
0100
1000
,
0100
0010
0100
0001
1000
0010
0100
0001
1000
0010
0100
1000
0100
0010
1000
0100
,
0010
0100
1000
0001
0100
0010
0100
0001
0010
0001
0010
1000
0100
0001
0100
0010
,
1000
0100
0010
0001
0100
0010
1000
0100
1000
0010
0100
0010
1000
0100
0010
0100
,
0001
0010
0001
0010
0100
0010
0001
0100
0010
1000
0001
0100
0010
0001
0100
0010
,
1100
0000
1100
0000
0011
0000
0011
0000
0011
0000
1100
0000
,
2001
0000
0000
0000
0010
0000
0000
0000
0001
0000
0000
0000
3010
0000
0000
0000
0001
0000
0000
0000
0010
0000
0000
0000
0001
0000
0000
0000
0000
0000
0000
0000
0000
0010
0000
0000
0100
0000
0000
0010
0000
0000
0100
0000
0000
0010
0000
0000
,
1001
0000
0000
0000
0000
0000
0010
0000
0000
0000
0000
0000
1010
0000
0000
0100
0000
0000
1000
0000
0000
0010
0000
0000
0101
0000
0000
0000
0000
0000
0000
0000
0011
0000
0000
0000
0000
0000
0000
0000
1010
0000
0000
0000
0000
0000
0000
0000
,
0101
0010
0001
1000
0110
0001
0010
0001
0100
0010
0001
0010
1100
0010
1000
0010
,
1100
0010
0001
1000
0110
0001
0100
1000
0010
0100
1000
0100
0011
1000
0100
1000
,
0011
0000
0000
0100
0000
0000
0001
0000
0000
1000
0000
0000
0110
0000
0000
0001
0000
0000
0100
0000
0000
0010
0000
0000
0100
0000
0000
0000
0010
0000
0000
0000
0001
0000
0000
0000
0010
0000
0000
0001
0000
0000
0010
0000
0000
0001
0000
0000
,
0010
0000
0000
0100
0000
0000
0010
0000
0000
0001
0000
0000
1100
0000
0000
0001
0000
0000
0010
0000
0000
0100
0000
0000
1010
0000
0000
0000
0000
0000
0000
0000
0101
0000
0000
0000
0000
0000
0000
0000
0110
0000
0000
0000
0000
0000
0000
0000
,
0011
0100
1000
0100
0011
0100
0010
0001
0100
0010
0100
0001
1100
0010
0100
0010
,
1100
0010
0001
1000
0110
0001
0100
1000
0010
0100
1000
0100
1010
0001
0010
0100
,
0011
0000
0000
0100
0000
0000
0010
0000
0000
0001
0000
0000
0110
0000
0000
1000
0000
0000
0010
0000
0000
0001
0000
0000
0100
0000
0000
0000
0010
0000
0000
0000
0001
0000
0000
0000
0000
0000
0000
0001
0000
0000
0010
0000
0000
0001
0000
0000
,
0110
1000
0100
0010
0100
1000
0010
0001
0010
0100
1010
0000
0011
0000
1010
0100
,
0011
0100
1000
0001
0100
1000
0110
0000
0110
1000
0100
0010
1000
0010
0100
1000
,
0110
0001
0010
0100
0001
0010
0100
1000
0011
0100
1000
0100
0001
0010
0001
0010
,
1100
0001
0010
0001
0010
0100
1000
0100
0010
0001
0010
0001
0010
0100
1000
0001
,
0110
0001
1000
0001
0100
0010
0100
0001
1010
0000
0101
0000
1010
0001
0010
0001
,
1100
0010
1000
0100
1000
0100
0010
0100
0011
0100
0010
0001
0010
0100
0010
0001
,
1100
0001
0010
0100
0011
0100
0010
0001
1100
0001
0010
0100
0011
0100
0010
0001
,
1100
0010
0001
0010
1000
0100
1000
0010
0100
0010
0001
0010
0001
0100
1000
0100
,
0010
0100
1000
0100
0001
0010
1000
0100
0010
0001
0010
0001
0010
0001
0010
0001
,
0010
0000
0000
1000
0000
0000
0100
0000
0000
0010
0000
0000
1100
0000
0000
0010
0000
0000
0001
0000
0000
0010
0000
0000
1100
0000
0000
0000
0000
0000
0000
0000
1100
0000
0000
0000
0000
0000
0000
0000
0110
0000
0000
0000
0000
0000
0000
0000
,
0011
0100
1000
0100
1010
0001
0010
0001
0100
1000
0100
0001
1010
0100
1000
0010
,
0101
1000
0100
1000
0011
0100
1000
0100
0001
0010
0001
0100
0011
0100
0010
0001
,
0110
1000
0100
0010
1100
0010
1000
0100
1000
0010
0100
0010
0001
0010
0001
1000
,
0100
0000
0000
1000
0000
0000
0100
0000
0000
1000
0000
0000
0011
0000
0000
0100
0000
0000
0010
0000
0000
0001
0000
0000
1100
0000
0000
0000
0000
0000
0000
0000
0110
0000
0000
0000
0000
0000
0000
0000
0101
0000
0000
0000
0000
0000
0000
0000
,
0011
0100
0010
0001
0110
0001
0010
0100
1000
0001
0010
0001
0110
1000
0100
0010
,
0101
0010
0100
1000
0110
1000
0100
1000
0100
0010
0100
0010
1100
0010
0001
1000
,
0110
0000
0000
0001
0000
0000
0010
0000
0000
0100
0000
0000
0011
0000
0000
0100
0000
0000
0010
0000
0000
0001
0000
0000
0100
0000
0000
0000
1000
0000
0000
0000
0100
0000
0000
0000
0000
0000
0000
0100
0000
0000
1000
0000
0000
0100
0000
0000
,
1001
0010
0100
1000
0100
0010
0100
1000
0100
0010
0100
1000
0100
0010
0100
1000
,
0100
0010
0100
1000
0100
0010
0100
1000
0100
0010
0100
1000
0100
0010
0001
0010
,
0100
1000
0010
0100
0010
1000
0010
0100
0010
1000
0010
0100
0010
0001
0010
0100
,
0010
0100
1000
0100
0010
0100
1000
0100
0010
0100
1000
0100
0010
0001
0010
0100
,
1000
0100
0001
0100
1000
0100
0001
0100
1000
0100
0001
0100
1000
0100
0001
0100
,
1000
0100
0010
0100
1000
0100
0010
0001
0010
0001
0010
0100
1000
0100
0010
0001
,
1010
0100
0010
0100
1010
0100
0010
0001
1100
0001
0010
0001
1100
0001
0010
0100
,
0011
0100
1000
0100
0001
0010
0100
0001
0010
0100
0001
0010
0200
0000
0000
0000
,
2301
0000
0001
0010
3100
0001
0010
0000
0010
0001
1010
0001
1010
0001
1010
0001
,
0110
1000
0100
1000
0001
0010
0101
0000
0110
1000
0010
0100
0011
0100
0010
0100
,
1001
0010
0001
1000
0110
1000
0010
0100
0011
0100
0010
0100
0001
0010
0101
0000
,
1010
0100
0001
0010
0100
1000
0010
0100
1010
0100
0010
0101
0010
0001
1010
0000
,
1010
0000
1010
0100
0010
0100
0011
0100
0001
0100
0001
0010
1100
0010
1000
0001
,
1100
0001
1000
0001
1000
0100
0010
0001
0010
0100
0011
0000
1010
0000
1010
0001
,
0110
1000
0100
1000
0001
1000
0010
1000
0011
1000
0100
1000
0001
1000
0010
1000
,
0110
0000
0000
0000
1100
0000
0000
0000
0110
0000
0000
0000
0011
0000
0000
0000
0000
0000
1010
0000
0000
1100
0000
0000
,
1010
0100
0010
0100
0010
0100
1000
0100
0010
0000
0110
0000
0011
0000
1010
0000
,
1010
0100
0010
0001
0010
0100
1010
0000
0011
0100
0001
0010
1100
0010
0001
0010
,
1100
0010
0001
0010
0101
0010
0001
0010
1100
0010
0100
1000
0010
0100
0011
0000
,
1100
0000
0000
0010
0000
0000
0001
0000
0000
0010
0000
0000
0100
0000
0000
0001
0000
0000
1000
0000
0000
0100
0000
0000
0011
0000
0000
0000
0000
0000
0000
0000
0110
0000
0000
0000
0000
0000
0000
0000
1100
0000
0000
0000
0000
0000
0000
0000
,
1100
0000
0110
0000
0011
0100
0010
0001
0100
1000
0010
0100
0001
0010
0100
1000
,
0011
0100
0001
1000
0010
0100
0001
1000
0010
0001
1100
0000
0011
0000
1100
0000
,
1010
0100
0010
0001
0010
0100
1000
0010
0101
0010
0001
0010
0100
1000
0100
0010
,
1001
2000
3200
0320
,
0032
1000
0100
0010
0100
0000
1000
0100
1000
0000
0100
0010
0100
1000
0100
0010
,
0103
1000
0100
1000
0100
0001
0010
0001
0010
0100
1000
0100
1000
0010
0001
0010
,
0001
0100
0010
0100
0010
1000
0100
1000
0100
0001
0010
0001
0010
1000
0100
1000
,
0100
0010
0001
1000
0001
0010
0100
1000
0001
1000
0100
0010
0001
1000
0001
0010
,
1000
0100
1000
0100
1000
0010
1000
0010
1000
0010
0100
0010
0100
0001
0100
0001
,
0100
0010
0001
0010
0001
0010
0001
1000
0001
1000
0001
0010
0100
1000
0100
0010
,
0001
1000
0100
0010
0100
1000
0001
0010
0100
1000
0010
0100
0001
0010
0100
1000
,
0001
0010
0100
0010
0001
1000
0100
0010
0001
0100
0010
1000
0100
0010
0001
0100
,
0010
1000
0100
0001
0010
1000
0100
0001
0010
1000
0100
0001
0010
1000
0100
0001
,
0110
0000
1100
0000
0011
0000
0101
0000
0011
0000
1010
0000
,
0102
0000
0000
0000
1000
0000
0000
0000
0100
0000
0000
0000
1003
0000
0000
0000
0100
0000
0000
0000
1000
0000
0000
0000
0100
0000
0000
0000
0000
0000
0000
0000
0000
0010
0000
0000
0100
0000
0000
0010
0000
0000
0100
0000
0000
0010
0000
0000
,
1100
0000
0000
0000
0000
0000
0001
0000
0000
0000
0000
0000
0101
0000
0000
0010
0000
0000
0100
0000
0000
0001
0000
0000
1010
0000
0000
0000
0000
0000
0000
0000
1001
0000
0000
0000
0000
0000
0000
0000
0101
0000
0000
0000
0000
0000
0000
0000
,
1010
0001
1000
0100
0011
1000
0001
1000
0010
0001
1000
0001
0110
0001
0100
0001
,
0110
0001
1000
0100
0011
1000
0010
0100
0001
0010
0100
0010
1001
0100
0010
0100
,
1001
0000
0000
0010
0000
0000
1000
0000
0000
0100
0000
0000
0011
0000
0000
1000
0000
0000
0010
0000
0000
0001
0000
0000
0010
0000
0000
0000
0001
0000
0000
0000
1000
0000
0000
0000
0000
0000
0000
1000
0000
0000
0001
0000
0000
1000
0000
0000
,
0001
0000
0000
0010
0000
0000
0001
0000
0000
1000
0000
0000
0110
0000
0000
1000
0000
0000
0001
0000
0000
0010
0000
0000
0101
0000
0000
0000
0000
0000
0000
0000
1010
0000
0000
0000
0000
0000
0000
0000
0011
0000
0000
0000
0000
0000
0000
0000
,
1001
0010
0100
0010
1001
0010
0001
1000
0010
0001
0010
1000
0110
0001
0010
0001
,
0110
0001
1000
0100
0011
1000
0010
0100
0001
0010
0100
0010
0101
1000
0001
0010
,
1001
0000
0000
0010
0000
0000
0001
0000
0000
1000
0000
0000
0011
0000
0000
0100
0000
0000
0001
0000
0000
1000
0000
0000
0010
0000
0000
0000
0001
0000
0000
0000
1000
0000
0000
0000
0000
0000
0000
1000
0000
0000
0001
0000
0000
1000
0000
0000
,
0011
0100
1000
0001
1000
0100
1000
0001
1000
0100
1000
0001
1000
0100
1000
0001
,
1000
0100
1000
0001
1000
0100
1000
0001
1000
0100
1000
0001
1000
0100
0010
0100
,
1000
0001
0100
1000
0100
0001
0100
1000
0100
0001
0100
1000
0100
0010
0100
1000
,
0100
1000
0001
1000
0100
1000
0001
1000
0100
1000
0001
1000
0100
0010
0100
1000
,
0001
1000
0010
1000
0001
1000
0010
1000
0001
1000
0010
1000
0001
1000
0010
1000
,
0001
1000
0100
1000
0001
1000
0100
0010
0100
0010
0100
1000
0001
1000
0100
0010
,
0101
1000
0100
1000
0101
1000
0100
0010
1001
0010
0100
0010
1001
0010
0100
1000
,
0110
1000
0001
1000
0010
0100
1000
0010
0100
1000
0010
0100
2000
0000
0000
0000
,
3012
0000
0010
0100
1003
0010
0100
0000
0001
0010
0101
0010
0101
0010
0101
0010
,
1001
0010
0001
0010
0100
1000
0101
0000
1001
0010
1000
0001
1100
0001
1000
0001
,
0110
1000
0100
0010
1001
0010
1000
0001
1100
0001
1000
0001
0100
1000
0101
0000
,
1010
0001
0100
1000
0001
0010
1000
0001
1010
0001
1000
0101
1000
0100
1010
0000
,
1010
0000
1010
0001
1000
0001
1100
0001
0100
0001
0100
1000
0011
1000
0010
0100
,
0011
0100
0010
0100
0010
0001
1000
0100
1000
0001
1100
0000
1010
0000
1010
0100
,
1001
0010
0001
0010
0100
0010
1000
0010
1100
0010
0001
0010
0100
0010
1000
0010
,
1001
0000
0000
0000
0011
0000
0000
0000
1001
0000
0000
0000
1100
0000
0000
0000
0000
0000
1010
0000
0000
0011
0000
0000
,
1010
0001
1000
0001
1000
0001
0010
0001
1000
0000
1001
0000
1100
0000
1010
0000
,
1010
0001
1000
0100
1000
0001
1010
0000
1100
0001
0100
1000
0011
1000
0100
1000
,
0011
1000
0100
1000
0101
1000
0100
1000
0011
1000
0001
0010
1000
0001
1100
0000
,
0011
0000
0000
1000
0000
0000
0100
0000
0000
1000
0000
0000
0001
0000
0000
0100
0000
0000
0010
0000
0000
0001
0000
0000
1100
0000
0000
0000
0000
0000
0000
0000
1001
0000
0000
0000
0000
0000
0000
0000
0011
0000
0000
0000
0000
0000
0000
0000
,
0011
0000
1001
0000
1100
0001
1000
0100
0001
0010
1000
0001
0100
1000
0001
0010
,
1100
0001
0100
0010
1000
0001
0100
0010
1000
0100
0011
0000
1100
0000
0011
0000
,
1010
0001
1000
0100
1000
0001
0010
1000
0101
1000
0100
1000
0001
0010
0001
1000
,
0101
2000
3200
0320
,
0032
1000
0100
0010
0100
0000
1000
0100
1000
0000
0100
0010
0100
1000
0100
0010
,
0103
0010
0001
0010
0001
0100
1000
0100
1000
0001
0010
0001
0010
1000
0100
1000
,
0100
0001
1000
0001
1000
0010
0001
0010
0001
0100
1000
0100
1000
0010
0001
0010
,
0001
1000
0100
0010
0100
1000
0001
0010
0100
0010
0001
1000
0100
0010
0100
1000
,
0010
0001
0010
0001
0010
1000
0010
1000
0010
1000
0001
1000
0001
0100
0001
0100
,
0001
1000
0100
1000
0100
1000
0100
0010
0100
0010
0100
1000
0001
0010
0001
1000
,
0100
0010
0001
1000
0001
0010
0100
1000
0001
0010
1000
0001
0100
1000
0001
0010
,
1100
0000
1100
0000
0110
0000
0011
0000
0011
0000
0110
0000
,
1100
0010
0001
0010
0100
1000
0100
0010
0001
0010
0100
1000
0110
0001
0010
0100
1000
0100
0010
0000
0000
0000
0000
0000
,
1100
0000
0000
0000
0000
0000
0000
0000
0000
1100
0000
0000
0000
0000
0000
0000
0000
0000
2200
0000
0000
0000
0000
0000
0000
0000
0000
3300
0000
0000
0010
0000
0001
0000
0010
0000
0001
0000
0000
0000
0000
0000
0000
0000
0000
0000
0000
0000
;

//---------------dance-single - Copied from----------------
#NOTES:
     dance-single:
     Copied from:
     Hard:
     12:
     1.000,1.000,0.349,0.085,1.000,1597.000,66.000,16.000,0.000,3.000:
0000
0000
0000
0000
,
1000
0100
1000
0100
1000
0100
1000
0100
0001
0010
0001
0010
0001
0010
0001
0010
,
0001
0010
0100
1000
0010
1000
0010
1000
0100
0010
0001
0010
0100
0010
0001
1000
,
0100
1000
0100
0001
1000
0100
1000
0001
0010
0100
1000
0100
0001
0100
1000
0010
,
0001
0100
0010
0001
1000
0010
0001
1000
0100
0010
0100
1000
0001
0100
0010
1000
,
0100
0001
0100
0010
1000
0100
0000
0100
0010
0000
0100
1000
0010
0000
0100
1000
,
0100
0010
0100
0001
1000
0010
0100
0001
1000
0010
0100
1000
0100
0010
1000
0100
,
0010
0100
1000
0001
0100
0010
0100
0001
0010
0001
0010
1000
0100
0001
0100
0010
,
1000
0100
0010
0001
0100
0010
1000
0100
1000
0010
0100
0010
1000
0100
0010
0100
,
0001
0010
0001
0010
0100
0010
0001
0100
0010
1000
0001
0100
0010
0001
0100
0010
,
1100
0000
1100
0000
0011
0000
0011
0000
0011
0000
1100
0000
,
2001
0000
0000
0000
0010
0000
0000
0000
0001
0000
0000
0000
3010
0000
0000
0000
0001
0000
0000
0000
0010
0000
0000
0000
0001
0000
0000
0000
0000
0000
0000
0000
0000
0010
0000
0000
0100
0000
0000
0010
0000
0000
0100
0000
0000
0010
0000
0000
,
1001
0000
0000
0000
0000
0000
0010
0000
0000
0000
0000
0000
1000
0000
0000
0100
0000
0000
1000
0000
0000
0010
0000
0000
0001
0000
0000
0000
0000
0000
0000
0000
0011
0000
0000
0000
0000
0000
0000
0000
1010
0000
0000
0000
0000
0000
0000
0000
,
0100
0010
0001
0100
0010
0001
0010
0001
0100
0010
0001
0010
0100
0010
1000
0010
,
0100
0010
0001
1000
0010
0001
0100
1000
0010
0100
1000
0100
0010
1000
0100
1000
,
0010
0000
0000
0100
0000
0000
0001
0000
0000
1000
0000
0000
0100
0000
0000
0010
0000
0000
0100
0000
0000
0010
0000
0000
0100
0000
0000
0000
0010
0000
0000
0000
0001
0000
0000
0000
0010
0000
0000
0001
0000
0000
0010
0000
0000
0001
0000
0000
,
0010
0000
0000
0100
0000
0000
0010
0000
0000
0001
0000
0000
0100
0000
0000
0001
0000
0000
0010
0000
0000
0100
0000
0000
0010
0000
0000
0000
0000
0000
0000
0000
0101
0000
0000
0000
0000
0000
0000
0000
0110
0000
0000
0000
0000
0000
0000
0000
,
0010
0100
1000
0100
0010
0100
0010
0001
0100
0010
0100
0001
0100
0010
0100
0010
,
1000
0010
0001
1000
0100
0001
0100
1000
0010
0100
1000
0100
0010
0001
0010
0100
,
0010
0000
0000
0100
0000
0000
0010
0000
0000
0001
0000
0000
0100
0000
0000
1000
0000
0000
0010
0000
0000
0001
0000
0000
0100
0000
0000
0000
0010
0000
0000
0000
0001
0000
0000
0000
0000
0000
0000
0001
0000
0000
0010
0000
0000
0001
0000
0000
,
0100
1000
0100
0010
0100
1000
0010
0001
0010
0100
1000
0000
0010
0000
1000
0100
,
0010
0100
1000
0001
0100
1000
0100
0000
0100
1000
0100
0010
1000
0010
0100
1000
,
0100
0001
0010
0100
0001
0010
0100
1000
0001
0100
1000
0100
0001
0010
0001
0010
,
0100
0001
0010
0001
0010
0100
1000
0100
0010
0001
0010
0001
0010
0100
1000
0001
,
0010
0001
1000
0001
0100
0010
0100
0001
0010
0000
0001
0000
0010
0001
0010
0001
,
0100
0010
1000
0100
1000
0100
0010
0100
0010
0100
0010
0001
0010
0100
0010
0001
,
0100
0001
0010
0100
0010
0100
0010
0001
0100
0001
0010
0100
0010
0100
0010
0001
,
0100
0010
0001
0010
1000
0100
1000
0010
0100
0010
0001
0010
0001
0100
1000
0100
,
0010
0100
1000
0100
0001
0010
1000
0100
0010
0001
0010
0001
0010
0001
0010
0001
,
0010
0000
0000
1000
0000
0000
0100
0000
0000
0010
0000
0000
0100
0000
0000
0010
0000
0000
0001
0000
0000
0010
0000
0000
1100
0000
0000
0000
0000
0000
0000
0000
1100
0000
0000
0000
0000
0000
0000
0000
0110
0000
0000
0000
0000
0000
0000
0000
,
0011
0100
1000
0100
0010
0001
0010
0001
0100
1000
0100
0001
0010
0100
1000
0010
,
0100
1000
0100
1000
0010
0100
1000
0100
0001
0010
0001
0100
0010
0100
0010
0001
,
0010
1000
0100
0010
0100
0010
1000
0100
1000
0010
0100
0010
0001
0010
0001
1000
,
0100
0000
0000
1000
0000
0000
0100
0000
0000
1000
0000
0000
0010
0000
0000
0100
0000
0000
0010
0000
0000
0001
0000
0000
1100
0000
0000
0000
0000
0000
0000
0000
0110
0000
0000
0000
0000
0000
0000
0000
0101
0000
0000
0000
0000
0000
0000
0000
,
0011
0100
0010
0001
0010
0001
0010
0100
1000
0001
0010
0001
0100
1000
0100
0010
,
0001
0010
0100
1000
0100
1000
0100
1000
0100
0010
0100
0010
0100
0010
0001
1000
,
0010
0000
0000
0001
0000
0000
0010
0000
0000
0100
0000
0000
0010
0000
0000
0100
0000
0000
0010
0000
0000
0001
0000
0000
0100
0000
0000
0000
1000
0000
0000
0000
0100
0000
0000
0000
0000
0000
0000
0100
0000
0000
1000
0000
0000
0100
0000
0000
,
0001
0010
0100
1000
0100
0010
0100
1000
0100
0010
0100
1000
0100
0010
0100
1000
,
0100
0010
0100
1000
0100
0010
0100
1000
0100
0010
0100
1000
0100
0010
0001
0010
,
0100
1000
0010
0100
0010
1000
0010
0100
0010
1000
0010
0100
0010
0001
0010
0100
,
0010
0100
1000
0100
0010
0100
1000
0100
0010
0100
1000
0100
0010
0001
0010
0100
,
1000
0100
0001
0100
1000
0100
0001
0100
1000
0100
0001
0100
1000
0100
0001
0100
,
1000
0100
0010
0100
1000
0100
0010
0001
0010
0001
0010
0100
1000
0100
0010
0001
,
0010
0100
0010
0100
0010
0100
0010
0001
0100
0001
0010
0001
0100
0001
0010
0100
,
0010
0100
1000
0100
0001
0010
0100
0001
0010
0100
0001
0010
0200
0000
0000
0000
,
2301
0000
0001
0010
3100
0001
0010
0000
0010
0001
0010
0001
0010
0001
0010
0001
,
0100
1000
0100
1000
0001
0010
0101
0000
0100
1000
0010
0100
0010
0100
0010
0100
,
0001
0010
0001
1000
0100
1000
0010
0100
0010
0100
0010
0100
0001
0010
0100
0000
,
0010
0100
0001
0010
0100
1000
0010
0100
1000
0100
0010
0100
0010
0001
0010
0000
,
0010
0000
0010
0100
0010
0100
0010
0100
0001
0100
0001
0010
0100
0010
0100
0001
,
1000
0001
0100
0001
1000
0100
0010
0001
0010
0100
0010
0000
1000
0000
0010
0001
,
0100
1000
0100
1000
0001
1000
0010
1000
0010
1000
0100
1000
0001
1000
0010
1000
,
0110
0000
0000
0000
1100
0000
0000
0000
0110
0000
0000
0000
0011
0000
0000
0000
0000
0000
0010
0000
0000
0100
0000
0000
,
0010
0100
0010
0100
0010
0100
1000
0100
0010
0000
0010
0000
0010
0000
1000
0000
,
1000
0100
0010
0001
0010
0100
1000
0000
0010
0100
0001
0010
0100
0010
0001
0010
,
0100
0010
0001
0010
0100
0010
0001
0010
0100
0010
0100
1000
0010
0100
0011
0000
,
0100
0000
0000
0010
0000
0000
0001
0000
0000
0010
0000
0000
0100
0000
0000
0001
0000
0000
1000
0000
0000
0100
0000
0000
0010
0000
0000
0000
0000
0000
0000
0000
0110
0000
0000
0000
0000
0000
0000
0000
1100
0000
0000
0000
0000
0000
0000
0000
,
1100
0000
0110
0000
0011
0100
0010
0001
0100
1000
0010
0100
0001
0010
0100
1000
,
0010
0100
0001
1000
0010
0100
0001
1000
0010
0001
0100
0000
0001
0000
0100
0000
,
1000
0100
0010
0001
0010
0100
1000
0010
0100
0010
0001
0010
0100
1000
0100
0010
,
0001
2000
3200
0320
,
0032
1000
0100
0010
0100
0000
1000
0100
1000
0000
0100
0010
0100
1000
0100
0010
,
0103
1000
0100
1000
0100
0001
0010
0001
0010
0100
1000
0100
1000
0010
0001
0010
,
0001
0100
0010
0100
0010
1000
0100
1000
0100
0001
0010
0001
0010
1000
0100
1000
,
0100
0010
0001
1000
0001
0010
0100
1000
0001
1000
0100
0010
0001
1000
0001
0010
,
1000
0100
1000
0100
1000
0010
1000
0010
1000
0010
0100
0010
0100
0001
0100
0001
,
0100
0010
0001
0010
0001
0010
0001
1000
0001
1000
0001
0010
0100
1000
0100
0010
,
0001
1000
0100
0010
0100
1000
0001
0010
0100
1000
0010
0100
0001
0010
0100
1000
,
0001
0010
0100
0010
0001
1000
0100
0010
0001
0100
0010
1000
0100
0010
0001
0100
,
0010
1000
0100
0001
0010
1000
0100
0001
0010
1000
0100
0001
0010
1000
0100
0001
,
0110
0000
1100
0000
0011
0000
0101
0000
0011
0000
1010
0000
,
0102
0000
0000
0000
1000
0000
0000
0000
0100
0000
0000
0000
1003
0000
0000
0000
0100
0000
0000
0000
1000
0000
0000
0000
0100
0000
0000
0000
0000
0000
0000
0000
0000
0010
0000
0000
0100
0000
0000
0010
0000
0000
0100
0000
0000
0010
0000
0000
,
0100
0000
0000
0000
0000
0000
0001
0000
0000
0000
0000
0000
0001
0000
0000
0010
0000
0000
0100
0000
0000
0001
0000
0000
1000
0000
0000
0000
0000
0000
0000
0000
1001
0000
0000
0000
0000
0000
0000
0000
0101
0000
0000
0000
0000
0000
0000
0000
,
0010
0001
1000
0100
0010
1000
0001
1000
0010
0001
1000
0001
0100
0001
0100
0001
,
0010
0001
1000
0100
0010
1000
0010
0100
0001
0010
0100
0010
1000
0100
0010
0100
,
1000
0000
0000
0010
0000
0000
1000
0000
0000
0100
0000
0000
0001
0000
0000
1000
0000
0000
0010
0000
0000
0001
0000
0000
0010
0000
0000
0000
0001
0000
0000
0000
1000
0000
0000
0000
0000
0000
0000
1000
0000
0000
0001
0000
0000
1000
0000
0000
,
0001
0000
0000
0010
0000
0000
0001
0000
0000
1000
0000
0000
0100
0000
0000
1000
0000
0000
0001
0000
0000
0010
0000
0000
0100
0000
0000
0000
0000
0000
0000
0000
1010
0000
0000
0000
0000
0000
0000
0000
0011
0000
0000
0000
0000
0000
0000
0000
,
0001
0010
0100
0010
1000
0010
0001
1000
0010
0001
0010
1000
0100
0001
0010
0001
,
0100
0001
1000
0100
0010
1000
0010
0100
0001
0010
0100
0010
0100
1000
0001
0010
,
0001
0000
0000
0010
0000
0000
0001
0000
0000
1000
0000
0000
0001
0000
0000
0100
0000
0000
0001
0000
0000
1000
0000
0000
0010
0000
0000
0000
0001
0000
0000
0000
1000
0000
0000
0000
0000
0000
0000
1000
0000
0000
0001
0000
0000
1000
0000
0000
,
0010
0100
1000
0001
1000
0100
1000
0001
1000
0100
1000
0001
1000
0100
1000
0001
,
1000
0100
1000
0001
1000
0100
1000
0001
1000
0100
1000
0001
1000
0100
0010
0100
,
1000
0001
0100
1000
0100
0001
0100
1000
0100
0001
0100
1000
0100
0010
0100
1000
,
0100
1000
0001
1000
0100
1000
0001
1000
0100
1000
0001
1000
0100
0010
0100
1000
,
0001
1000
0010
1000
0001
1000
0010
1000
0001
1000
0010
1000
0001
1000
0010
1000
,
0001
1000
0100
1000
0001
1000
0100
0010
0100
0010
0100
1000
0001
1000
0100
0010
,
0100
1000
0100
1000
0100
1000
0100
0010
0001
0010
0100
0010
0001
0010
0100
1000
,
0100
1000
0001
1000
0010
0100
1000
0010
0100
1000
0010
0100
2000
0000
0000
0000
,
3012
0000
0010
0100
1003
0010
0100
0000
0001
0010
0100
0010
0100
0010
0100
0010
,
0001
0010
0001
0010
0100
1000
0101
0000
1000
0010
1000
0001
0100
0001
1000
0001
,
0010
1000
0100
0010
1000
0010
1000
0001
0100
0001
1000
0001
0100
1000
0101
0000
,
1000
0001
0100
1000
0001
0010
1000
0001
1010
0001
1000
0101
1000
0100
1000
0000
,
0010
0000
1000
0001
1000
0001
0100
0001
0100
0001
0100
1000
0001
1000
0010
0100
,
0010
0100
0010
0100
0010
0001
1000
0100
1000
0001
0100
0000
1000
0000
0010
0100
,
1001
0010
0001
0010
0100
0010
1000
0010
0100
0010
0001
0010
0100
0010
1000
0010
,
1000
0000
0000
0000
0000
0000
0000
0000
0011
0000
0000
0000
0000
0000
0000
0000
1001
0000
0000
0000
0000
0000
0000
0000
1100
0000
0000
0001
0000
0000
0010
0000
0000
0100
0000
0000
1000
0000
0000
0000
0000
0000
0010
0000
0000
0000
0000
0000
,
0100
0001
1000
0001
1000
0001
0010
0001
1000
0000
0001
0000
0100
0000
0010
0000
,
0010
0001
1000
0100
1000
0001
0010
0000
0100
0001
0100
1000
0001
1000
0100
1000
,
0001
1000
0100
1000
0100
1000
0100
1000
0010
1000
0001
0010
1000
0001
0100
0000
,
0001
0000
0000
1000
0000
0000
0100
0000
0000
1000
0000
0000
0001
0000
0000
0100
0000
0000
0010
0000
0000
0001
0000
0000
1000
0000
0000
0000
0000
0000
0000
0000
1001
0000
0000
0000
0000
0000
0000
0000
0011
0000
0000
0000
0000
0000
0000
0000
,
0011
0000
1000
0000
0100
0001
1000
0100
0001
0010
1000
0001
0100
1000
0001
0010
,
0100
0001
0100
0010
1000
0001
0100
0010
1000
0100
0010
0000
1000
0000
0001
0000
,
0010
0001
1000
0100
1000
0001
0010
1000
0001
1000
0100
1000
0001
0010
0001
1000
,
0100
2000
3200
0320
,
0032
1000
0100
0010
0100
0000
1000
0100
1000
0000
0100
0010
0100
1000
0100
0010
,
0103
0010
0001
0010
0001
0100
1000
0100
1000
0001
0010
0001
0010
1000
0100
1000
,
0100
0001
1000
0001
1000
0010
0001
0010
0001
0100
1000
0100
1000
0010
0001
0010
,
0001
1000
0100
0010
0100
1000
0001
0010
0100
0010
0001
1000
0100
0010
0100
1000
,
0010
0001
0010
0001
0010
1000
0010
1000
0010
1000
0001
1000
0001
0100
0001
0100
,
0001
1000
0100
1000
0100
1000
0100
0010
0100
0010
0100
1000
0001
0010
0001
1000
,
0100
0010
0001
1000
0001
0010
0100
1000
0001
0010
1000
0001
0100
1000
0001
0010
,
1100
0000
1100
0000
0110
0000
0011
0000
0011
0000
0110
0000
,
1100
0000
0110
0000
,
1100
0000
0000
0000
0000
0000
0000
0000
0000
1100
0000
0000
0000
0000
0000
0000
0000
0000
2200
0000
0000
0000
0000
0000
0000
0000
0000
0000
0000
0000
3310
0000
0001
0000
0010
0000
0001
0000
0000
0000
0000
0000
0000
0000
0000
0000
0000
0000
;

//---------------dance-single - ----------------
#NOTES:
     dance-single:
     :
     Medium:
     9:
     0.743,0.722,0.259,1.000,0.108,725.000,49.000,210.000,0.000,4.000:
0000
0000
0000
0000
,
2200
3300
2200
3300
0022
0033
0022
0033
,
0010
1000
0010
0001
0100
0010
0100
1000
,
0100
0010
1000
0100
0010
0100
0001
0010
,
0001
0100
1000
0001
0100
0010
0001
1000
,
0100
0010
1000
0001
0010
0100
0010
0001
,
0100
0010
1000
0010
1000
0001
0100
1000
,
0010
1000
0100
0001
0010
0001
0100
0010
,
1000
0010
0100
0010
1000
0010
1000
0100
,
0001
0010
0100
1000
0010
0001
0010
0000
,
1100
0000
0110
0000
0101
0000
0011
0000
0110
0000
1010
0000
,
0202
0000
0303
0000
2020
0000
0000
3030
,
2002
0000
0000
3003
0000
0000
1100
0000
0000
0100
0000
0000
0011
0000
0000
0000
0110
0000
0000
0000
1001
0000
0000
0000
,
0110
0000
1010
0000
0001
1000
0100
1000
,
0200
1000
0320
1000
0030
1000
0010
1000
,
0020
1000
0230
1000
0300
1000
0100
1000
,
0011
0000
0000
0110
0000
0000
1010
0000
0110
0000
1001
0000
,
0011
1000
0020
1000
0000
1030
0200
0010
,
2300
0100
3200
0010
0300
1000
0020
1030
,
0020
1030
0200
1000
1000
0300
1000
1000
,
0200
0010
0000
0010
0300
0101
1010
0101
,
1010
0000
0000
0022
2233
0000
3300
1000
,
0200
1000
0000
1000
0302
1000
0000
1000
,
0203
1000
0000
1000
0300
1000
0000
1000
,
0002
1000
0000
0100
0013
0100
1000
0001
,
0020
0001
0000
0031
0200
0001
0000
0001
,
0301
1000
0010
0100
0100
0001
0010
1000
,
0200
0010
0000
0001
0000
0010
0000
0001
,
0000
0010
0000
0001
0000
0010
0001
0001
,
0320
0000
0000
0031
0000
0000
0200
0000
0000
0310
0000
0000
1000
0000
0000
0000
0100
0000
0000
0000
0010
0000
0000
0000
,
0001
0100
0010
1000
0000
0001
0010
1000
,
0100
0001
0020
0100
0030
0001
0020
0130
,
0020
0031
0200
1000
0000
0310
0000
1000
,
0200
0000
0000
0301
0000
0000
0020
0000
0000
0130
0000
0000
0002
0000
0000
1003
0010
0000
0000
0000
0100
0000
0000
0000
,
2000
3001
0020
0001
0000
1030
0200
0310
,
0002
0013
2000
0100
3000
0010
0200
0310
,
0020
0031
0020
1030
0200
0301
0000
0000
,
2002
0000
0000
0000
3003
0020
0230
0320
,
0230
0000
0000
0302
0023
1030
0000
1000
,
0200
0001
0000
0010
0302
1000
0000
0010
,
0023
0100
0000
0001
0030
1000
0000
0001
,
2000
0000
0000
0100
0000
0000
3000
0000
0000
0010
0000
0000
2000
0000
0000
3000
0001
0000
0000
0000
0010
0000
0000
0000
,
0002
0100
0000
0010
0000
1000
0003
0010
,
2000
3100
0020
0031
0200
1300
0200
0301
,
0020
1000
0000
0100
0000
0001
2030
0100
,
3200
0001
0000
1000
0300
0020
0032
0023
,
0230
0300
0000
1002
0203
1300
0020
0130
,
0002
1003
0200
0310
0020
0031
0000
0102
,
0023
1030
0000
0010
2000
3200
0320
0230
,
0320
0031
0000
0020
0000
1030
0200
0301
,
2000
3001
0000
0100
0000
0200
2300
3020
,
0230
0001
0000
1300
0002
0010
0000
1003
,
0100
0000
0000
0000
0010
0000
0000
0000
1000
0000
0000
0000
0001
0000
0000
0100
0000
0000
0010
0000
0000
0100
0000
0000
,
0020
1000
0000
1030
0000
0200
0320
0230
,
2300
3010
0000
0201
0320
1030
0100
0001
,
0200
0310
0002
1003
0200
0010
0300
0001
,
0200
0000
0000
0010
0000
0000
0000
0000
0000
1300
0000
0000
0200
0000
0300
0000
0002
0000
0003
0000
0020
0000
0030
0000
,
2000
0000
3000
0100
0000
0000
0020
0000
0000
0100
0000
0000
0000
0000
0000
0100
0000
0000
0030
0000
0000
0001
0000
0000
,
0200
0001
0000
0310
0000
1020
0032
1023
,
2030
0010
3000
0010
0200
1000
0000
0310
,
0002
1000
0000
0100
0000
0010
0000
0100
,
0000
1000
0000
0010
0000
0100
0000
1000
,
0103
0010
0100
0001
0010
1000
1000
0010
,
0001
0100
0010
0010
0100
1000
0010
0001
,
0100
1000
0001
0010
0100
1000
0001
0010
,
1000
0100
0010
0001
1000
0100
0100
0001
,
0100
0010
0001
0100
0001
0010
0100
1000
,
0001
0010
0100
0001
0100
1000
0001
0010
,
0001
0010
0001
0100
0001
0010
0100
0001
,
0010
1000
0010
0100
0010
0001
0010
0100
,
1000
0000
0100
0000
0010
0000
0001
0000
0010
0000
1000
0000
,
0020
0100
0000
0001
0230
1000
0000
0010
,
2300
0000
0000
3100
0000
0000
0002
0000
0000
0013
0000
0000
2000
0000
0000
3000
0100
0000
0000
0000
0001
0000
0000
0000
,
0020
0130
2000
3100
0000
0010
0200
1300
,
0020
0130
0020
0100
0030
0001
2000
3100
,
2000
3001
0020
0100
0000
1000
0000
0001
,
0230
0000
0000
0310
0000
0000
0200
0000
0000
1300
0000
0000
0200
0000
0000
0310
1000
0000
0000
0000
0100
0000
0000
0000
,
0002
0010
2003
0100
3000
0001
2000
0100
,
3200
0010
0320
0001
0030
0100
0200
1000
,
0320
0100
0032
0010
0003
1000
0000
0001
,
0020
0100
0000
0001
0030
0200
2300
3200
,
2300
3100
0000
0001
0002
0100
0003
0010
,
2000
0100
0000
3001
0020
0100
0000
0031
,
0200
1000
0000
0010
0300
1000
0000
0001
,
0200
0000
0000
1000
0000
0000
0000
0000
0000
0001
0000
0000
0320
0000
0030
0000
0020
0000
0030
0000
0200
0000
0300
0000
,
0002
1000
0000
0100
0000
0010
0000
0100
,
0023
0130
0200
0310
2000
3100
0200
0310
,
2000
0100
0000
0100
0000
0100
0020
0000
,
0230
0000
0000
0000
3300
0020
0230
0321
,
2030
3000
0010
0200
2300
3001
0200
0310
,
0020
0130
0002
0013
0020
0100
0030
0200
,
0320
0000
0000
1000
0000
0000
0030
0000
0000
0000
0000
0000
1010
0000
0000
0000
1000
0000
0000
0000
0100
0000
0000
0000
,
0010
0201
0300
0201
0300
0000
0001
1000
,
0020
1030
0000
0100
0000
0200
2300
3200
,
0302
0010
0000
1003
0020
0100
0000
0031
,
1000
0000
0000
0000
0100
0000
0000
0000
0010
0000
0000
0000
0200
0000
0000
0300
0000
0000
2000
0000
0000
3020
0000
0000
,
0230
0301
0000
0100
0000
0020
0230
2300
,
3020
0130
0000
0020
0230
0301
0002
0013
,
2000
3010
0200
0310
0020
0031
0000
1200
,
0302
0000
0000
0013
0000
0000
0000
0000
0000
0010
0000
0000
1000
0000
0000
0000
0100
0000
0000
0000
1000
0000
0000
0000
,
0010
1000
0020
1000
0000
0001
0000
1000
,
0230
0010
0000
1000
0300
0010
1000
0001
,
0200
1000
0000
0010
0302
0100
0000
1000
,
0023
0100
0000
0001
0000
0100
0000
1000
,
0030
0001
0100
0010
1000
0100
0010
1000
,
0100
0001
0010
0100
1000
0010
0100
0010
,
0100
0001
0010
0100
0010
0100
1000
0001
,
1000
0010
0001
0010
0100
1000
0100
0001
,
0010
1000
0010
0100
0010
1000
0001
0100
,
0001
0010
0100
1000
0100
0010
0001
1000
,
0100
0010
0001
1000
0001
0010
0100
0001
,
1100
0000
0010
0000
0100
0000
0011
0000
0100
0000
0010
0000
,
1100
0000
0010
0000
0001
0000
0110
0000
0000
0000
0000
0000
,
1100
0000
0000
1100
0000
0000
1100
0000
0000
0000
0000
0000
0001
0000
0000
0000
;

//---------------dance-single - Copied from----------------
#NOTES:
     dance-single:
     Copied from:
     Easy:
     6:
     0.347,0.421,0.063,0.344,0.108,383.000,12.000,65.000,0.000,1.000:
0000
0000
0000
0000
,
1000
1000
0001
0001
,
0001
0010
0100
0100
,
0100
1000
0010
0001
,
0001
1000
0100
0001
,
0100
1000
0010
0010
,
0100
1000
1000
0100
,
0010
0100
0010
0100
,
1000
0100
1000
1000
,
0001
0100
0010
0010
,
1000
0000
0100
0000
0010
0000
0001
0000
0010
0000
0100
0000
,
1000
0000
1010
0000
,
1001
0000
0000
1000
0000
0000
0001
0000
0010
0000
1000
0000
,
0100
0010
0000
0100
,
0200
0320
0030
0010
,
0020
0230
0300
0000
,
0011
0000
0000
0100
0000
0000
0010
0000
0100
0000
0001
0000
,
0010
0010
0000
0100
,
1000
0100
0000
0010
,
0010
0100
0000
0000
,
0200
0000
0000
0000
0300
0001
0010
0001
,
0010
0000
0000
0010
0100
0000
0000
0000
,
0200
0000
0302
0000
,
0203
0000
0300
0000
,
0002
0000
0000
0100
0013
0100
1000
0000
,
0020
0000
0000
0030
0200
0000
0000
0000
,
0301
0010
0100
0010
,
0200
0000
0000
0000
,
0000
0000
0000
0000
,
0300
0000
0000
0100
0000
0000
1000
0000
0100
0000
0010
0000
,
0001
0010
0000
0010
,
0100
0010
0000
0010
,
0010
0100
0000
0000
,
0100
0000
0000
0010
0000
0000
0001
0000
0010
0000
0100
0000
,
1000
0010
0000
0100
,
0001
1000
0000
0100
,
0010
0010
0100
0000
,
1001
0000
0000
0000
0000
0010
0100
0010
,
0200
0000
0000
0301
0010
0000
0000
0000
,
0200
0000
0302
0000
,
0023
0000
0030
0000
,
1000
0000
0000
0000
0000
0000
1000
0000
0001
0000
0010
0000
,
0002
0000
0000
0003
,
0010
0010
0100
0100
,
0020
0000
0000
2030
,
3200
0000
0000
0000
0300
0010
0001
0010
,
0100
0000
0000
0001
0100
0000
0010
0000
,
0001
0000
0100
0000
0010
0000
0000
0001
,
0010
0000
0000
0000
1000
0100
0010
0100
,
0010
0000
0000
0020
0000
0030
0100
0000
,
1000
0000
0000
0000
0000
0100
1000
0010
,
0200
0000
0000
0300
0002
0000
0000
0003
,
0100
0000
0000
0000
0010
0000
0000
0000
1000
0000
0000
0000
0001
0000
0000
0000
0000
0000
0010
0000
0000
0100
0000
0000
,
0020
0000
0000
0030
0000
0100
0010
0100
,
1000
0000
0000
0100
0010
0000
0100
0000
,
0100
0000
0001
0000
0200
0000
0300
0001
,
0200
0000
0000
0000
0000
0000
0000
0000
0000
0300
0000
0000
0010
0000
0000
0000
0001
0000
0000
0000
0010
0000
0000
0000
,
1000
0100
0020
0000
0000
0000
0030
0000
,
0200
0000
0000
0300
0000
0010
0001
0010
,
2000
0000
3000
0000
0200
0000
0000
0300
,
0002
0000
0000
0000
,
0000
0000
0000
0000
,
0103
0100
0010
1000
,
0001
0010
0100
0010
,
0100
0001
0100
0001
,
1000
0010
1000
0100
,
0100
0001
0001
0100
,
0001
0100
0100
0001
,
0001
0001
0001
0100
,
0010
0010
0010
0010
,
1000
0000
0100
0000
0010
0000
0001
0000
0010
0000
1000
0000
,
0020
0000
0230
0000
,
1300
0000
0000
0001
0000
0000
1000
0000
0100
0000
0001
0000
,
0010
1000
0000
0100
,
0010
0020
0030
1000
,
1000
0020
0000
0000
,
0031
0000
0000
0100
0000
0000
0100
0000
1000
0000
0100
0000
,
0002
2003
3000
2000
,
3200
0320
0030
0200
,
0320
0032
0003
0000
,
0020
0000
0000
0000
0030
0100
1000
0100
,
1000
0000
0000
0001
0002
0000
0003
0000
,
2000
0000
0000
3000
0020
0000
0000
0030
,
0200
0000
0300
0000
,
0200
0000
0000
0000
0000
0000
0310
0000
0010
0000
0100
0000
,
0002
0000
0000
0000
,
0013
0100
1000
0100
,
2000
0000
0000
0020
,
0230
0000
0000
0000
3300
0010
0100
0010
,
1000
0000
0000
0100
1000
0000
0100
0000
,
0010
0000
0001
0000
0020
0000
0030
0100
,
0020
0000
0000
0030
0000
0000
1010
0000
1000
0000
0100
0000
,
0010
0200
0300
0200
0300
0000
0001
0000
,
0020
0030
0000
0000
0000
0100
1000
0100
,
0002
0000
0000
0003
0020
0000
0000
0030
,
1000
0000
0000
0000
0100
0000
0000
0000
0010
0000
0000
0000
0100
0000
0000
0000
0000
0000
1000
0000
0000
0010
0000
0000
,
0100
0000
0000
0000
0000
0010
0100
1000
,
0010
0000
0000
0010
0100
0000
0001
0000
,
1000
0000
0100
0000
0010
0000
0000
0100
,
0001
0000
0000
0000
0000
0000
1000
0000
0100
0000
1000
0000
,
0010
1000
0020
0000
0000
0000
0000
0000
,
0230
0000
0000
0000
0300
0010
1000
0001
,
0200
0000
0302
0000
,
0023
0000
0000
0000
,
0030
0100
1000
0100
,
0100
0001
1000
0010
,
0100
1000
0001
1000
,
0001
0100
0100
0100
,
0010
0010
0010
0001
,
0001
0100
0100
0001
,
0100
0001
0001
0100
,
1100
0000
0010
0000
0100
0000
0011
0000
0100
0000
0010
0000
,
1100
0000
0010
0000
0001
0000
0110
0000
0000
0000
0000
0000
,
1100
0000
0000
1100
0000
0000
1100
0000
0000
0000
0000
0000
0001
0000
0000
0000
;
