#TITLE:Knuckleduster;
#SUBTITLE:;
#ARTIST:Daniel Baranowsky;
#TITLETRANSLIT:;
#SUBTITLETRANSLIT:;
#ARTISTTRANSLIT:;
#CREDIT:;
#BANNER:Knuckleduster.png;
#BACKGROUND:Knuckleduster-bg.png;
#LYRICSPATH:;
#CDTITLE:DJ Draco-cdtitle.png;
#MUSIC:Knuckleduster.mp3;
#OFFSET:-1.240;
#SAMPLESTART:70.432;
#SAMPLELENGTH:12.000;
#SELECTABLE:YES;
#BPMS:0.000=104.000,32.000=26.000,34.000=104.000;
#STOPS:;
#BGCHANGES:;
// cache tags:
#FIRSTBEAT:8.000;
#LASTBEAT:212.000;
#SONGFILENAME:Songs/toune 3/Knuckleduster/Knuckleduster.sm;
#HASMUSIC:1;
#HASBANNER:1;
#MUSICLENGTH:128.914;
// end cache tags

//---------------dance-single - ----------------
#NOTES:
     dance-single:
     :
     Beginner:
     1:
     0.125,0.143,0.093,0.000,0.000,101.000,12.000,0.000,0.000,0.000:

0000
0000
0000
0000
,
0000
0000
0000
0000
,
1000
1000
1000
0000
,
0001
0001
0001
0000
,
0100
0000
0100
0000
,
0010
0010
0010
0000
,
1000
0000
1000
0000
,
0001
0001
0001
0000
,
0110
0000
1000
0000
,
1000
0000
0001
0000
,
0001
0000
1000
0000
,
0100
0000
1000
0000
,
0000
0000
0110
0000
,
0001
0000
1000
0000
,
0001
0000
0100
0100
,
0100
0000
0010
0010
,
0010
0000
1000
0000
,
0010
0000
0100
0000
,
0001
0000
1000
1000
,
1000
0000
0001
0001
,
0001
0000
0100
0000
,
0000
0000
0010
0000
,
0000
0000
1000
1000
,
1000
0000
0001
0001
,
0001
0000
1000
0000
,
0000
0000
0100
0000
,
0000
0000
0010
0010
,
0010
0000
0001
0001
,
0001
0000
1001
0000
,
0100
0000
0010
0010
,
0010
0000
1000
0000
,
0100
0000
0010
0000
,
0001
0000
0110
0000
,
1000
0000
0001
0001
,
0001
0000
1000
0000
,
0010
0000
0100
0000
,
0001
0000
1001
0000
,
1000
0000
0100
0000
,
1000
0000
0001
0000
,
0010
0000
0100
0000
,
1000
0000
0010
0000
,
0100
0000
0001
0000
,
1000
0000
0001
0000
,
0100
0000
0010
0000
,
1000
0000
1001
0000
,
0000
0000
0000
0000
,
0000
0000
0110
0000
,
0000
0000
0000
0000
,
0000
0000
1001
0000
,
0000
0000
0110
0000
,
0000
0000
1001
0000
,
0000
0000
0110
0000
,
0000
0000
1001
0000
;

//---------------dance-single - ----------------
#NOTES:
     dance-single:
     :
     Easy:
     5:
     0.243,0.244,0.217,0.155,0.000,171.000,28.000,20.000,0.000,0.000:

0000
0000
0000
0000
,
0000
0000
0000
0000
,
1000
1000
1100
0000
,
0001
0001
0101
0000
,
0100
0100
0010
0010
,
1000
1000
0001
0001
,
0010
0010
0001
0001
,
1000
1000
0010
0010
,
0110
0000
1000
0100
,
1000
0000
0001
0100
,
0001
0010
1000
0000
,
0100
0000
1000
0000
,
0001
0000
0011
0001
,
1100
0001
0110
0100
,
1001
0010
0100
0100
,
0100
0000
0010
0010
,
0010
0000
1001
0010
,
0110
1000
0011
0100
,
1100
0001
1000
1000
,
1000
0000
0001
0001
,
0001
0000
2000
0001
,
0100
0001
3020
0001
,
0100
0001
0130
0100
,
0110
0000
0001
0001
,
0001
0100
0010
1000
0002
0000
1000
0000
,
0010
1000
0203
1000
,
0010
1000
0310
0010
,
1010
0000
0100
0100
,
0101
0000
1001
1000
,
0100
1000
0000
0010
0000
0100
0000
0001
,
0000
1000
0000
0000
0001
0000
0001
0000
,
1000
1000
0110
1001
,
0110
0000
0000
0000
1001
0000
0001
0010
,
0001
0000
1000
0100
1000
0001
0000
1000
,
0000
0001
0000
0000
1000
0000
1000
0000
,
0001
0001
0110
1001
,
0110
0000
2001
0000
,
0200
3000
0020
0300
,
0002
0030
0200
0003
,
0020
0300
2000
0030
,
0002
3000
0020
0003
,
0002
0030
0200
0003
,
0020
0300
0200
0030
,
0002
0300
2000
0003
,
0020
3030
1010
0000
,
0100
0000
0010
0000
1000
0001
0000
0100
,
0000
0000
0110
0000
,
0001
0100
0010
1000
0000
0001
0000
1000
,
0000
0000
1001
0000
,
1000
0010
0100
0001
1000
0001
0000
0100
,
0000
0000
1001
0000
,
1000
0100
0010
0001
0000
0010
0000
0100
,
0000
1000
0000
0000
1001
0000
0000
0000
;

//---------------dance-single - ----------------
#NOTES:
     dance-single:
     :
     Medium:
     6:
     0.381,0.349,0.279,0.202,0.081,282.000,36.000,26.000,0.000,0.000:

0000
0000
0000
0000
,
0000
0000
0000
0000
,
1000
0000
0100
0000
1000
0000
0100
1000
0000
0000
0000
0000
0000
0000
0000
0000
,
0001
0000
0100
0000
0001
0000
0100
0001
0000
0000
0000
0000
0000
1001
0000
0000
,
0100
0110
0000
1010
0000
0101
0000
0011
,
0000
1100
0000
1001
0000
1010
0000
1100
,
0000
0110
0000
0101
0000
1010
0000
1100
,
0000
0011
0000
1001
0000
0001
0100
0010
,
2002
0000
0000
0000
0000
0000
0000
3003
1000
0000
0010
0000
0100
0000
0001
0100
,
0000
0000
0000
0000
1001
0000
0000
0000
0001
0000
0100
0000
0010
0000
1000
0100
,
0000
0000
0000
0000
0000
1100
0000
0000
0001
0000
0010
0000
0001
0000
0100
0010
,
0000
0000
0000
0000
1010
0000
0000
0000
1000
0000
0100
0000
0010
0000
0001
1000
,
0000
0000
1001
0000
0000
0110
0000
0000
0001
0000
0100
0000
0010
0000
1000
0100
,
0000
0000
1000
0000
1000
0000
0000
0000
0001
0000
0010
0000
0001
0000
0100
0010
,
0000
0000
0000
0000
0000
0000
1000
0000
0001
0000
1000
0000
0001
0000
1000
0001
,
0000
0000
1000
0000
1010
0000
0000
0000
0010
0000
0100
0000
0010
0000
0100
0010
,
0000
0000
0100
0000
0101
0000
0000
0000
1000
0000
0010
0000
0100
0000
0001
0010
,
0000
0000
0001
0000
0001
0000
0000
0000
1000
0000
0100
0000
1000
0000
0010
0100
,
0000
0000
0001
0000
0100
0000
0010
0000
1000
0000
0001
0000
1000
0000
0001
1000
,
0000
0000
0001
0000
0101
0000
0000
0000
0100
0000
0010
0000
0100
0000
0010
0100
,
0000
0010
1000
0001
2000
0001
0001
0000
,
0100
0000
0001
0000
3020
1000
1000
0000
,
0100
0000
0000
0000
1000
0000
0000
0000
0130
0000
0010
0000
0100
0000
0010
0100
,
0000
0000
0010
0000
1010
0000
0000
0000
0001
0000
0100
0000
0001
0000
0100
0001
,
0000
0100
0010
1000
0002
0100
0100
0000
,
0010
0000
1000
0000
0203
0010
0010
0000
,
0001
0000
0000
0000
0010
0000
0000
0000
0310
0000
1000
0000
0010
0000
0100
0010
,
0000
0000
1000
0000
0001
0000
0000
0000
0100
0000
0001
0000
0100
0000
0010
1000
,
0000
1010
0000
0100
0101
0000
1001
0000
,
0001
1000
0000
0010
0000
0100
0000
0001
,
0000
1000
0010
0000
0200
0000
0000
0310
,
1000
0100
0010
0001
0000
0011
0000
0110
,
0000
0000
1000
0001
1001
1000
0010
0100
,
0001
0100
0010
1000
0001
0010
0000
0001
,
0000
1000
0000
0000
0020
0000
0000
0130
,
0010
1000
0100
0010
0000
0022
0000
0000
,
0000
0033
2001
0100
,
0200
3000
0010
0000
0020
0300
0001
0000
,
0002
0030
0100
0000
0200
0003
0010
0000
,
0020
0300
1000
0000
2000
0030
0001
0000
,
0002
3000
0010
0000
0020
0003
0100
0000
,
0200
0030
1000
0000
2000
0300
0010
0000
,
0020
3000
0100
0000
0200
0030
0001
0000
,
0002
0300
1000
0000
2000
0003
0010
0000
,
0020
3000
1030
0010
1010
0000
0100
0010
,
1000
0001
0000
0100
0000
0001
0000
0100
,
0010
1000
0100
0010
0001
0000
0000
1000
,
0001
0100
0010
1000
0000
0001
0000
1000
,
0000
0010
0100
0010
1001
0001
0100
0010
,
1000
0001
0010
0001
0100
0001
0000
0100
,
0000
0010
0000
1000
1001
0000
0000
0001
,
1000
0100
0010
0001
0000
0010
0000
0100
,
0000
1000
0000
0000
1000
0010
0100
0001
,
1000
0000
0000
0000
;

//---------------dance-single - ----------------
#NOTES:
     dance-single:
     :
     Hard:
     8:
     0.465,0.452,0.473,0.132,0.159,342.000,61.000,17.000,0.000,0.000:

0000
0000
0000
0000
,
0000
0000
0000
0000
,
1000
0000
0000
0000
0100
0000
0010
0000
0000
0000
0000
0000
0100
0000
0000
0000
0000
0000
0010
0000
0000
0001
0000
0000
0000
0000
0000
0000
0000
0000
0000
0000
0000
0000
0000
0000
0000
0000
0000
0000
0000
0000
0000
0000
0000
0000
0000
0000
,
1000
0000
0000
0000
0010
0000
0100
0000
0000
0000
0000
0000
0010
0000
0000
0000
0000
0000
0100
0000
0000
0001
0000
0000
0000
0000
0000
0000
0000
0000
0000
0000
0000
0000
0000
0000
0000
0000
0000
1001
0000
0000
0000
0000
0000
0000
0000
0000
,
0100
0110
0000
1010
0000
0101
0000
0011
,
0000
1100
0000
1001
0000
1010
0000
1100
,
0000
0110
0000
0101
0000
1010
0000
1100
,
0000
0011
0000
1001
0000
0101
0110
1010
,
2002
0000
0000
0000
0000
0000
0000
0000
0000
0000
0000
0000
0000
0000
0000
0000
0000
0000
0000
0000
0000
3003
0000
0000
1000
0000
0000
0000
0010
0000
0100
0000
0000
0000
0000
0000
0001
0000
0000
0000
0000
0000
0100
0000
0000
0010
0000
0000
,
0000
0000
0000
0000
0000
0000
1000
0000
0000
0000
0000
0000
1001
0000
0000
0000
0000
0000
0000
0000
0000
0000
0000
0000
0001
0000
0000
0000
0100
0000
0010
0000
0000
0000
0000
0000
0100
0000
0000
0000
0000
0000
0001
0000
0000
1000
0000
0000
,
0000
0000
0000
0000
0000
0000
0000
0000
0000
0000
0000
0000
0000
0000
0000
1100
0000
0000
0000
0000
0000
0000
0000
0000
0001
0000
0000
0000
0010
0000
0001
0000
0000
0000
0000
0000
0100
0000
0000
0000
0000
0000
0010
0000
0000
1000
0000
0000
,
0000
0000
0000
0000
0000
0000
1000
0000
0000
0000
0000
0000
1010
0000
0000
0000
0000
0000
0000
0000
0000
0000
0000
0000
1000
0000
0000
0000
0100
0000
0010
0000
0000
0000
0000
0000
0001
0000
0000
0000
0000
0000
1000
0000
0000
0001
0000
0000
,
0000
0000
1001
0000
0000
0110
0000
0000
0001
0000
0100
0000
0010
0000
1000
0100
,
0000
0000
1000
0000
1001
0000
0000
0000
0001
0000
0010
0000
0001
0000
0100
0010
,
0000
0000
0000
0000
0000
0000
0000
0000
0000
0000
0000
0000
0000
0000
0000
0000
0000
0000
1000
0000
0000
0000
0000
0000
0001
0000
0000
0000
1000
0000
0001
0000
0000
0000
0000
0000
0100
0000
0000
0000
0000
0000
0010
0000
0000
0100
0000
0000
,
0000
0000
0000
0000
0000
0000
0010
0000
0000
0000
0000
0000
1010
0000
0000
0000
0000
0000
0000
0000
0000
0000
0000
0000
0010
0000
0000
0000
0100
0000
0010
0000
0000
0000
0000
0000
0100
0000
0000
0000
0000
0000
0001
0000
0000
0100
0000
0000
,
0000
0000
0001
0000
0101
0000
0100
0000
1010
0000
0010
0000
0100
0000
0001
0010
,
0000
0000
0001
0000
1001
0000
0000
0000
1000
0000
0100
0000
1000
0000
0010
0100
,
0000
0000
0000
0000
0000
0000
0001
0000
0000
0000
0000
0000
0010
0000
0000
0000
0000
0000
0100
0000
0000
0000
0000
0000
1000
0000
0000
0000
0001
0000
1000
0000
0000
0000
0000
0000
0001
0000
0000
0000
0000
0000
1000
0000
0000
0010
0000
0000
,
0000
0000
0000
0000
0000
0000
0100
0000
0000
0000
0000
0000
0101
0000
0000
0000
0000
0000
0000
0000
0000
0000
0000
0000
0100
0000
0000
0000
0010
0000
0100
0000
0000
0000
0000
0000
0010
0000
0000
0000
0000
0000
1000
0000
0000
0010
0000
0000
,
0000
0010
1000
0001
2000
0001
0001
0100
,
0100
0001
0001
0000
3020
1000
1000
0100
,
0100
0000
0000
0000
0000
0000
1000
0000
0000
0000
0000
0000
1000
0000
0000
0000
0000
0000
0000
0000
0000
0000
0000
0000
0130
0000
0000
0000
0010
0000
0100
0000
0000
0000
0000
0000
0010
0000
0000
0000
0000
0000
1000
0000
0000
0010
0000
0000
,
0000
0000
0000
0000
0000
0000
0010
0000
0000
0000
0000
0000
1010
0000
0000
0000
0000
0000
0000
0000
0000
0000
0000
0000
0001
0000
0000
0000
0100
0000
0001
0000
0000
0000
0000
0000
0100
0000
0000
0000
0000
0000
0010
0000
0000
1000
0000
0000
,
0001
0100
0010
1000
0102
0100
0100
0010
,
0010
1000
1000
0000
0203
0010
0010
0001
,
0001
0000
0000
0000
0000
0000
0000
0000
0000
0000
0000
0000
0010
0000
0000
0000
0000
0000
0000
0000
0000
0000
0000
0000
0310
0000
0000
0000
1000
0000
0010
0000
0000
0000
0000
0000
0100
0000
0000
0000
0000
0000
0010
0000
0000
1000
0000
0000
,
0000
0000
0000
0000
0000
0000
1000
0000
0000
0000
0000
0000
1001
0000
0000
0000
0000
0000
0000
0000
0000
0000
0000
0000
0100
0000
0000
0000
0001
0000
0100
0000
0000
0000
0000
0000
0010
0000
0000
0000
0000
0000
1000
0000
0000
0010
0000
0000
,
0000
1000
1010
0000
0000
0000
0110
0000
0101
0000
0001
0000
1001
0000
1000
0000
,
1001
1100
0100
0110
0000
0011
0000
1001
,
0000
1000
1010
0000
0100
0010
1000
0001
,
1000
0100
0010
0001
0000
0011
0000
0110
,
0000
0000
1000
0001
1001
1000
1010
0100
,
0101
0100
0110
1000
1001
0010
0000
0011
,
0000
1100
0000
0000
0020
0000
0000
0130
,
0010
1000
0100
0010
0000
0022
0000
0000
,
0000
0000
0033
0000
2001
0100
0100
0000
,
3200
0010
0010
0000
0320
0001
0001
0000
,
0032
0100
0100
0000
0203
0010
0010
0000
,
0320
1000
1000
0000
2030
0001
0001
0000
,
3002
0010
0010
0000
0013
0001
0100
0010
,
1000
0100
0001
0100
1000
0010
0100
0001
,
0010
1000
0010
0001
0100
0010
1000
0001
,
0010
0001
1000
0010
0001
0010
0100
0001
,
0010
0100
1000
0010
1010
0000
0100
0010
,
1000
0001
0000
0100
0000
0001
0000
0100
,
0010
0000
1000
0000
0100
0000
0010
0001
0010
0000
0000
0000
0000
0000
0001
1000
,
0001
0100
0010
1000
0000
0001
0000
1000
,
0000
0010
0100
0010
1001
0001
0100
0010
,
1000
0001
0010
0001
0101
0100
0010
1000
,
0000
0000
0000
0000
0000
0000
0010
0000
0000
0000
0000
0000
0000
0000
0000
0000
0000
0000
1000
0000
0001
0000
1000
0000
0001
0000
0000
0000
0000
0000
0000
0000
0000
0000
0000
0000
0000
0000
0000
0000
0000
0000
1000
0000
0000
0001
0000
0000
,
1000
0100
0010
0011
0000
0110
0000
1100
,
0000
1001
0000
0000
1000
0010
0100
0001
,
1000
0000
0000
0000
;

//---------------dance-single - ----------------
#NOTES:
     dance-single:
     :
     Challenge:
     10:
     0.625,0.678,0.683,0.109,0.419,461.000,88.000,14.000,49.000,0.000:

0000
0000
0000
0000
,
0000
0000
0000
0000
,
1000
0000
0010
0100
0000
0000
0010
0000
0000
1000
0000
1001
0000
0000
0000
0010
0000
0000
1001
0000
1000
0001
0000
0000
,
1000
0000
0010
0100
0000
0000
0010
0000
0000
0100
0000
0001
0000
0000
0000
0000
0000
0000
0000
0000
1001
0000
0000
0000
,
0100
0110
0M10
1010
10M0
0101
0M01
0011
,
001M
0000
0000
1100
0000
0000
1M00
0000
0000
1001
0000
0000
M001
0000
0000
1010
0000
0000
M010
0000
1000
0010
0100
0001
,
1000
0110
0M10
0101
010M
1010
M010
1100
,
1M00
0011
00M1
1001
100M
0101
0110
1010
,
0004
0000
4000
0000
0000
0000
0000
0000
0000
0000
0000
0000
0000
0000
0000
0000
0000
0000
0000
0000
0000
0000
0000
0000
0000
0000
0000
0000
0000
0000
0000
0000
0000
0000
0000
0000
0000
0000
0000
0000
0000
0000
0000
0000
0000
0000
0000
0000
0000
0000
0000
0000
0000
0000
0000
0000
0000
0000
0000
0000
0000
0000
0000
0000
0000
0000
0000
0000
0000
0000
0000
0000
0000
0000
0000
0000
0000
0000
0000
0000
0000
0000
0000
0000
3003
0000
0000
0000
0000
0000
0000
0000
0000
0000
0000
0000
1000
0000
0000
0000
0000
0000
0000
0000
0000
0000
0000
0000
0000
0000
0000
0000
0010
0000
0000
0000
0000
0000
0000
0000
0100
0000
0000
0000
0000
0000
0000
0000
0000
0000
0000
0000
0000
0000
0000
0000
0000
0000
0000
0000
0000
0000
0000
0000
0001
0000
0000
0000
0000
0000
0000
0000
0000
0000
0000
0000
0000
0000
0000
0000
0000
0000
0000
0000
0000
0000
0000
0000
0100
0000
0000
0000
0000
0000
0000
0000
0000
0000
0000
0000
0000
0000
0000
0000
0110
0000
0000
0000
0000
0000
0000
0000
,
0000
0000
0000
1000
0000
0000
1001
0000
0000
MMMM
0000
0000
0001
0000
0100
0010
0000
0000
0100
0000
0000
0001
0000
1001
,
0000
0000
0000
M00M
0000
0000
0000
0000
0001
1000
0010
0100
0001
0000
0010
0001
0000
0000
0100
0000
0000
0010
0000
1010
,
0000
0000
0000
1000
0000
0000
1010
0000
0000
MMMM
0000
0000
1000
0000
0100
0010
0000
0000
0001
0000
0000
1000
0000
1010
,
0000
0000
0000
0000
0000
0000
0110
0000
0000
0000
0000
0000
0000
0000
0000
0000
0101
0000
0000
0000
0000
0000
0000
0000
0001
0000
0000
0000
0000
0000
0100
0000
0000
0000
0000
0000
0010
0000
0000
0000
0000
0000
1000
0000
0000
0100
0000
0000
,
0000
0000
1000
0000
1001
0000
0000
0000
0001
0000
0010
0000
0001
0000
0100
0010
,
0000
0000
0000
1000
0000
0000
0010
0000
0000
1000
0000
0000
0001
0000
1000
0001
0000
0000
0100
0000
0000
0010
0000
0110
,
0000
0000
0000
0010
0000
0000
1010
0000
0000
0000
0000
0000
0010
0000
0100
0010
0000
0000
0100
0000
0000
0001
0000
0000
,
0100
0000
0010
0000
1000
0000
0001
0000
0000
0000
0100
0000
0010
0000
0000
0000
1000
0000
0100
0000
0000
0000
1000
0000
0001
0000
0000
0000
0000
0000
0010
0000
0000
0000
0000
0000
0100
0000
0000
0000
0000
0000
0001
0000
0000
0010
0000
0000
,
0000
0000
0001
0000
1001
0000
0000
0000
1000
0000
0100
0000
1000
0000
0010
0100
,
0000
0000
0000
0001
0000
0000
0010
0000
0000
0100
0000
0000
1000
0000
0001
1000
0000
0000
0001
0000
0000
1000
0000
1010
,
0000
0000
0000
0100
0000
0000
0101
0000
0000
0000
0000
0000
0100
0000
0010
0100
0000
0000
0010
0000
0000
1000
0000
1010
,
0000
0000
0000
0010
0000
0000
1000
0010
0100
0001
0100
0010
2000
0000
0000
0001
0000
0000
0001
0000
0000
010M
0000
0000
,
0100
0M01
0001
301M
1020
1000
M100
0100
,
1M00
0000
0000
1000
0000
0000
1030
0000
1000
0010
0100
0010
1000
0000
0010
0100
0000
0000
0010
0000
0000
1000
0000
1010
,
0000
0000
0000
0010
0000
0000
1010
0000
0000
M0M0
0000
0000
0001
0000
0100
0001
0000
0000
0100
0000
0000
0010
0000
0000
,
1000
0010
0100
0001
0000
1000
0010
0000
0100
0001
0000
1000
0002
0000
0000
0100
0000
0000
0100
0000
0000
0M10
0000
0000
,
0010
10M0
1000
M103
0201
0010
0010
00M1
,
0001
0000
0000
001M
0000
0000
0310
0000
0100
0001
1000
0010
0100
0000
0010
1000
0000
0000
0100
0000
0000
1000
0000
1001
,
0000
0000
0000
1000
0000
0000
1001
0000
0000
0000
0000
0000
0100
0000
0001
0100
0000
0000
0010
0000
0000
1000
0000
1010
,
0000
0000
0000
0110
0000
0000
0000
0000
0001
1000
0010
0100
0001
0000
0000
0001
0000
0000
1001
0000
0000
1000
0000
0000
,
1001
1100
0100
0110
0MM0
0011
00MM
1001
,
M00M
0000
1000
0000
1010
0000
M0M0
0000
0100
0000
0010
1000
0100
0000
0010
0001
,
0100
0000
0010
1000
0100
0000
0101
0000
0001
0000
1010
0000
1000
0000
0110
0000
,
0010
1001
1010
0001
1001
1000
1M10
0100
,
01M1
0100
M11M
1000
1MM1
0010
0011
1000
,
0100
0000
1100
0000
1000
0000
0011
0000
1001
0000
1000
0010
0100
0000
0001
0100
,
0010
0000
1000
0010
0100
0000
0101
0000
0000
0000
0022
0000
0000
0000
0000
0000
,
0000
0000
0000
0000
0000
0000
0033
0000
0000
0000
0000
0000
0001
0000
0010
0000
0100
0000
1000
0000
0000
0000
0000
0000
2001
0000
0000
0000
0000
0000
0010
0000
0000
0000
0000
0000
0100
0000
0000
0000
0000
0000
0010
0000
0000
3000
0000
0000
,
0210
0000
0001
0000
0010
0000
0001
0300
0021
0000
0100
0000
0001
0000
0100
0030
,
0102
0000
0010
0000
0100
0000
0010
0003
0210
0000
0001
0000
0010
0000
0001
0300
,
0021
0000
0100
0000
1000
0000
0100
0030
2001
0000
0010
0000
0100
0000
0010
3000
,
1002
0000
0000
0100
0000
0000
0010
0000
0000
0100
0000
0000
0013
0000
0001
0100
0000
0010
0100
0000
0001
0010
0000
0100
,
1000
0000
0010
0100
0000
0001
1000
0000
0100
1000
0000
0001
0010
0000
0100
1000
0000
0100
0010
0000
0001
0100
0000
0010
,
0100
0000
0001
1000
0000
0010
0100
0000
0001
0010
0000
0001
0100
0000
0010
1000
0000
0100
1000
0000
0010
0100
0000
0001
,
1000
0000
0100
0010
0000
0100
1000
0000
0010
0100
0000
0001
0010
0000
0001
1000
0000
0100
1000
0000
0010
0100
0000
0001
,
0010
0000
0100
1000
0000
0001
1000
0010
1000
0010
0000
0000
1010
0000
0000
0000
0000
0000
0100
0000
0000
0010
0000
0000
,
1000
0001
0100
0110
0010
1010
1000
1001
,
0010
0000
1000
0000
0100
0000
0010
0001
1000
0000
0010
0000
1000
0000
0100
1000
,
0001
0100
0010
1010
1000
0101
0001
1010
,
1000
0010
0100
0010
1001
0001
0100
0010
,
1000
0001
0010
0001
0101
0100
0010
1000
,
0000
0000
0000
0000
0000
0000
0110
0000
0000
0000
0000
0000
0000
0000
0000
0000
0000
0000
1000
0000
0100
0000
0010
0000
0001
0000
0000
0000
0000
0000
0000
0000
0000
0000
0000
0000
0000
0000
0000
0000
0000
0000
1000
0000
0000
0001
0000
0000
,
1000
0100
0010
0011
0000
0110
0000
1100
,
0000
1001
0000
0000
1000
0010
0100
0001
,
1000
0000
0000
0000
;
