#TITLE:Final Reason;
#SUBTITLE:;
#ARTIST:yuyoyuppe;
#TITLETRANSLIT:;
#SUBTITLETRANSLIT:;
#ARTISTTRANSLIT:;
#CREDIT:M.L-INS;
#BANNER:../Tachyon DIVA.png;
#BACKGROUND:../Tachyon DIVA-bg.png;
#LYRICSPATH:;
#CDTITLE:;
#MUSIC:Final Reason.ogg;
#OFFSET:-2.080;
#SAMPLESTART:100.000;
#SAMPLELENGTH:12.000;
#SELECTABLE:YES;
#DISPLAYBPM:120.000:240.000;
#BPMS:0.000=239.995,60.000=480.001,66.000=240.001,362.000=120.003,410.000=239.996;
#STOPS:;
#BGCHANGES:;
// cache tags:
#FIRSTBEAT:0.000;
#LASTBEAT:552.000;
#SONGFILENAME:Songs/Tachyon DIVA/Final Reason[M.L-INS]/Final Reason.sm;
#HASMUSIC:1;
#HASBANNER:1;
#MUSICLENGTH:154.644;
// end cache tags

//---------------dance-single - ----------------
#NOTES:
     dance-single:
     :
     Challenge:
     14:
     1.000,1.000,0.724,1.000,0.808,989.000,112.000,193.000,64.000,1.000:
0002
0000
0000
0000
1003
0100
0010
0000
0200
0000
0000
0300
2010
0000
0000
0000
,
3001
0000
0100
0000
0210
0000
0000
0300
0021
0000
0000
0030
0210
0000
0000
0300
,
2010
0000
0000
3000
0001
0000
0100
0000
0010
0000
1000
0000
0200
0000
0010
0300
,
1001
0000
0000
0000
0102
0000
0000
0000
1003
0010
0100
0001
0200
0000
0000
0300
,
0110
0000
0000
0000
1000
0000
0100
0000
0000
0000
0001
0000
2100
0000
0000
3000
,
0210
0000
0000
0300
0012
0000
0000
0003
1000
0001
0010
0100
1000
0010
0100
0010
,
1000
0001
0100
0010
0200
0000
0000
00M0
00M0
00M0
00M0
00M0
03M0
00M0
0000
0000
,
0001
1000
0010
1000
0100
0010
0001
0100
0010
1000
0001
0010
0100
1000
0002
0000
,
0103
0000
0100
0000
0010
0000
0010
0000
1000
0100
1000
0000
0001
0100
0001
0000
,
1000
0010
0100
0010
1000
0100
0010
0100
1000
0001
0100
0010
1000
0100
0010
0001
,
0100
0000
0100
0000
0001
0000
0001
0000
0100
0010
0100
0000
0001
1000
0001
0000
,
0100
0001
0010
0100
1000
0100
0010
0001
0100
0010
1000
0001
1000
0010
0100
0001
,
0010
0000
0010
0000
0100
0000
0100
0000
1000
0001
0100
0000
0100
0001
1000
0000
,
0001
0010
0100
1000
0100
0010
0001
1000
0100
1000
0001
0010
0100
0010
0001
1000
,
0010
0100
0001
0010
0100
1000
0001
0100
0010
1000
0010
0100
0001
0010
0100
1000
,
04M0
0000
0000
0000
0000
0000
0000
0000
0000
0000
0000
0000
0000
0000
0000
0000
0000
0000
0000
0000
0000
0000
0000
0000
M000
0000
0000
0000
0000
0000
0000
0000
0000
0000
0000
0000
0000
0000
0000
0000
0000
0000
0000
0000
0000
0000
0000
0000
000M
0000
0000
0000
0000
0000
0000
0000
0000
0000
0000
0000
0000
0000
0000
0000
0000
0000
0000
0000
0000
0000
0000
0000
0000
0000
0000
0000
0000
0000
0000
0000
0000
0000
0000
0000
00M0
0000
0000
0000
0000
0000
0000
0000
0000
0000
0000
0000
M00M
0000
0000
0000
0000
0000
0000
0000
0000
0000
0000
0000
000M
0000
0000
0000
0000
0000
0000
0000
0000
0000
0000
0000
M0M0
0000
0000
0000
0000
0000
0000
0000
0000
0000
0000
000M
000M
0000
0000
00M0
0000
0000
M0MM
0000
0000
0000
0000
00M0
000M
0000
0000
000M
00M0
0000
0000
0000
0000
0000
0000
0000
M0M0
0000
0000
0000
0000
0000
00MM
0000
0000
0000
0000
0000
M0M0
0000
0000
0000
0000
0000
M0M0
0000
0000
0000
0000
0000
000M
0000
0000
0000
0000
0000
0000
0000
0000
0000
0000
0000
,
M0MM
0000
000M
M000
00M0
000M
M0M0
0000
M00M
0000
0000
0000
0300
0000
0000
0000
,
1000
1100
0000
0110
0000
0011
0002
0000
,
1003
0100
2000
0000
0010
0000
3000
0000
0101
0000
0002
0000
0000
0000
0013
0100
,
0020
0001
0031
1000
0100
0010
0011
0000
,
0001
0011
0000
0110
0000
1100
2000
0000
,
3001
0100
0002
0000
0010
0000
0003
0000
1010
0000
2000
0000
0000
0000
3010
0100
,
0020
1000
1030
0100
0010
0001
0101
0000
,
0001
1001
0000
1100
0000
0110
0020
0000
,
0031
1000
0002
0000
0100
0000
0003
0000
1010
0000
0020
0000
0000
0000
0130
0001
,
0200
0010
0310
0001
1000
0100
0110
0000
,
0010
0110
0000
1100
0000
1001
0002
0000
,
0013
0100
0020
0000
0100
0000
0030
0000
0101
0000
0002
0000
0000
0000
0103
0010
,
0200
0000
0301
0000
1000
0001
0010
0100
0010
0001
1000
0100
0010
0100
1000
0001
,
1000
1100
0000
0110
0000
0011
0002
0000
,
1003
0100
2000
0000
0010
0000
3000
0000
0101
0000
0002
0000
0000
0000
0013
0100
,
0020
0001
0031
1000
0100
0010
0011
0000
,
0001
0011
0000
0110
0000
1100
2000
0000
,
3001
0100
0002
0000
0010
0000
0003
0000
1010
0000
2000
0000
0000
0000
3010
0100
,
0020
1000
1030
0100
0010
0001
1000
1000
,
0001
0011
0000
0110
0000
1100
2000
0000
,
3001
0010
0002
0000
0100
0000
0003
0000
1010
0000
2000
0000
0000
0000
3100
0010
,
0200
1000
1300
0001
0010
0100
1100
0000
,
1000
1100
0000
0110
0000
0011
0002
0000
,
1003
0010
2000
0000
0100
0000
3000
0000
0404
0000
0303
0000
4040
0000
3030
0000
,
0440
0330
0044
0033
4400
3300
4004
3003
,
0200
0000
0301
0010
0100
0010
0001
1000
,
0001
0010
0100
0000
1000
0000
0100
0000
0020
0000
0000
0000
0031
0000
0100
0000
,
0010
0000
1000
0000
0100
0000
1000
0000
0001
0000
0010
0100
1000
0000
0001
0100
,
0010
1000
0100
0010
0002
0000
0103
0010
,
1000
0000
0010
0000
0100
0000
0001
0000
0100
0000
0010
0000
1000
0000
0001
0100
,
0010
0000
1000
0010
0100
0000
0001
0010
0100
0000
1000
0100
0020
0000
0000
0000
,
0031
0100
0010
1000
0100
0010
0100
1000
,
0001
0000
0100
0000
0001
0000
1000
0000
0001
0100
0010
0000
1000
0100
0010
0000
,
0001
0100
0010
0000
2000
0000
0000
0000
3001
0000
0100
0000
0010
0000
1000
0000
,
0100
0000
0010
0000
0001
0000
1000
0000
0001
0010
0100
0000
1000
0001
0100
0000
,
0010
1000
0001
0000
1000
0100
0010
0000
0001
0100
0010
0000
1000
0100
1000
0000
,
0001
0100
0001
0000
0010
0100
1000
0000
0001
0010
0100
0000
1000
0010
0100
0000
,
0001
1000
0100
0000
0010
0001
1000
0000
0100
1000
0010
0000
0100
0001
0010
0000
,
0200
0000
2300
0000
3002
0000
0023
0000
0130
1000
0001
0000
0010
0100
1000
0000
,
0001
0100
0010
0000
1000
0100
0010
0000
0001
1000
0100
0000
0010
0001
1000
0000
,
0100
1000
0010
0000
0100
0001
0010
0000
0001
1000
0010
0000
1000
0001
0100
0000
,
0010
1000
0001
0000
0100
0010
1000
0000
0100
0010
0001
0000
1000
0100
0010
0000
,
0002
0000
2003
0000
3200
0000
0320
0000
0031
1000
0100
0000
1000
0001
0100
0000
,
0010
1000
0100
0000
0010
0001
0100
0000
0010
1000
0100
0000
1000
0001
0100
0000
,
0010
1000
0001
0000
0100
0010
1000
0000
0100
0010
0001
0000
1000
0010
0100
0000
,
0001
1000
0100
0000
0010
0001
1000
0000
0010
0100
0001
0000
1000
0001
0100
0000
,
0002
0000
2003
0000
3020
0000
0230
0000
0301
0010
0100
0000
1000
0010
0100
0000
,
0001
0010
0100
0000
1000
0100
0010
0000
0001
0100
0010
0000
1000
0001
0100
0000
,
0001
1000
0010
0000
1000
0100
0010
0000
0001
0100
0010
0000
1000
0100
0010
0000
,
0001
0010
0100
0000
1000
0010
0100
0000
0001
1000
0100
0000
0010
0001
1000
0000
,
0001
0100
0010
0000
1000
0100
0010
0000
0002
0000
0000
0000
0100
0000
0000
0000
,
1003
0200
0010
0301
,
2000
0100
3010
0002
,
0103
0000
0000
0010
0000
0000
1010
0000
0000
0000
0000
0000
1000
0000
0000
0000
0000
0000
0001
0000
0010
0000
0100
0000
,
2000
0000
0000
0000
3001
0000
0000
0100
0010
0100
0020
0000
0000
0000
0030
0000
,
1010
0000
0100
0001
0010
0000
0110
0000
,
0001
0100
0010
1000
0100
0010
0002
0000
0000
0103
0000
0000
,
0012
0103
0100
1100
,
0101
2100
3010
0101
,
0001
0000
0000
1000
0000
0000
0010
0000
0000
0000
0000
0000
0101
0000
0000
0000
0000
0000
1000
0000
0001
0000
0010
0000
,
0100
0000
0000
0000
1000
0010
0100
0010
0200
0000
0000
0000
0301
0000
0000
0000
,
2100
0001
3010
0102
,
1003
0010
0100
0001
0010
0100
0020
0000
0000
0032
0000
0000
,
2003
3200
0320
0032
,
0203
0320
2030
3002
,
0103
0000
0000
0010
0000
0000
0110
0000
0000
0000
0000
0000
2001
0000
0000
0000
0000
0000
3001
0000
0100
0000
0010
0000
,
1000
0000
0000
0000
0100
1000
0200
1000
0000
0000
0000
0300
0010
0000
0000
0000
,
0002
2003
3200
0320
,
0031
1000
0010
1000
0001
0100
0002
0000
0000
0203
0000
0000
,
0320
2030
3002
0203
,
0302
0023
0230
2300
,
3001
0000
0000
0100
0000
0000
0101
0000
0000
0000
0000
0000
0020
0000
0000
0000
0000
0000
0130
0000
1000
0000
0001
0000
,
0200
0000
0000
0000
0300
0000
0001
1000
0001
1000
0000
0000
0020
0000
0000
0000
,
0130
0001
0101
0000
0110
0000
1100
0000
,
0001
0000
1000
0000
0010
0000
1000
0000
0001
0000
0100
0000
0002
0000
0000
0000
0000
0000
0000
0000
0000
2003
0000
0000
,
0000
0000
3020
0000
0000
0230
0000
0001
,
0302
0000
0000
0000
0000
2000
0400
0000
,
0000
3303
0000
0000
0002
0000
0000
0023
,
0000
0000
0230
0000
0000
2300
0000
0000
,
0002
0000
0000
0000
0000
0010
0040
0000
,
3003
0000
0000
0030
0000
0000
0001
0010
0100
1000
0000
0000
0020
0000
0000
0230
0000
0000
0302
0000
0000
2003
0000
0000
,
3200
2300
3002
0203
0302
0023
0230
2300
,
3200
0320
0032
2003
3200
0320
0230
2300
,
3002
2003
3020
0230
0302
2003
3200
0320
,
0230
2300
3002
0203
0302
2003
3020
0230
,
0302
0203
0320
2030
3200
2300
0004
0000
,
0000
0000
0000
3003
1000
1100
0000
0110
,
0000
0000
0011
0000
0002
0000
0000
0000
1003
0100
2000
0000
0010
0000
3000
0000
,
0101
0000
0002
0000
0000
0000
0013
0100
0020
0000
0001
0000
0031
0000
1000
0000
,
0100
0010
0011
0000
0001
0011
0000
0110
,
0000
0000
1100
0000
2000
0000
0000
0000
3001
0100
0002
0000
0010
0000
0003
0000
,
1010
0000
2000
0000
0000
0000
3010
0100
0020
0000
1000
0000
1030
0000
0100
0000
,
0010
0001
0101
0000
0001
1001
0000
1100
,
0000
0000
0110
0000
0020
0000
0000
0000
0031
1000
0002
0000
0100
0000
0003
0000
,
1010
0000
0020
0000
0000
0000
0130
0001
0200
0000
0010
0000
0310
0000
0001
0000
,
1000
0100
0110
0000
0010
0110
0000
1100
,
0000
0000
1001
0000
0002
0000
0000
0000
0013
0100
0020
0000
0100
0000
0030
0000
,
0101
0000
0002
0000
0000
0000
0103
0010
0200
0000
0301
0000
1000
0001
0010
0100
,
0010
0001
1000
0100
0010
0100
1000
0001
1000
0000
1100
0000
0000
0000
0110
0000
,
0000
0000
0011
0000
0002
0000
0000
0000
1003
0100
2000
0000
0010
0000
3000
0000
,
0101
0000
0002
0000
0000
0000
0013
0100
0020
0000
0001
0000
0031
0000
1000
0000
,
0100
0010
0011
0000
0001
0011
0000
0110
,
0000
0000
1100
0000
2000
0000
0000
0000
3001
0100
0002
0000
0010
0000
0003
0000
,
1010
0000
2000
0000
0000
0000
3010
0100
0020
0000
1000
0000
1030
0000
0100
0000
,
0010
0001
1000
1000
0001
0011
0000
0110
,
0000
0000
1100
0000
2000
0000
0000
0000
3001
0010
0002
0000
0100
0000
0003
0000
,
1010
0000
2000
0000
0000
0000
3100
0010
0200
0000
1000
0000
1300
0000
0001
0000
,
0010
0100
1100
0000
1000
1100
0000
0110
,
0000
0000
0011
0000
0002
0000
0000
0000
1003
0010
2000
0000
0100
0000
3000
0000
,
4400
3300
0440
0330
0044
0033
0404
0303
,
4040
3030
4004
3003
0002
0000
0000
0000
,
0000
0000
0203
0000
0000
0000
0000
0000
0000
0000
0310
1000
0200
0000
0000
0000
,
0000
0000
0320
0000
0000
0000
0000
0000
0032
0000
0000
0000
0000
0000
1003
0010
,
1000
0000
0000
0000
0000
0000
0001
0000
0000
0100
0000
0000
0001
0000
0000
0000
0000
0000
1000
0000
0000
0010
0000
0000
0100
0000
0000
0000
0000
0000
0001
0000
0000
0100
0000
0000
0010
0000
0000
0000
1000
0000
0000
0000
0001
0000
0000
0000
,
0100
0000
0010
0000
1000
0000
0100
0000
0010
0000
0001
0000
1M00
0000
0001
00M0
1000
0000
0M01
0000
1000
00M0
0001
0000
,
M100
0000
0010
0000
M100
0000
0001
0000
10M0
0000
0001
M000
0010
0000
0100
0000
100M
0000
0100
0000
0010
0M00
0001
0000
,
1000
0000
0010
M000
0100
0000
0001
0000
0010
000M
0100
0000
10M0
0000
0100
0000
2000
0000
0000
0000
0000
0000
0000
0000
,
0000
0000
0000
000M
0100
0000
0000
0000
0000
0000
0100
0000
,
00M0
0000
0000
3000
0M00
0000
0000
0000
,
0001
0000
0000
0100
0000
0000
0020
0000
0000
0000
0000
0000
0000
0000
0000
0000
0000
0000
1000
0000
0000
0000
0000
0000
0000
0000
0000
0000
0000
0000
0000
0000
4000
0000
0000
0000
0000
0000
0000
0000
0000
0000
0000
0000
0000
0000
0000
0000
,
0030
0M00
0M00
0000
,
0000
0000
0000
0000
,
3000
0000
0000
0000
;
