#TITLE:Through the Fire and Flames;
#SUBTITLE:;
#ARTIST:Dragonforce;
#TITLETRANSLIT:;
#SUBTITLETRANSLIT:;
#ARTISTTRANSLIT:;
#CREDIT:;
#BANNER:Through the Fire and Flames-bn.PNG;
#BACKGROUND:Through the Fire and Flames-bg.PNG;
#LYRICSPATH:;
#CDTITLE:!TEEXcdtitle.png;
#MUSIC:Through the Fire and Flames.mp3;
#OFFSET:-1.143;
#SAMPLESTART:92.036;
#SAMPLELENGTH:12.000;
#SELECTABLE:YES;
#BPMS:0.000=200.000;
#STOPS:;
#BGCHANGES:;
// cache tags:
#FIRSTBEAT:0.000;
#LASTBEAT:734.000;
#SONGFILENAME:Songs/Fabulously Fresh Flock of Fantastic Files F5/(TEEX) Through the Fire and Flames/Through the Fire and Flames.sm;
#HASMUSIC:1;
#HASBANNER:1;
#MUSICLENGTH:221.604;
// end cache tags

//---------------dance-single - ----------------
#NOTES:
     dance-single:
     :
     Hard:
     13:
     1.000,1.000,1.000,0.181,1.000,1868.000,222.000,40.000,0.000,0.000:
1001
1000
0010
1000
0100
1000
0010
0001
,
0010
0000
1000
0000
0100
0000
1000
0000
0010
0000
0100
0000
0001
0100
0010
1000
,
0101
0100
0010
0100
0010
1000
0001
0010
,
0001
0100
1000
0010
1000
0001
0100
0001
,
1001
0100
0010
0100
0001
1000
0001
0010
,
0100
0010
0001
1000
0100
0010
0100
1000
,
0101
0010
1000
0001
1000
0100
0010
0100
,
1100
0100
1000
0001
1000
0100
0010
0100
,
0101
0100
0010
0001
0010
1000
0100
0010
,
1000
0000
0010
0000
0100
0000
1000
0000
0010
0000
0100
0000
0001
1000
0001
1000
,
0101
0010
1000
0001
1000
0010
0001
0010
,
0100
0001
1000
0100
0010
0100
0010
0001
,
0110
0100
1000
0001
1000
0001
0100
0010
,
1000
0100
0010
0100
1000
0001
0100
0010
,
0011
0100
0001
1000
0100
0010
0001
1000
,
1100
0110
2002
3003
,
0010
1000
0010
0100
0001
0000
0010
0001
0010
0100
1000
0000
0010
1000
0001
0000
,
0100
0001
0100
0010
1000
0000
0100
1000
0100
0010
0100
0000
0010
0100
1000
0000
,
0001
0010
0001
0100
0010
0000
1000
0100
1000
0010
0100
0000
0001
1000
0001
0000
,
1000
0100
0010
0100
0010
0000
0001
1000
0001
0010
0001
0000
0100
0010
0100
0000
,
0001
1000
0100
1000
0010
0000
0100
0001
0010
0001
0010
0000
0100
1000
0001
0000
,
0001
0010
0100
1000
0001
0000
1000
0100
0010
0001
1000
0000
1000
0100
1000
0000
,
0010
0100
0001
0010
0001
0100
0010
1000
0010
1000
0100
0010
0001
0100
0001
0010
,
0100
1000
0010
0100
0001
0010
0100
1000
0010
0000
0000
0000
0011
0000
1000
0000
,
0001
1000
0010
1000
0001
0000
1000
0001
0100
0001
1000
0000
0010
0100
0001
0000
,
0010
0100
1000
0100
0010
0000
0001
0010
0100
0010
0001
0000
0100
0010
0100
0000
,
0001
1000
0100
0010
0100
0000
1000
0001
0010
0100
0010
0000
0001
0100
0010
0000
,
1000
0100
0010
0001
1000
0000
0010
1000
0010
0100
0010
0000
0100
0001
1000
0000
,
1000
0100
0010
0001
1000
0000
0001
0010
0100
1000
0001
0000
0100
0010
1000
0000
,
0010
0100
0001
0010
0100
0000
1000
0010
0100
0010
1000
0000
0001
0010
0001
0000
,
0100
0010
1000
0010
0100
0001
1000
0100
1000
0001
0010
0100
1000
0001
0100
0001
,
0010
0100
1000
0100
0010
0001
0010
0100
1000
0001
0100
0001
1000
0010
1000
0000
,
0110
0000
1000
0010
0002
0000
1003
0100
,
0002
0000
1003
0100
1000
0100
0010
0001
,
0011
0001
1000
0101
0000
0011
0000
0110
,
0100
1000
0010
0100
0001
0100
0010
1000
,
1100
0001
1000
0001
0010
0001
1000
0001
,
0200
0000
0010
0302
0000
0000
1003
0000
,
0001
0010
0001
0000
0100
0010
0100
0000
1100
0000
0100
0000
1100
0000
1000
0000
,
0001
0010
0100
1000
0001
0100
0010
1000
0001
0010
0100
1000
0001
0100
0010
1000
,
0002
0000
0000
0000
1003
0100
1000
0000
0100
0010
0100
0000
0011
0000
0001
0000
,
0101
0100
0010
1010
1000
0100
1100
0010
,
1001
0001
0100
0010
1001
0010
1001
0100
,
0001
0010
0100
1000
0010
0100
0001
0100
0010
1000
0001
0000
1001
0000
0000
0000
,
1010
1000
0001
0101
0100
0001
0011
0100
,
1100
1000
0001
1010
0100
1000
0110
0100
,
1001
0100
1000
0011
0010
0001
0100
0001
,
0010
1000
0100
1000
0001
0010
0100
1000
0010
1000
0010
0100
0001
0100
0001
1000
,
0200
0300
0011
0001
0101
0100
0010
1000
,
1100
1000
0010
0100
0002
0000
0023
0130
,
1100
0001
1100
0010
1100
1000
0001
0010
,
0201
0000
0020
0000
0330
0000
0011
0100
,
1100
1000
0010
0110
0100
0001
0011
0001
,
0101
1000
0010
1100
0001
1000
0101
0010
,
1000
0010
1000
0001
0100
0001
0010
0001
0010
0100
1000
0100
0010
0001
1000
0001
,
0100
1010
0000
1001
0000
1010
1000
0101
,
1000
0100
0010
0001
0010
0100
1000
0001
0100
0001
1000
0001
0010
0001
1000
0100
,
1000
0010
0100
0010
1000
0100
1000
0001
0100
0010
0100
0001
0010
0100
0010
0001
,
0100
0001
0010
0100
0010
0001
1000
0010
1000
0100
1000
0001
0100
0010
1000
0001
,
1000
0010
1000
0010
1000
0010
1000
0001
1000
0001
1000
0001
0100
0001
0100
0001
,
0010
0100
0010
0001
1000
0001
0100
0010
0100
0001
0010
0100
1000
0010
0100
0010
,
1000
0001
1000
0010
1000
0100
0010
0001
0100
0001
1000
0100
0010
0001
0010
0100
,
2000
3000
0110
0110
0101
0101
1001
1001
,
1010
0110
1100
0011
,
1000
0100
1000
0000
0100
0000
0010
0001
0010
0000
0001
0000
0100
0000
0001
0000
,
0100
0010
0100
0000
0010
0000
1000
0001
1000
0000
0100
0000
0010
0000
0001
0000
,
0100
0001
1000
0000
0010
0000
1000
0001
0100
0000
0001
0000
0010
0000
0001
0000
,
1000
0010
0100
0000
0010
0000
0100
0010
1000
0000
0100
0000
0010
0000
0100
0000
,
1000
0001
0100
0000
0001
0000
0010
0001
0100
0000
0010
0000
1000
0000
0001
0000
,
0010
0100
0010
0000
0001
0000
1000
0010
1000
0000
0001
0000
0010
0000
0001
0000
,
0010
0100
0010
0000
0100
0000
1000
0001
1000
0000
0001
0000
0100
0000
0100
0000
,
0001
0010
0100
0010
0001
1000
0100
0010
0001
1000
0010
0100
0002
0000
0000
0000
,
1003
0010
0100
0000
0110
0000
0100
0001
0010
0000
0011
0000
0010
0001
1000
0000
,
0100
0010
0100
0000
0110
0000
0100
1000
0010
0000
0110
0000
1000
0001
0100
0000
,
0001
0100
0010
0000
0110
0000
0010
1000
0010
0000
1010
0000
0100
0001
0010
0000
,
0100
1000
0010
0000
1010
0000
0100
0001
0100
0000
0101
0000
0010
1000
0100
0000
,
0010
0001
0100
0010
1000
0100
0010
0001
0100
0010
1000
0100
0010
0001
0100
0010
,
1000
0010
0100
0001
0010
0100
1000
0010
0100
0001
0010
0100
1000
0010
0100
0001
,
0010
0100
0010
0100
0010
0100
1000
0001
1000
0001
1000
0001
0100
0001
0100
0001
,
1000
0101
1001
1010
,
0010
0100
0001
0100
0010
1000
0100
1000
0010
0100
0001
0100
0010
1000
0100
0010
,
0001
0100
0001
0010
0100
1000
0010
1000
0100
0010
0001
0010
0001
1000
0010
1000
,
0010
0100
0001
1000
0100
1000
0010
0100
0001
0010
0001
1000
0010
1000
0001
0100
,
0001
1000
0010
0100
0001
0010
0100
1000
0100
0010
0001
1000
0100
0010
0001
1000
,
0010
0100
0001
1000
0010
0100
0001
0010
0001
0010
0100
1000
0001
0100
0001
0100
,
0010
1000
0010
1000
0001
0100
0010
1000
0001
0100
0001
0100
0010
1000
0010
0100
,
0010
1000
0001
0010
0001
0100
0001
0100
0001
0010
0100
0010
0100
1000
0010
0100
,
0010
1000
0100
0010
0100
0010
0001
0100
0010
0100
0010
1000
0001
1000
0001
0100
,
0001
0010
0001
0000
1000
0000
0100
1000
0100
0000
0010
0000
0100
0010
0100
0000
,
1000
0001
0100
0000
0010
0000
1000
0001
0010
0000
0100
0000
1000
0001
1000
0000
,
0001
0010
0001
0000
1000
0000
0010
1000
0010
0000
0100
0000
0001
1000
0100
0000
,
0010
0001
0100
0000
0010
0000
0100
0001
0010
0000
0100
0000
1000
0100
1000
0000
,
0010
0100
0010
0000
1000
0000
0010
1000
0010
0000
0100
0000
0001
1000
0100
0000
,
2002
0000
0000
3003
,
0101
1000
1010
0010
1001
0100
0001
1000
,
0110
0100
0101
1000
0011
1000
2020
3030
,
0202
0303
0101
0100
0010
0100
0010
1000
,
0100
0010
2200
0000
0000
0000
0000
3300
,
0101
1000
0100
0001
1000
0010
1000
0001
,
0110
0010
1000
0101
0100
0001
1010
0100
,
0011
0011
1100
0011
0011
1100
0011
1100
,
0001
0100
0010
0100
0001
0010
0100
0010
0001
1000
0100
0010
0100
1000
0010
0000
,
0202
0000
0303
0000
0100
1000
0001
0100
0010
1000
0010
1000
0100
1000
0010
0100
,
0001
0010
0001
0100
0010
0100
0010
1000
0001
0100
0001
0010
0100
1000
0010
1000
,
0001
0100
0001
0100
0010
1000
0100
0010
0001
0010
0100
0010
0001
1000
0100
0010
,
0100
1000
0100
0010
0001
0010
0100
1000
0001
0010
0001
1000
0001
0100
0001
1000
,
0020
0000
0000
0000
0130
0001
0100
0001
1000
0010
1000
0010
1000
0100
0010
0001
,
0010
0100
1000
0001
0100
0010
1000
0010
0100
0001
0010
0100
1000
0010
0100
0000
,
1010
1010
0100
1001
1001
0010
0011
0100
,
1010
0000
0000
1001
0000
0000
0011
0000
1001
0000
0101
0000
,
2002
0000
0000
0000
,
0000
0000
0000
0000
0000
0000
0000
0000
0000
0000
0000
3003
,
1001
1000
0101
0010
1100
0000
1010
0001
,
0011
0100
1001
0000
0110
0000
0001
0100
,
0101
0000
1000
0010
1000
0001
0010
0001
,
0200
0010
1000
0320
,
0130
0001
0100
0001
1100
0001
0010
0001
,
0010
1000
0100
0000
0010
0000
0100
1000
0001
0000
0010
0000
0001
0100
0001
0000
,
2010
0000
0001
0100
0000
0010
0000
3000
,
0202
0000
0000
0000
0000
0000
0000
0303
,
1000
0001
1000
0000
0001
0100
0001
0000
1010
0000
1000
0000
1100
0000
0001
0000
,
1000
0100
0010
0001
1000
0010
0100
0000
0011
0000
1000
0000
0001
0000
1000
0000
,
0010
1000
0100
0010
0001
0100
0010
0100
0001
0000
1000
0000
0100
0000
0010
0000
,
0110
0001
1010
1000
0100
1000
0011
0100
,
1001
0010
1000
0001
0101
1000
1001
0100
,
0110
0001
1000
1100
0100
0010
0011
0100
,
1001
0010
1000
0011
0100
1000
1001
0100
,
0001
1000
0010
0100
0001
1000
0010
0100
0002
0000
0003
0000
1100
0000
0000
0000
,
1000
0100
1000
0010
0100
0010
0100
0001
1000
0100
1000
0010
0100
0010
0100
0001
,
0010
0001
1000
0010
1000
0100
1000
0010
0100
0001
0010
0001
0100
0010
0100
0010
,
1000
0100
1000
0010
0100
0001
1000
0010
1000
0010
1000
0010
0100
0001
0100
0000
,
1010
0000
1001
0000
1100
0000
0011
0000
1001
0000
0101
0000
,
0100
0010
1000
0001
1000
0010
1000
0001
0100
0001
1000
0001
0010
0001
1000
0100
,
1000
0001
1000
0010
0100
0001
0100
0010
1000
0001
1000
0000
1010
0000
0000
0000
,
1001
0000
0101
0101
1010
1010
1100
1100
,
1001
0110
1010
0101
,
0010
1000
0100
0000
0110
0000
0010
0001
0100
0000
1001
0000
0010
1000
0001
0000
,
0100
0001
1000
0000
0101
0000
1000
0100
0010
0000
0110
0000
0100
1000
0001
0000
,
0010
0001
0100
0000
0101
0000
0001
0010
0001
0000
1010
0000
0100
1000
0100
0000
,
1000
0001
1000
0000
0011
0000
0100
0001
0100
0000
0110
0000
0010
0100
0010
0000
,
1001
1000
0001
0101
0100
0001
1000
0001
,
0011
1000
0001
1010
0100
1000
0001
0100
,
1001
0100
0010
1010
0010
0100
0101
1000
,
0100
1000
0001
0010
0001
0010
0001
0100
0001
0100
0010
1000
0010
1000
0100
1000
,
0100
0010
0001
0000
0100
0000
0010
1000
0001
0000
1000
0000
0100
1000
0010
0000
,
0100
0010
1000
0000
0001
0000
0100
0001
0010
0000
0100
0000
0010
0001
0100
0000
,
0010
0100
0010
0000
1001
0000
0100
0010
0100
0000
0001
0000
0110
0000
0001
0000
,
1000
0100
0010
0000
0110
0000
1000
0001
0100
0000
1010
0000
0100
0001
0100
0000
,
0001
0010
0001
1000
0010
1000
0001
1000
0100
1000
0001
0100
0001
1000
0010
0100
,
0010
1000
0001
1000
0100
0010
0001
0100
0010
0100
0001
0010
0001
0100
0001
1000
,
0100
0010
0001
0100
0010
1000
0100
0010
0001
0010
0100
1000
0001
0100
0010
0000
,
1001
0011
1100
0110
,
0001
1000
0100
0010
0100
1000
0001
0010
0100
1000
0001
0000
1100
0000
0000
0000
,
0011
0001
1000
1100
1000
0001
0101
0010
,
1100
1000
0001
0110
0001
1000
1100
0001
,
1100
1000
0001
0101
0100
0010
1001
0000
,
1000
0100
0010
0001
1000
0100
0010
0001
1000
0010
0100
0001
1000
0001
0100
0001
,
0010
0100
1000
0001
0100
0010
1000
0001
0010
0100
1000
0010
0100
0001
1000
0000
,
0110
0000
0010
0100
0001
0000
0010
0001
0100
0010
1000
0100
0010
0000
0001
0000
,
0100
0010
0100
0001
0100
0010
0100
0001
1000
0001
0010
0100
0010
0001
0010
0100
,
1000
0000
0100
1000
0010
0000
0100
0000
0101
0000
0010
0001
1000
0000
0001
0000
,
1010
0000
0100
0010
1000
0000
0010
0000
1100
0000
0100
0010
0100
0000
0010
0000
,
1001
0000
0100
0001
1000
0000
0010
0000
0101
0000
0100
0001
1000
0000
0001
0000
,
1100
0000
0010
0001
0100
0000
0010
0000
0110
0000
0100
0001
1000
0000
0010
0000
,
1000
0010
1000
0001
0100
0001
1000
0010
1000
0001
0100
0001
0010
0100
1000
0000
,
2002
0000
0000
3003
,
0101
0100
0010
1000
1100
0001
1000
0100
,
1100
0010
0101
0010
1000
0001
0010
0001
,
1010
0001
0010
1000
0010
0100
0001
0100
,
1010
0001
0101
2000
0000
3010
0100
0001
,
0110
0100
1001
0001
0100
0010
1000
0001
,
1010
1000
0100
0010
0100
1000
0101
0010
,
1001
0001
0100
0010
0011
0100
0001
1000
,
1000
0100
0010
0001
0100
0010
1000
0100
0010
0001
0100
0010
1000
0010
1000
0000
,
0011
0001
0100
0001
0100
0010
0100
0001
,
1010
0000
1100
1000
0100
1000
0010
0100
,
0001
1000
0010
0100
0010
0000
0001
0000
1000
0000
0100
0000
0010
0000
0001
0000
,
0100
0001
1000
0010
2000
0002
0000
3003
,
0101
0100
1100
0010
0100
0010
0001
0010
,
0100
0011
1000
0100
0010
0001
0010
0100
,
0001
1000
0100
1000
0001
0010
0001
0100
0010
1000
0100
1000
0010
0100
0010
1000
,
0001
0000
0000
0100
0000
0000
0010
0000
0000
0000
0000
0000
0101
0000
0000
0000
0000
0000
0000
0000
0000
0000
0000
0000
0011
0000
0000
0000
0000
0000
0000
0000
0011
0000
0000
0000
0000
0000
0000
0000
1100
0000
0000
0000
0000
0000
0000
0000
,
2002
0000
0000
0000
,
0000
0000
3003
0000
;
