#TITLE:MEPHISTO;
#SUBTITLE:;
#ARTIST:LeaF;
#TITLETRANSLIT:;
#SUBTITLETRANSLIT:;
#ARTISTTRANSLIT:;
#CREDIT:Dossar;
#BANNER:../Zeppelin_bn.png;
#BACKGROUND:../bg_Zeppelin.png;
#LYRICSPATH:;
#CDTITLE:../cdtitle_ZAiA.png;
#MUSIC:LeaF - MEPHISTO.ogg;
#OFFSET:-0.095;
#SAMPLESTART:58.680;
#SAMPLELENGTH:22.440;
#SELECTABLE:YES;
#BPMS:0.000=172.000;
#STOPS:;
#BGCHANGES:;
// cache tags:
#FIRSTBEAT:8.000;
#LASTBEAT:339.000;
#SONGFILENAME:Songs/Cirque du Zeppelin/MEPHISTO - [Zaia]/MEPHISTO.sm;
#HASMUSIC:1;
#HASBANNER:1;
#MUSICLENGTH:121.489;
// end cache tags

//---------------dance-single - 10/4/6/4/7/4/4-4----------------
#NOTES:
     dance-single:
     10/4/6/4/7/4/4-4:
     Challenge:
     14:
     1.000,1.000,0.091,0.510,1.000,1053.000,11.000,62.000,0.000,1.000:
0000
0000
0000
0000
,
0000
0000
0000
0000
,
0001
0100
0010
1000
0001
0010
0100
0010
0001
0100
0010
1000
0001
0010
0100
1000
,
0010
0100
0001
1000
0001
0010
0001
0100
0010
1000
0001
1000
0100
1000
0010
0100
,
0001
1000
0100
0010
0100
1000
0001
1000
0010
0100
0001
1000
0001
0010
0001
1000
,
0100
1000
0001
0100
0010
1000
0001
0010
0100
1000
0001
1000
0010
0100
0001
1000
,
0010
1000
0001
0010
0100
1000
0001
0100
0010
1000
0001
1000
0100
0010
0001
1000
,
0010
0100
0001
1000
0100
1000
0001
0010
0001
1000
0001
0100
0010
1000
0100
0010
,
0001
0100
0001
1000
0010
1000
0100
1000
0001
0100
0010
0100
0001
0010
0100
1000
,
0001
0010
0001
0100
0001
1000
0010
1000
0100
0010
0100
1000
0010
0100
0001
1000
,
0001
0100
0001
0010
0100
1000
0010
0100
0010
1000
0001
0100
0001
0010
0001
1000
,
0100
0010
0100
1000
0010
0100
0010
1000
0001
0010
0001
0100
0001
1000
0010
1000
,
0100
0010
0001
1000
0010
0000
0100
0001
1000
0000
0001
0010
0200
0000
2300
0000
,
3002
0000
0000
0203
0000
0000
0302
0000
0000
0023
0000
0000
0230
0000
0000
1300
0010
1000
0002
0000
0000
0203
0000
0000
,
0301
0000
0010
0000
0001
0000
1000
0000
0100
0000
1000
0001
0100
0000
0010
0000
,
1000
0000
0100
1000
0010
1000
0001
0000
0020
0000
0000
0000
0031
1000
0100
1000
,
0001
0010
0001
1000
0100
1000
0010
1000
0001
0010
0100
0010
0001
0100
0010
1000
,
0001
0100
0001
0010
0001
1000
0100
1000
0010
0100
0010
1000
0100
0010
0001
1000
,
0001
0010
0001
0100
0010
1000
0100
0010
0100
1000
0001
0010
0001
0100
0001
1000
,
0010
0100
0010
1000
0100
0010
0100
1000
0001
0100
0001
0010
0001
1000
0100
1000
,
0020
0000
0230
0000
0301
1000
0010
1000
0200
0000
0310
0001
2000
0000
3020
0000
,
0230
0000
0000
0302
0000
0000
0023
0000
0000
0230
0000
0000
0320
0000
0000
0031
1000
0001
0020
0000
0000
0230
0000
0000
,
2300
0000
3002
0000
0203
0000
0302
0000
0023
0000
0130
1000
0002
0000
0203
0000
,
0320
0000
1030
0001
0010
0001
2000
0000
3020
0000
0000
0000
0130
0001
0010
0100
,
1000
0010
1000
0001
0100
0001
0010
0001
1000
0010
0100
0010
1000
0100
0010
0001
,
1000
0100
1000
0010
1000
0001
0100
0001
0010
0100
0010
0001
0100
0010
1000
0001
,
1000
0010
1000
0100
0010
0001
0100
0010
0100
0001
1000
0010
1000
0100
1000
0001
,
0010
0100
0010
0001
0100
0010
0100
0001
1000
0100
1000
0010
1000
0001
0100
0001
,
0010
0100
1000
0001
1000
0001
0100
0010
1000
0001
0010
0100
0010
0001
1000
0001
,
0100
0010
1000
0001
0010
0100
1000
0001
0010
0001
1000
0010
1000
0001
0100
0001
,
1000
0000
0000
0001
0000
0000
0010
0000
0000
0000
0000
0000
0200
0000
0000
0000
0000
0000
0300
0000
0000
0000
0000
0000
1000
0000
0000
0001
0000
0000
0100
0000
0000
0000
0000
0000
0010
0000
0000
0000
1000
0000
0000
0000
0001
0000
0000
0000
,
0010
0000
0000
0100
0000
0000
0010
0000
0000
0100
0000
0000
1000
0000
0000
0000
0001
0000
0000
0000
1000
0000
0000
0000
0010
0000
0000
0100
0000
0000
0001
0000
0000
0010
0000
0000
0001
0000
0000
1000
0000
0000
0100
0000
0000
1000
0000
0000
,
0001
0100
0010
0100
0001
0010
0100
1000
0010
0100
0010
1000
0100
0010
0001
1000
,
0001
0100
0010
1000
0001
0010
0100
1000
0001
0100
0001
1000
0100
1000
0001
0010
,
0100
1000
0010
1000
0001
0100
0001
0010
0001
1000
0100
0010
0100
1000
0001
0100
,
0010
1000
0100
0010
0100
1000
0001
1000
0010
1000
0001
0100
0001
1000
0001
1000
,
0001
0010
0110
0100
,
1001
1010
0110
0101
,
0001
0000
1000
0100
1000
0000
0001
0000
0100
0000
0010
0100
0010
0000
1000
0000
,
0001
0000
1000
0000
0100
0000
0010
0000
0001
0000
1000
0000
0100
0010
0001
1000
,
0002
0000
0000
0000
,
1003
0010
1000
0010
0100
0010
0100
0010
1000
0001
0010
0001
1000
0100
1000
0001
,
0100
0010
1000
0001
0100
0001
0010
0001
1000
0010
0100
0010
1000
0100
0010
0001
,
1000
0100
1000
0010
1000
0001
0100
0001
0010
0100
0010
0001
0100
0010
1000
0001
,
1000
0010
1000
0100
0010
0001
0100
0010
0100
0001
1000
0010
1000
0100
1000
0001
,
0010
0100
0010
0001
0100
0010
0100
0001
1000
0100
1000
0010
1000
0001
0100
0001
,
0010
0100
1000
0010
1000
0001
0100
0001
0010
0100
1000
0010
1000
0001
1000
0100
,
0010
0001
0100
0001
1000
0010
1000
0100
0010
0001
0100
0001
1000
0010
0100
0001
,
1000
0000
0100
0000
1000
0000
0010
0000
0100
0000
0001
0000
0010
0000
0100
0000
1000
0000
0001
0000
0010
0000
0001
0000
2000
0000
0000
0000
0000
0000
0000
3000
,
0010
1000
0100
1000
0002
0000
0000
0000
0103
0010
1000
0001
0010
0100
1000
0001
,
0100
0000
0000
0010
0000
0000
1000
0000
1001
0000
0000
0000
0001
0000
0000
0000
,
0010
0000
0000
0100
0000
0000
1000
0000
1100
0000
0000
0000
1001
0000
0000
0000
,
0001
0100
0010
0100
0001
1000
0100
1000
,
0001
0010
0100
1000
0001
1000
0010
0100
0001
0010
0001
1000
0100
1000
0001
0100
,
0002
2003
3020
0230
,
0301
1000
0001
0010
0001
0100
0010
1000
,
0001
0010
0100
1000
0010
0000
0100
0001
1000
0100
0010
0001
1000
0000
0010
0100
,
0001
0010
0001
1000
0100
0000
1000
0010
0100
0001
1000
0100
0010
0100
1000
0001
,
1000
0010
0100
0001
0010
0100
1000
0001
0100
0010
1000
0100
0010
0100
1000
0001
,
0010
0001
0100
0010
1000
0001
0010
0100
1000
0010
0100
0001
1000
0001
0010
0100
,
1000
0000
0001
0100
0001
0000
0000
0000
0010
0000
0100
1000
0100
0000
0000
0000
,
1000
0000
0010
0100
0010
0000
0000
0000
0100
0000
0001
1000
0001
0000
0010
0000
,
0100
0000
0000
1000
0000
0001
0000
0100
0010
1000
0001
0100
0001
0010
0100
0010
,
0001
0000
0000
1000
0000
0100
0000
0010
0200
0000
0000
0000
2300
0000
0000
0000
,
3101
0000
0000
0100
0000
0010
0000
1000
0001
0000
0000
0010
0000
0100
0000
1000
,
0001
0000
0000
0000
0000
0000
0000
0000
0000
0100
0000
0000
0010
0000
0000
0000
0000
0000
0000
0000
0000
1000
0000
0000
0001
0000
0000
0000
0010
0000
0000
0000
0100
0000
0000
0000
0010
0000
0000
0000
0000
0000
0001
0000
0000
0000
0000
0000
,
0220
0000
0000
0330
,
1000
0100
0010
0100
1000
0001
0010
0100
1000
0010
0100
0001
1000
0010
1000
0100
,
0010
0100
1000
0001
0100
0010
1000
0001
0010
0001
1000
0010
0100
0010
1000
0001
,
0020
0000
0230
0000
1300
0001
0100
0010
2000
0000
3002
0000
0013
0100
1000
0010
,
0100
0001
1000
0100
1000
0001
0100
0001
0010
0100
1000
0001
0100
0010
1000
0001
,
0020
0000
0230
0000
1300
0001
0100
0010
2000
0000
3002
0000
0013
0100
0010
0001
,
1000
0010
1000
0001
0100
0001
0010
0001
1000
0100
1000
0001
0010
0001
0100
0001
,
1000
0100
0010
0001
1000
0010
0100
0010
1000
0100
0010
0001
0010
0100
1000
0001
,
0100
0010
1000
0001
1000
0100
1000
0001
0010
0001
1000
0001
0100
0010
0100
0001
,
0010
0100
1000
0010
0100
0001
1000
0100
1000
0010
0100
0001
1000
0001
0010
0100
,
2000
3020
0230
0302
0023
0230
2300
3020
,
0130
0001
0010
0100
0010
0001
1000
0010
1000
0100
1000
0001
0100
0001
1000
0100
,
1000
0010
0100
0001
1000
0001
0010
0001
1000
0010
1000
0100
1000
0001
0100
0010
,
1000
0100
0010
0100
1000
0001
0100
0010
1000
0010
0100
0001
0010
0001
1000
0100
,
1000
0010
0100
0001
1000
0001
0100
0001
0010
0001
1000
0100
1000
0001
1000
0010
,
0100
0000
0001
1000
0010
0000
0000
0000
0100
0001
1000
0001
0010
0000
0000
0000
,
0100
0000
1000
0010
0100
0000
0000
0000
0001
0010
0100
0010
0001
0000
1000
0000
,
0010
1000
0100
1000
0001
0000
0010
0000
0022
0000
0000
0000
0000
0000
0000
0000
,
0000
0000
0000
0033
;

//---------------dance-single - 4/4/4/4----------------
#NOTES:
     dance-single:
     4/4/4/4:
     Hard:
     12:
     1.000,1.000,0.091,0.527,1.000,842.000,11.000,64.000,0.000,1.000:
0000
0000
0000
0000
,
0000
0000
0000
0000
,
0001
0100
0010
1000
0001
0010
0100
0010
0001
0100
0010
1000
0001
0010
0100
1000
,
0010
0100
0001
1000
0001
0010
0001
0100
0010
1000
0001
1000
0100
1000
0010
0100
,
0001
1000
0001
0010
0100
1000
0001
0100
,
0010
1000
0001
0010
0100
0010
0001
1000
,
0001
0100
0010
1000
0001
0010
0100
0010
,
0001
1000
0010
0100
0010
1000
0001
0010
,
0001
0100
0001
1000
0010
1000
0100
1000
0001
0100
0010
0100
0001
0010
0100
1000
,
0001
0010
0001
0100
0001
1000
0010
1000
0100
0010
0100
1000
0010
0100
0001
1000
,
0001
0100
0001
0010
0100
1000
0010
0100
0010
1000
0001
0100
0001
0010
0001
1000
,
0100
0010
0100
1000
0010
0100
0010
1000
0001
0010
0001
0100
0001
1000
0010
1000
,
0100
0010
0001
1000
0010
0000
0100
0001
1000
0000
0001
0010
0200
0000
2300
0000
,
3002
0203
0302
0023
0230
2300
3002
0203
,
0301
0000
0010
0000
0001
0000
1000
0000
0100
0000
1000
0001
0100
0000
0010
0000
,
1000
0000
0100
1000
0010
1000
0001
0000
0020
0000
0000
0000
0031
1000
0100
1000
,
0001
0010
0001
1000
0100
1000
0010
1000
0001
0010
0100
0010
0001
0100
0010
1000
,
0001
0100
0001
0010
0001
1000
0100
1000
0010
0100
0010
1000
0100
0010
0001
1000
,
0001
0010
0001
0100
0010
1000
0100
0010
0100
1000
0001
0010
0001
0100
0001
1000
,
0010
0100
0010
1000
0100
0010
0100
1000
0001
0100
0001
0010
0001
1000
0100
1000
,
0020
0000
0230
0000
0301
1000
0010
1000
0200
0000
0310
0001
2000
0000
3020
0000
,
0230
0302
0023
0230
0320
0032
0023
0230
,
2300
0000
3002
0000
0203
0000
0302
0000
0023
0000
0130
1000
0002
0000
0203
0000
,
0320
0000
1030
0001
0010
0001
2000
0000
3020
0000
0000
0000
0130
0001
0010
0100
,
1000
0010
1000
0001
0100
0001
0010
0001
1000
0010
0100
0010
1000
0100
0010
0001
,
1000
0100
1000
0010
1000
0001
0100
0001
0010
0100
0010
0001
0100
0010
1000
0001
,
1000
0010
1000
0100
0010
0001
0100
0010
0100
0001
1000
0010
1000
0100
1000
0001
,
0010
0100
0010
0001
0100
0010
0100
0001
1000
0100
1000
0010
1000
0001
0100
0001
,
0010
0100
1000
0001
1000
0010
0100
0001
,
1000
0100
1000
0001
0100
0001
1000
0100
,
1000
0000
0000
0001
0000
0000
0010
0000
0000
0000
0000
0000
0200
0000
0000
0000
0000
0000
0300
0000
0000
0000
0000
0000
1000
0000
0000
0001
0000
0000
0100
0000
0000
0000
0000
0000
0010
0000
0000
0000
1000
0000
0000
0000
0001
0000
0000
0000
,
0010
0000
0000
0100
0000
0000
0010
0000
0000
0100
0000
0000
1000
0000
0000
0000
0001
0000
0000
0000
1000
0000
0000
0000
0010
0000
0000
0100
0000
0000
0001
0000
0000
0010
0000
0000
0001
0000
0000
1000
0000
0000
0100
0000
0000
1000
0000
0000
,
0001
0100
0010
0100
0001
0010
0001
1000
,
0100
1000
0010
0100
0001
1000
0001
0010
,
0100
1000
0001
0100
0010
1000
0100
1000
,
0001
0010
0001
0100
0010
0100
0001
1000
,
0001
0010
0110
0100
,
1001
1010
0110
0101
,
0001
0000
1000
0100
1000
0000
0001
0000
0100
0000
0010
0100
0010
0000
1000
0000
,
0001
0000
1000
0000
0100
0000
0010
0000
0001
0000
1000
0000
0100
0010
0001
1000
,
0002
0000
0000
0000
,
1003
0010
0100
0001
1000
0001
1000
0001
,
0100
0010
1000
0001
0100
0001
0010
0001
1000
0010
0100
0010
1000
0100
0010
0001
,
1000
0100
1000
0010
1000
0001
0100
0001
0010
0100
0010
0001
0100
0010
1000
0001
,
1000
0010
1000
0100
0010
0001
0100
0010
0100
0001
1000
0010
1000
0100
1000
0001
,
0010
0100
0010
0001
0100
0010
0100
0001
1000
0100
1000
0010
1000
0001
0100
0001
,
0010
0100
1000
0000
0001
0100
0010
0000
0100
0001
1000
0000
0100
0000
0010
0000
,
0100
1000
0001
0000
0100
0010
1000
0000
0001
0010
0100
0000
1000
0000
0001
0000
,
0100
0000
0010
0000
0100
0000
0000
0000
0001
0000
1000
0000
0001
0000
0000
0000
0010
0000
0100
0000
1000
0000
0000
0000
0002
0000
0000
0000
0000
0000
0000
0003
,
0100
0001
0010
0001
2000
0000
0000
0000
3010
0100
0001
1000
0100
0010
0001
1000
,
0010
0000
0000
0100
0000
0000
0001
0000
1001
0000
0000
0000
1000
0000
0000
0000
,
0100
0000
0000
0010
0000
0000
0001
0000
0011
0000
0000
0000
1001
0000
0000
0000
,
1000
0010
0100
0010
1000
0001
0010
0001
,
1000
0100
0010
0001
1000
0001
0100
0010
1000
0100
1000
0001
0010
0001
1000
0010
,
2000
3002
0203
0320
,
1030
0001
1000
0100
1000
0010
0100
0001
,
1000
0100
0010
0001
0100
0000
0010
1000
0001
0010
0100
1000
0001
0000
0100
0010
,
1000
0100
1000
0001
0010
0000
0001
0100
0010
1000
0001
0010
0100
0010
0001
1000
,
0001
0010
0100
1000
0001
0100
0010
1000
,
0100
1000
0001
0010
0001
0100
0010
0100
,
0001
0000
1000
0010
1000
0000
0000
0000
0100
0000
0010
0001
0010
0000
0000
0000
,
0001
0000
0100
0010
0100
0000
0000
0000
0010
0000
1000
0001
1000
0000
0100
0000
,
0010
0000
0000
0001
0000
1000
0000
0010
0100
0001
1000
0010
1000
0100
0010
0100
,
1000
0000
0000
0001
0000
0010
0000
0100
0020
0000
0000
0000
0032
0000
0000
0000
,
1013
0000
0000
0010
0000
0100
0000
0001
1000
0000
0000
0100
0000
0010
0000
0001
,
1000
0000
0000
0000
0000
0000
0000
0000
0000
0010
0000
0000
0100
0000
0000
0000
0000
0000
0000
0000
0000
0001
0000
0000
1000
0000
0000
0000
0100
0000
0000
0000
0010
0000
0000
0000
0100
0000
0000
0000
0000
0000
1000
0000
0000
0000
0000
0000
,
0220
0000
0000
0330
,
0001
0100
0010
0100
0001
0010
0100
1000
,
0001
0100
0001
1000
0100
1000
0010
1000
,
0200
0000
0320
0000
0031
1000
0010
0100
0002
0000
2003
0000
3100
0000
0010
0000
,
0100
1000
0010
0100
0001
0010
0001
1000
,
0200
0000
0320
0000
0031
1000
0010
0100
0002
0000
2003
0000
3100
0010
0100
1000
,
0001
0100
0001
0010
0001
1000
0100
1000
,
0010
1000
0001
0010
0100
1000
0001
0100
,
0010
1000
0001
0010
0001
1000
0010
1000
,
0100
0010
0100
1000
0010
0100
0001
1000
,
0002
0203
0320
2030
3200
0320
0032
0203
,
0310
1000
0100
0010
0100
1000
0001
0100
,
0010
0100
0001
0010
0001
1000
0100
1000
,
0010
1000
0001
0010
0100
1000
0001
1000
,
0010
0100
0010
1000
0100
0010
0100
1000
,
0010
0000
1000
0001
0100
0000
0000
0000
0010
1000
0001
1000
0100
0000
0000
0000
,
0010
0000
0001
0100
0010
0000
0000
0000
1000
0100
0010
0100
1000
0000
0001
0000
,
0100
0001
0010
0001
1000
0000
0100
0000
2200
0000
0000
0000
0000
0000
0000
0000
,
0000
0000
0000
3300
;

//---------------dance-single - ----------------
#NOTES:
     dance-single:
     :
     Medium:
     10:
     0.918,1.000,0.091,0.716,0.416,683.000,11.000,87.000,0.000,1.000:
0000
0000
0000
0000
,
0000
0000
0000
0000
,
0001
0100
0010
1000
0100
0010
0001
1000
,
0010
1000
0001
0100
0001
0010
0100
1000
,
0001
1000
0001
0010
0100
1000
0001
0100
,
0010
1000
0001
0010
0100
0010
0001
1000
,
0001
0100
0010
1000
0001
0010
0100
0010
,
0001
1000
0010
0100
0010
1000
0001
0010
,
0002
0103
0002
1003
0200
1300
0020
1030
,
0002
0103
0002
0013
0200
1300
0020
0130
,
0001
1000
0100
1000
0001
0010
0100
1000
,
0001
0100
0010
0100
0001
0010
0100
1000
,
0100
0010
0001
1000
0010
0000
0100
0001
1000
0000
0001
0010
0200
0000
2300
0000
,
3002
0203
0302
0023
0230
2300
3002
0203
,
0301
0000
0010
0000
0001
0000
1000
0000
0100
0000
1000
0001
0100
0000
0010
0000
,
1000
0000
0100
1000
0010
1000
0001
0000
0020
0000
0000
0000
0031
1000
0100
1000
,
0002
0023
0230
2300
,
3002
0000
0203
0000
0320
0000
1030
0001
,
1000
0100
0010
0100
1000
0001
0100
0010
,
0100
0001
0010
0001
1000
0100
1000
0010
,
0200
0000
0320
0000
1030
0001
0100
0001
0020
0000
0130
1000
0002
0000
0203
0000
,
0320
2030
3200
0320
0230
2300
3200
0320
,
0032
0000
2003
0000
3020
0000
2030
0000
3200
0000
0310
0001
2000
0000
3020
0000
,
0230
0000
0301
1000
0100
1000
0002
0000
0203
0000
0000
0000
0310
1000
0100
0010
,
0002
0103
0002
1003
0200
1300
0020
1030
,
0002
0103
0002
0013
0200
1300
0020
0130
,
0001
1000
0100
1000
0001
0010
0100
1000
,
0001
0100
0010
0100
0001
0010
0100
1000
,
0100
0010
0001
1000
0001
0100
0010
1000
,
0001
0010
0001
1000
0010
1000
0001
0010
,
0001
0000
0000
1000
0000
0000
0100
0000
0000
0000
0000
0000
0020
0000
0000
0000
0000
0000
0030
0000
0000
0000
0000
0000
0001
0000
0000
1000
0000
0000
0010
0000
0000
0000
0000
0000
0100
0000
0000
0000
0001
0000
0000
0000
1000
0000
0000
0000
,
0100
0000
0000
0010
0000
0000
0100
0000
0000
0010
0000
0000
0001
0000
0000
0000
1000
0000
0000
0000
0001
0000
0000
0000
0100
0000
0000
0010
0000
0000
1000
0000
0000
0100
0000
0000
1000
0000
0000
0001
0000
0000
0010
0000
0000
0001
0000
0000
,
1000
0010
0100
0010
1000
0100
1000
0001
,
0010
0001
0100
0010
1000
0001
1000
0100
,
0010
0001
1000
0010
0100
0001
0010
0001
,
1000
0100
1000
0010
0100
0010
1000
0001
,
1000
0100
0110
0010
,
1001
0101
0110
1010
,
1000
0000
0001
0010
0001
0000
1000
0000
0010
0000
0100
0010
0100
0000
0001
0000
,
1000
0000
0001
0000
0010
0000
0100
0000
1000
0000
0001
0000
0010
0100
1000
0001
,
2000
0000
0000
0000
,
3001
0100
0010
1000
0001
1000
0001
1000
,
0001
0010
0001
1000
0010
1000
0100
1000
,
0001
0010
0001
0100
0010
1000
0100
0010
,
0001
1000
0010
1000
0001
0100
0010
1000
,
0001
1000
0100
0010
0001
0100
0010
1000
,
0100
0010
0001
0000
1000
0010
0100
0000
0010
1000
0001
0000
0010
0000
0100
0000
,
0010
0001
1000
0000
0010
0100
0001
0000
1000
0100
0010
0000
0001
0000
1000
0000
,
0010
0000
0100
0000
0010
0000
0000
0000
1000
0000
0001
0000
1000
0000
0000
0000
0100
0000
0010
0000
0001
0000
0000
0000
2000
0000
0000
0000
0000
0000
0000
3000
,
0010
1000
0100
1000
0002
0000
0000
0000
0103
0010
1000
0001
0010
0100
1000
0001
,
0100
0000
0000
0010
0000
0000
1000
0000
1001
0000
0000
0000
0001
0000
0000
0000
,
0010
0000
0000
0100
0000
0000
1000
0000
1100
0000
0000
0000
1001
0000
0000
0000
,
0001
0100
0010
0100
0001
1000
0100
1000
,
0001
0010
0100
1000
0010
0100
0001
0010
,
0002
2003
3020
0230
,
0301
1000
0001
0010
0001
0100
0010
1000
,
0001
0010
0100
1000
0010
0000
0100
0001
1000
0100
0010
0001
1000
0000
0010
0100
,
0001
0010
0001
1000
0100
0000
1000
0010
0100
0001
1000
0100
0010
0100
1000
0001
,
1000
0100
0010
0001
1000
0010
0100
0001
,
0010
0001
1000
0100
1000
0010
0100
0010
,
1000
0000
0001
0100
0001
0000
0000
0000
0010
0000
0100
1000
0100
0000
0000
0000
,
1000
0000
0010
0100
0010
0000
0000
0000
0100
0000
0001
1000
0001
0000
0010
0000
,
0100
0000
0000
1000
0000
0001
0000
0100
0010
1000
0001
0100
0001
0010
0100
0010
,
0001
0000
0000
1000
0000
0100
0000
0010
0200
0000
0000
0000
2300
0000
0000
0000
,
3101
0000
0000
0100
0000
0010
0000
1000
0001
0000
0000
0010
0000
0100
0000
1000
,
0001
0000
0000
0000
0000
0000
0000
0000
0000
0100
0000
0000
0010
0000
0000
0000
0000
0000
0000
0000
0000
1000
0000
0000
0001
0000
0000
0000
0100
0000
0000
0000
0001
0000
0000
0000
1000
0000
0000
0000
0000
0000
0010
0000
0000
0000
0000
0000
,
0220
0000
0000
0330
,
1000
0010
0100
0010
1000
0100
0010
0001
,
1000
0010
1000
0001
0010
0001
0100
0001
,
0020
0000
0230
0000
1300
0001
0100
0010
2000
0000
3002
0000
0013
0000
0100
0000
,
0010
0001
0100
0010
1000
0100
1000
0001
,
0020
0000
0230
0000
1300
0001
0100
0010
2000
0000
3002
0000
0013
0100
0010
0001
,
1000
0010
1000
0100
1000
0001
0010
0001
,
0100
0001
1000
0100
0010
0001
1000
0010
,
0100
0001
1000
0100
1000
0001
0100
0001
,
0010
0100
0010
0001
0100
0010
1000
0001
,
2000
3020
0230
0302
0023
0230
2300
3020
,
0130
0001
0010
0100
0010
0001
1000
0010
,
0100
0010
1000
0100
1000
0001
0010
0001
,
0100
0001
1000
0100
0010
0001
1000
0001
,
0100
0010
0100
0001
0010
0100
0010
0001
,
0100
0000
0001
1000
0010
0000
0000
0000
0100
0001
1000
0001
0010
0000
0000
0000
,
0100
0000
1000
0010
0100
0000
0000
0000
0001
0010
0100
0010
0001
0000
1000
0000
,
0010
1000
0100
1000
0001
0000
0010
0000
0022
0000
0000
0000
0000
0000
0000
0000
,
0000
0000
0000
0033
;
