#TITLE:Where Dragons Rule;
#SUBTITLE:;
#ARTIST:Dragonforce;
#TITLETRANSLIT:;
#SUBTITLETRANSLIT:;
#ARTISTTRANSLIT:;
#CREDIT:B. Abear;
#BANNER:Bn-DragonsRule.png;
#BACKGROUND:Bg-DragonsRule.png;
#LYRICSPATH:;
#CDTITLE:;
#MUSIC:10 - Where Dragons Rule.ogg;
#OFFSET:1.322;
#SAMPLESTART:20.796;
#SAMPLELENGTH:20.400;
#SELECTABLE:YES;
#DISPLAYBPM:195.000;
#BPMS:0.000=141.000,7.000=143.000,16.000=140.000,22.000=141.000,52.000=140.000,64.000=141.000,88.000=143.000,94.000=141.000,100.000=139.000,109.000=141.000,116.000=142.000,131.000=141.000,172.000=94.000,174.000=195.000,988.000=141.000,1003.000=140.500,1009.000=141.000,1030.000=125.000,1030.500=115.000,1031.000=105.000,1031.500=95.000,1032.000=75.000,1032.500=68.000,1033.000=10.000;
#STOPS:242.000=1.846
;
#BGCHANGES:;
// cache tags:
#FIRSTBEAT:3.667;
#LASTBEAT:1033.000;
#SONGFILENAME:Songs/Dragonforce/Where Dragons Rule/Where Dragons Rule.sm;
#HASMUSIC:1;
#HASBANNER:1;
#MUSICLENGTH:349.805;
// end cache tags

//---------------dance-single - B. Abear----------------
#NOTES:
     dance-single:
     B. Abear:
     Challenge:
     15:
     1.000,1.000,0.389,0.169,1.000,2745.000,136.000,59.000,57.000,0.000:

0000
0000
0000
0000
0000
0000
0000
0000
0000
0000
0000
0000
0000
0000
0000
0000
0000
0000
0000
0000
0000
0000
0001
1000
,
0001
0000
0000
0001
1000
0001
0101
0000
,
0001
0000
0000
1000
0000
0000
0000
0000
0010
0000
0000
0000
0110
0000
0000
0100
0000
0000
0001
0000
0000
0010
0000
0000
,
0000
0010
0110
0100
1000
0001
1000
0010
,
0110
0100
0001
1000
0100
1000
1001
0001
,
0010
0100
1000
0001
0101
0000
0100
0010
,
1000
0010
0110
0100
0001
1000
0001
0010
,
0110
0100
1000
0001
0100
0001
1001
0001
,
0000
0010
0100
1000
0000
0000
0001
0000
0000
0100
0000
0000
0110
0000
0000
0010
0000
0000
1000
0000
0000
0001
0000
0000
,
0000
1000
1100
0100
0010
0001
1000
0001
,
0101
0100
0100
0010
1000
0001
0011
0010
,
0001
1000
0001
0100
0110
0010
1000
0001
,
0010
0200
0010
1000
0010
0001
0010
1300
,
1001
0001
0100
0110
0010
1000
1001
0001
,
0010
0110
0100
1000
1001
0001
0100
0010
,
0100
0001
0011
0010
0100
1000
0100
0010
,
0011
0001
1000
0010
0100
0001
1001
1000
,
0100
0010
0001
1000
1010
0010
0100
0101
,
0001
1000
1100
0100
0010
0011
0001
1000
,
1001
0001
0010
0110
0100
1000
1001
0001
,
0100
0010
1000
0000
0001
0000
1000
0000
1100
0000
0100
0000
0010
0000
0001
0000
,
1000
0001
0101
0100
0010
1000
0010
0100
,
0101
0001
1000
0001
0200
2300
3200
0301
,
0010
0000
0100
0000
0002
0000
0203
0300
1100
0000
1000
0000
0001
0000
1001
0000
,
1000
0010
0110
0100
0001
1000
0001
0010
,
0110
0100
1000
1100
0100
0010
0011
0001
,
1000
1010
0010
0100
0101
0001
1000
0100
,
0010
0001
1001
1000
0010
0110
0100
0001
,
1001
1000
0100
0010
0001
1000
0010
0100
,
0001
1000
0100
0010
0001
0000
1000
0000
,
0000
0000
2000
0100
3001
2000
0100
3001
,
2000
0000
0000
3010
0100
0001
1000
0000
,
0200
0000
0300
0010
0001
0000
2000
0000
,
3001
0100
0020
0000
0000
0030
0100
0001
,
2000
0000
0000
3100
0010
0001
2000
0000
,
3020
0000
0130
0001
0010
0000
0020
0000
,
0130
1000
0002
0000
0000
0203
0301
1000
,
0200
0000
0000
0310
0001
1000
0001
0000
,
0200
0000
0300
0010
1000
0000
0002
0000
,
0013
0100
2000
0000
0000
3001
0100
0010
,
2000
0000
0000
3001
0010
0100
1000
0000
,
0002
0000
0103
0010
1010
1000
0001
0010
,
0100
0010
0001
1000
0001
0100
0010
1000
,
2MM2
0000
0000
0000
0MM0
0000
0003
0000
3001
0100
0001
0100
0010
0100
0010
0100
,
0010
1000
0010
1000
0001
1000
0001
1000
0100
0010
0001
1000
0001
0100
0010
1000
,
0010
0100
0001
1000
0100
1000
0001
0010
0100
1000
0001
1000
0001
0100
0001
1000
,
0100
0010
0001
1000
0001
0000
0100
0000
0010
0000
1000
0000
0001
1000
0001
0000
,
0010
0000
0001
0000
1000
0100
1000
0000
0001
0000
0100
0000
0010
0100
0010
0000
,
1000
0000
0001
0000
1000
0100
1000
0000
0001
0010
0100
1000
0001
1000
0010
0100
,
0001
0100
0010
1000
0001
1000
0100
0010
0001
1000
0100
1000
0001
0100
0001
1000
,
0100
0010
0001
1000
0001
0000
1000
0000
0100
0000
0010
0000
0001
1000
0001
0000
,
0100
0000
0010
0000
1000
0010
1000
0000
0001
0000
0100
0010
1000
0001
1000
0001
,
0100
0010
1000
0001
1000
0001
1000
0001
0010
0100
1000
0001
0100
0001
1000
0100
,
1000
0001
0010
0100
1000
0001
0100
0001
0100
0010
1000
0001
1000
0100
0010
0100
,
1000
0001
0010
0001
1000
0000
0010
0000
0100
0000
0001
0000
1000
0001
1000
0000
,
0001
0000
0010
0000
0001
0010
0001
0000
1000
0000
0100
0000
1000
0001
1000
0000
,
0010
0000
0100
0000
0001
0000
1000
0000
0001
1000
0100
0010
0001
1000
0001
1000
,
0001
0100
0010
1000
0010
0100
0001
1000
0100
1000
0001
0100
0001
1000
0001
0010
,
0100
1000
0001
0100
0001
0000
1000
0000
0010
0000
0100
0000
0001
0100
0001
0000
,
1000
0000
0100
0000
1000
0001
1000
0000
0001
0010
0001
0010
0001
0010
0001
0010
,
0100
1000
0001
1000
0010
0100
0010
0100
M0M1
0000
0000
0000
2002
0000
3000
0000
,
1003
0000
0100
0000
1000
0001
1000
0000
0010
0000
0100
0000
0001
0100
0001
0000
,
1000
0000
0100
0000
0010
0100
0010
0000
0001
0000
1000
0000
0001
0000
0100
0000
,
0010
1000
0001
0100
0001
1000
0010
0100
0001
1000
0100
0010
0001
0010
0100
1000
,
0001
0100
0010
1000
0100
1000
0001
0010
0100
1000
0001
1000
0001
0000
0010
0000
,
0100
0000
1000
0000
0001
0100
0001
0000
1000
0000
0010
0000
0100
0010
0100
0000
,
0001
0000
1000
0000
0001
1000
0001
0000
1000
0000
0001
0000
0010
0001
0010
0000
,
0100
1000
0001
0010
0100
1000
0001
0100
0001
1000
0010
0100
0001
1000
0010
1000
,
0001
0010
0001
1000
0100
1000
0001
0010
0100
1000
0001
1000
0010
0000
0100
0000
,
0010
0000
1000
0000
0001
1000
0001
0000
1000
0000
0100
0000
0010
0001
0010
0000
,
0001
0000
1000
0000
0010
1000
0010
0000
0100
0000
0001
0000
1000
0100
1000
0000
,
0001
1000
0001
1000
0010
0100
0001
1000
0100
1000
0001
1000
0001
0010
0100
1000
,
0001
1000
0100
0010
0001
1000
0010
0100
0010
0100
0001
1000
0100
0000
0010
0000
,
0001
0000
1000
0000
0100
1000
0100
0000
0010
0000
0001
0000
1000
0010
1000
0000
,
0001
0100
0001
0100
0001
0100
0001
0100
0010
1000
0001
0010
0100
1000
0100
1000
,
0001
0000
0101
0010
1000
1000
1100
0001
,
0010
0010
0011
0100
1000
1000
1001
0000
,
0001
1000
0100
1000
0001
0010
0100
1000
0001
0100
0001
0100
0010
1000
0001
1000
,
0100
0010
0001
1000
0010
1000
0001
0100
0010
1000
0010
1000
0001
0000
0001
0000
,
1000
1000
1001
0010
0100
0100
0101
0010
,
1000
1000
1100
0001
0010
0010
0011
0000
,
1001
0100
0010
1001
0100
0010
1001
0100
,
1001
0000
0000
0000
0001
1000
0001
1000
0010
0100
0010
0100
0010
0100
0010
0100
,
0001
0000
1000
0000
0001
0010
0001
0000
1000
0000
0100
0000
1000
0001
1000
0000
,
1001
0000
0001
0000
1000
0100
1000
0000
0001
0000
0010
0000
0100
1000
0100
0000
,
1100
0000
1000
0000
0001
0100
0001
0000
1000
0000
0010
0000
1000
0100
1000
0000
,
1100
0000
0100
0000
0010
0001
1000
0000
1001
0000
0001
0000
0100
0010
1000
0001
,
1000
0000
0001
0000
1000
0100
1000
0000
0001
0000
0010
0000
0100
0010
0100
0000
,
0110
0000
0010
0000
0001
1000
0001
0000
1000
0000
0010
0000
0100
0001
0100
0000
,
0101
0000
0001
0000
1000
0100
1000
0000
0001
0000
0010
0000
0100
1000
0100
0000
,
1000
0001
0100
0010
1000
0000
0000
0000
0001
0000
1000
0000
0100
0000
1000
0000
,
0001
0000
0100
0000
0010
1000
0010
0000
0100
0000
0001
0000
1000
0100
1000
0000
,
1001
0000
0001
0000
1000
0001
1000
0000
0010
0000
1000
0000
0001
0010
0001
0000
,
0011
0000
0010
0000
0100
1000
0100
0000
1000
0000
0001
0000
0100
0001
0100
0000
,
0001
1000
0001
1000
0001
0000
0000
0000
1000
0000
0001
0000
1000
0100
0010
0001
,
1000
0000
0010
0000
0100
0001
0100
0000
0001
0000
1000
0000
0001
0000
1000
0000
,
0001
0010
0001
0010
0001
0010
0001
0010
0100
1000
0001
0100
0010
1000
0010
0100
,
0001
1000
0001
1000
0001
1000
0010
0100
0001
1000
0001
1000
0010
0100
0001
1000
,
0010
0100
0001
1000
0001
1000
0010
0100
0001
1000
0001
1000
0010
0100
0001
1000
,
0001
0010
0100
1000
0001
0010
0100
1000
0001
0010
0100
1000
0001
0010
0100
1000
,
0001
0100
0001
0100
0010
0000
1000
0000
0001
0010
0001
0010
0100
0000
0100
0000
,
1000
0001
1000
0001
1000
0010
0100
0001
0100
0010
1000
0001
0010
0001
1000
0100
,
0010
0001
1000
0001
1000
0010
1000
0001
0010
0100
1000
0001
1000
0000
0010
0000
,
0100
0000
0001
0000
1000
0001
1000
0000
0100
0000
1000
0000
0001
0010
0001
0000
,
1000
0000
0010
0000
0100
0010
0100
0000
0001
0000
1000
0000
0001
0000
0100
0000
,
0001
0010
0100
1000
0001
1000
0010
0100
0001
0100
0010
1000
0001
1000
0100
0010
,
0001
1000
0100
1000
0001
0100
0001
1000
0100
0010
0001
1000
0001
0000
1000
0000
,
0100
0000
0010
0000
0001
1000
0001
0000
0100
0000
0010
0000
1000
0010
1000
0000
,
0001
1000
0001
0100
0001
1000
0001
1000
0010
0100
0001
1000
0001
1000
0001
1000
,
0100
0010
0001
1000
0010
1000
0001
0010
0001
1000
0100
0010
0001
1000
0010
1000
,
0010
0100
0001
1000
0001
0010
0100
0010
0001
1000
0100
1000
0001
0000
0100
0000
,
0010
0000
1000
0000
0001
1000
0001
0000
1000
0000
0100
0000
1000
0100
1000
0000
,
0001
0000
0010
0000
0001
1000
0001
0000
0100
0000
0010
0000
1000
0000
0001
0000
,
1000
0001
0010
0100
1000
0001
1000
0001
1000
0010
0100
0001
0100
0010
1000
0001
,
0010
0001
1000
0010
1000
0001
1000
0100
0010
0001
1000
0010
1000
0000
0001
0000
,
0100
0000
0010
0000
1000
0010
1000
0000
0001
0000
0010
0000
0001
1000
0001
0000
,
1000
0100
1000
0100
1000
0100
1000
0100
0010
0001
1000
0001
0100
0010
1000
0001
,
1000
0000
1010
0100
0001
0001
0011
1000
,
0100
0100
1100
0010
0001
0001
1001
0000
,
1000
0001
0010
0001
1000
0100
0010
0001
1000
0010
1000
0010
0100
0001
1000
0001
,
0010
0100
1000
0001
0100
0001
1000
0010
0100
0001
0100
0001
1000
0000
1000
0000
,
0001
0001
1001
0100
0010
0010
1010
0100
,
0001
0000
0001
0000
0011
0000
1000
0000
0100
0000
0100
0000
1100
0000
1000
0001
,
0100
0010
0100
1001
0010
0100
1001
0010
,
1001
0000
0000
0000
1000
0001
1000
0001
0100
0010
0100
0010
0100
0010
0100
0010
,
1000
0000
0001
0000
1000
0100
1000
0000
0001
0000
0010
0000
0001
1000
0001
0000
,
1001
0000
1000
0000
0001
0010
0001
0000
1000
0000
0100
0000
0010
0001
0010
0000
,
0011
0000
0001
0000
1000
0010
1000
0000
0001
0000
0100
0000
0001
0010
0001
0000
,
0011
0000
0010
0000
0100
1000
0001
0000
1001
0000
1000
0000
0010
0100
0001
0000
,
1000
0000
0001
0000
1000
0100
1000
0000
0001
0000
0010
0000
0100
0010
0100
0000
,
0110
0000
0010
0000
0001
1000
0001
0000
1000
0000
0010
0000
0100
0001
0100
0000
,
0101
0000
0001
0000
1000
0100
1000
0000
0001
0000
0010
0000
0100
1000
0100
0000
,
1000
0000
0001
0000
1000
0100
1000
0000
0001
0000
1000
0000
0100
0010
0001
1000
,
0001
0000
0100
0000
0010
1000
0010
0000
0100
0000
0001
0000
1000
0100
1000
0000
,
1001
0000
0001
0000
1000
0001
1000
0000
0010
0000
1000
0000
0001
0010
0001
0000
,
0011
0000
0010
0000
0100
1000
0100
0000
1000
0000
0001
0000
0100
0001
0100
0000
,
0101
0000
0001
0000
1000
0100
0010
0000
0011
0000
0001
0000
1000
0010
0100
0000
,
0101
0000
0001
0000
1000
0001
1000
0000
0001
0000
1000
0000
0001
0010
0001
0000
,
1000
0100
1000
0100
1000
0100
1000
0100
0010
0001
1000
0010
0100
0001
0100
0010
,
1000
0001
1000
0001
1000
0001
0100
0010
1000
0001
1000
0001
0100
0010
1000
0001
,
0100
0010
1000
0001
1000
0001
0100
0010
1000
0001
1000
0001
0100
0010
1000
0001
,
1000
0100
0010
0001
1000
0100
0010
0001
1000
0100
0010
0001
1000
0100
0010
0001
,
1000
0010
1000
0010
0100
0000
0001
0000
1000
0100
1000
0100
0010
0000
0010
0000
,
0001
0000
0001
0000
1000
0010
1000
0000
0010
0000
0010
0000
0100
0001
0100
0000
,
0001
0000
0001
0000
1000
0100
1000
0000
0001
0000
0001
0000
0010
0100
1000
0001
,
2000
0000
0000
0000
3001
0100
0001
1000
0100
0010
0001
1000
0001
0010
0001
1000
,
1M1M
0010
0100
0001
1000
0100
1100
1000
0001
0010
0100
1000
,
1001
0001
0100
0010
1000
0001
MM11
0000
0000
M11M
0000
0000
,
11MM
0100
0010
0001
1000
0001
0101
0100
0010
1000
0001
1000
,
1100
0100
0010
0001
1000
0010
1M1M
0000
0000
M11M
0000
0000
,
0101
0000
0001
0000
1000
0100
1000
0100
1000
0000
0001
0000
1000
0010
1000
0010
,
1000
0000
0100
0000
0010
0001
0010
0000
MM11
0000
0000
0000
1MM1
0000
0000
0000
,
1M1M
0000
0000
0000
1000
0000
0001
0000
0010
0000
0010
0000
0100
1000
0100
1000
,
0001
0100
0010
1000
0010
1000
0001
0010
0100
1000
0001
0100
0001
1000
0100
0010
,
0002
0000
0000
0000
0000
0003
0002
0000
0000
0000
0000
0000
1003
0000
0010
0000
,
0100
0001
1000
0001
0010
0000
0200
0000
0000
0000
1300
0000
0001
0000
0100
0000
,
0020
0000
0000
0000
0000
0030
0020
0000
0000
0000
0130
0001
1000
0000
0001
0000
,
2000
0000
3001
2000
0000
0000
3001
0010
,
0200
0000
1300
0001
0100
0001
2000
0000
3010
0100
0001
1000
0002
0000
1003
0100
,
0020
0000
0031
1000
0100
1000
0002
0000
0103
0010
1000
0001
1000
0000
0100
0000
,
0020
0000
0000
0000
0000
0030
0020
0000
0000
0000
0130
0000
0010
0000
0100
0000
,
1000
0000
1000
0001
0100
0000
0020
0000
0000
0000
0130
0000
0001
0000
1000
0000
,
0001
0100
0001
0100
0001
1000
0001
1000
0001
0010
0001
0010
0001
1000
0001
1000
,
0100
0010
0100
0010
0100
1000
0100
1000
0100
0010
0100
0010
0100
1000
0100
1000
,
0001
0000
0001
0000
1000
0010
0100
0001
1000
0100
1000
0001
0010
0100
1000
0001
,
1000
0000
0010
0100
0001
1000
0001
1000
0100
0010
0001
0000
1000
0100
1000
0100
,
0020
0000
0000
0032
0000
0000
4003
0000
0000
0000
3001
0000
0100
0000
0010
0000
,
2000
0000
0000
3002
0000
0000
0403
0000
0000
0000
0301
0000
1000
0000
0100
0000
,
1000
0010
0100
0001
1000
0100
1000
0001
0010
0100
1000
0001
0010
0001
1000
0010
,
0100
0010
1000
0001
1000
0001
0100
0010
1000
0001
1000
0001
1001
0000
0000
0000
,
1000
0100
0010
0001
1000
0100
0010
0001
1000
0100
0010
0001
1000
0100
0010
0001
,
1000
0100
0010
0001
1000
0010
0100
0001
0200
0000
0000
0000
0320
0000
0000
0000
,
1030
0001
0100
0001
1000
0000
0100
0000
0010
0000
0001
0000
0010
0000
0100
0000
,
1000
0000
0001
0000
1000
0010
0100
0001
2000
0000
0000
0000
0000
0000
0000
0000
,
3004
0000
0400
0003
0040
0300
4000
0030
,
0004
0000
0000
0000
3000
0000
0000
0000
0040
0000
0000
0000
0003
0000
0000
0000
0400
0000
0000
0000
0030
0000
0000
0300
1001
0000
0000
0000
1001
0000
0000
0000
,
0001
0000
0000
0000
0000
0000
0000
0000
0000
0000
0000
0000
0000
0000
0000
0000
0000
0100
0000
0000
0000
0000
0000
0000
0000
0000
0000
0000
0000
0000
0000
0000
0000
0010
0000
0000
0000
0000
0000
0000
0000
0000
0000
0000
0000
0000
0000
0000
1000
0000
0000
0000
0000
0000
0000
0000
0000
0000
0000
0000
0000
0000
0000
0000
0000
0001
0000
0000
0000
0000
0000
0000
0000
0000
0000
0000
0000
0000
0000
0000
0000
0010
0000
0000
0000
0000
0000
0000
0000
0000
0000
0000
0000
0000
0000
0000
0100
0000
0000
0000
0000
0000
0000
0000
0000
0000
0000
0000
0000
0000
0000
0000
0000
1000
0000
0000
0000
0000
0000
0000
0000
0000
0000
0000
0000
0000
0000
0000
0000
0010
0000
0000
0000
0000
0000
0000
0000
0000
0000
0000
0000
0000
0000
0000
0100
0000
0000
0000
0000
0000
0000
0000
0000
0000
0000
0000
0000
0000
0000
0000
0000
0001
0000
0000
0000
0000
0000
0000
0000
0000
0000
0000
0000
0000
0000
0000
0000
1000
0000
0000
0000
0000
0000
0000
0000
0000
0000
0000
0000
0000
0000
0000
,
0010
0100
0001
1000
0001
1000
0001
1000
0010
0100
0001
1000
0001
1000
0001
1000
,
0100
0100
0100
0100
0100
0100
1000
0001
,
0200
0000
0000
0040
0000
0000
0000
0330
,
0101
0001
1000
0100
0010
0001
0010
0100
1000
0001
1000
0010
,
0200
0000
0000
0000
0000
0000
0000
0000
0000
0000
0000
0000
0301
0000
0000
0000
1000
0000
0000
0000
0001
0000
0000
0000
2000
0000
0000
0000
0000
0000
0000
0000
0000
0000
0000
0000
3100
0000
0000
M000
0000
0000
0010
0000
0000
0000
0000
0000
,
0001
0010
0100
1000
0001
0100
0001
1000
0100
1000
0100
0010
0001
1000
0010
1000
,
0001
0000
0000
0100
0000
0000
0010
0000
0000
0100
0000
0000
0001
0000
0000
1000
0000
0000
0001
0000
0000
0010
0000
0000
0100
0000
0000
0000
1000
0000
0000
0000
0001
0000
0000
0000
0100
0000
0000
0010
0000
0000
1000
0000
0000
0000
0000
0000
,
0001
1000
0001
1000
0100
1000
0100
1000
0100
0010
0100
0010
0001
0010
0001
0010
,
0100
1000
0100
1000
0001
1000
0001
1000
0001
0100
0001
0100
0010
0100
0010
0100
,
0001
1000
0100
0010
0001
0010
0100
1000
,
1001
0001
0100
0010
1000
0001
1000
0010
,
0110
0100
0001
1000
0010
1000
0001
0010
,
0200
0000
1300
0002
0000
0000
0023
0000
,
0130
1000
0001
1000
0010
0100
0001
1000
0100
1000
0001
0010
0001
1000
0010
1000
,
0001
0010
0100
1000
0001
0100
0001
1000
0200
0000
0000
0310
0001
0000
1000
0000
,
0001
0100
0010
1000
0001
1000
0001
0010
0100
1000
0001
0010
0001
0010
0100
0010
,
0001
1000
0010
0100
0010
0100
0001
1000
0010
0100
0010
1000
1001
0000
0000
0000
,
0001
0010
0001
0010
0400
0000
0000
0000
1300
0001
1000
0001
0400
0000
0000
0000
,
0310
1000
0001
0010
0100
1000
0010
0100
0001
1000
0100
0010
0004
0000
0000
0000
,
1003
0100
0010
0001
1000
0010
1000
0001
0100
0001
1000
0100
1000
0000
0001
0100
,
0010
1000
0010
0100
0001
1000
0001
0010
0100
1000
0001
1000
0200
0000
0000
0000
,
0310
0001
0010
0001
1000
0001
1000
0001
0010
0001
0010
0001
1000
0001
1000
0001
,
0100
0010
1000
0001
0100
0001
1000
0100
1000
0001
0010
0100
1000
0001
1000
0001
,
0100
0010
0100
0010
0100
0010
1000
0010
1000
0010
1000
0010
1000
0001
1000
0001
,
0010
0001
0010
0001
0010
0001
0010
0100
0010
0100
0010
0100
1000
0100
1000
0100
,
0010
0001
1000
0001
0100
0010
1000
0001
1000
0100
0010
0001
1000
0001
0100
0010
,
1000
0001
0010
0100
1000
0001
0010
0001
1000
0001
1000
0001
0100
0000
0010
0000
,
1MM1
0000
000M
0000
0000
0000
M000
0000
0000
0000
0M00
0000
,
0000
0000
000M
0000
0M00
0000
0000
0000
0000
00M0
0000
0000
,
M000
0000
000M
0000
0000
0000
0000
00M0
0000
0000
0M00
0000
,
0000
0000
0000
000M
M000
0000
0000
0000
0000
0000
M000
0000
,
0M00
0000
0000
0000
0000
00M0
0000
0000
000M
0000
0000
0000
,
M000
0000
0000
0000
0000
0000
0000
0000
0000
0000
0000
0000
0000
0000
0000
0000
00M0
0000
0000
0000
0000
0000
0000
0000
0000
0000
0000
0000
M000
0000
0000
0000
0000
0000
0000
0000
0001
0000
0000
1000
0000
0000
0001
0000
0000
1000
0000
0000
,
01M0
0000
0000
0000
0M10
0000
0100
0000
0000
0000
0M10
0000
0100
0010
0001
1000
,
0001
0000
0000
0000
0100
0010
1000
0001
1000
0001
1000
0001
0010
0001
0010
0001
,
1000
0000
0001
0000
1000
0100
1000
0000
0001
0000
0010
0000
0001
1000
0001
0000
,
1001
0000
1000
0000
0001
0010
0001
0000
1000
0000
0100
0000
0010
0001
0010
0000
,
0011
0000
0001
0000
1000
0010
1000
0000
0001
0000
0100
0000
0001
0010
0001
0000
,
0011
0000
0010
0000
0100
1000
0001
0000
1001
0000
1000
0000
0010
0100
0001
1000
,
0001
0000
1000
0000
0001
0010
0001
0000
1000
0000
0100
0000
0010
0100
0010
0000
,
0110
0000
0100
0000
1000
0001
1000
0000
0001
0000
0100
0000
0010
1000
0010
0000
,
1010
0000
1000
0000
0001
0010
0001
0000
1000
0000
0100
0000
0010
0001
0010
0000
,
0001
1000
0010
0100
0001
1000
0001
0010
0100
1000
0001
1000
0001
0100
0010
1000
,
0001
0000
0010
0000
0100
1000
0100
0000
0010
0000
0001
0000
1000
0100
1000
0000
,
1001
0000
0001
0000
1000
0001
1000
0000
0010
0000
1000
0000
0001
0010
0001
0000
,
0011
0000
0010
0000
0100
1000
0100
0000
1000
0000
0001
0000
0100
0001
0100
0000
,
0001
0000
1000
0000
0010
0100
0010
0000
1000
0000
0001
0000
1000
0100
1000
0000
,
0001
0000
0010
0000
0001
1000
0001
0000
1000
0000
0001
0000
1000
0000
0001
0000
,
1000
0100
1000
0100
1000
0100
1000
0100
0010
0001
1000
0010
0100
0001
0100
0010
,
1000
0001
1000
0001
1000
0001
0100
0010
1000
0001
1000
0001
0100
0010
1000
0001
,
0100
0010
1000
0001
1000
0001
0100
0010
1000
0001
1000
0001
0100
0010
1000
0001
,
1000
0100
0010
0001
1000
0100
0010
0001
1000
0100
0010
0001
1000
0100
0010
0001
,
1000
0010
1000
0010
0100
0001
1000
0001
0010
0100
1000
0001
0100
0000
0100
0000
,
0001
1000
0001
1000
0001
0100
0010
1000
0010
0100
0001
1000
0100
1000
0001
0010
,
0100
1000
0001
1000
0001
0100
0001
1000
0100
0010
0001
1000
0001
0010
0100
1000
,
0001
0100
0001
1000
0010
1000
0001
0010
0100
1000
0100
0010
0001
1000
0010
1000
,
0010
0100
0001
1000
0100
1000
0001
0010
0100
1000
0001
0010
0001
1000
0010
1000
,
0010
0100
0001
1000
0001
1000
0010
0100
0001
1000
0001
0100
0010
1000
0001
0010
,
0001
1000
0100
1000
0001
0100
0010
1000
0010
0100
0001
1000
0100
0010
0001
1000
,
0100
0010
0001
1000
0001
1000
0100
0010
0001
1000
0010
1000
0001
0100
0001
1000
,
0010
0100
0001
1000
0001
1000
0010
0100
0001
1000
0001
1000
0001
0000
1000
0000
,
0001
0010
0100
1000
0001
0010
0100
0010
0001
1000
0010
1000
0001
0100
0001
0100
,
0010
1000
0001
0010
0001
1000
0100
1000
0001
0100
0010
0100
0001
1000
0100
1000
,
0001
0010
0100
1000
0001
0010
0100
0010
0100
1000
0001
0100
0001
1000
0010
0100
,
0001
1000
0001
1000
0001
1000
0100
0010
0001
1000
0010
1000
0001
0010
0001
1000
,
0100
0010
0001
1000
0010
1000
0001
1000
0001
0010
0100
1000
0001
0100
0010
0100
,
0001
1000
0001
1000
0001
1000
0001
1000
0001
1000
0001
1000
0001
1000
0001
1000
,
0100
0010
0001
1000
0001
1000
0100
0010
0001
1000
0001
1000
0100
0010
0001
1000
,
0010
0100
0001
1000
0001
1000
0010
0100
0001
1000
0001
1000
0010
0100
0001
1000
,
0010
0100
0010
0100
0001
0100
0001
0100
0001
1000
0001
1000
0100
1000
0100
1000
,
0MM1
0000
0000
1000
0100
0010
0011
0000
,
0001
0100
0000
0010
1010
1000
0001
0010
,
0000
0000
0000
0000
0001
0000
0000
0000
0101
0000
0000
0000
0100
0000
0000
0000
0001
0000
0000
0000
0001
1000
0000
0000
0000
0000
0000
0000
0100
0000
0000
0000
,
0110
0010
0001
1000
0100
1000
1001
0001
,
0100
0001
0010
0100
1100
1000
0001
1000
,
1000
0001
0101
0100
0010
0100
0001
1000
,
0100
0000
0000
0000
0010
0001
1001
0000
,
1000
0000
0000
0000
0000
0000
0000
0000
0000
0000
0000
0000
1010
0000
0000
0000
0000
0000
0000
0010
0100
0001
0000
0000
,
1000
0100
1100
1000
0001
0101
0001
1000
,
1010
0010
0100
0001
1000
0100
0110
0010
,
0001
1000
0010
0100
00M1
0M10
M100
100M
,
0M01
01M0
0010
0000
0000
0000
0000
0000
;
