#TITLE:Monstrous Turtles;
#SUBTITLE:;
#ARTIST:zircon;
#TITLETRANSLIT:;
#SUBTITLETRANSLIT:;
#ARTISTTRANSLIT:;
#CREDIT:;
#BANNER:../bn.png;
#BACKGROUND:../bg.png;
#LYRICSPATH:;
#CDTITLE:;
#MUSIC:Super_Mario_World_-_Monstrous_Turtles!_OC_ReMix.ogg;
#OFFSET:-0.005;
#SAMPLESTART:50.100;
#SAMPLELENGTH:16.900;
#SELECTABLE:YES;
#DISPLAYBPM:180.000:230.000;
#BPMS:0.000=230.003,469.000=227.000,470.000=224.000,471.000=221.000,472.000=218.000,473.000=215.000,474.000=212.000,475.000=209.000,476.000=206.000,477.000=203.000,478.000=200.000,479.000=197.000,480.000=194.000,481.000=191.000,482.000=188.000,483.000=185.000,484.000=180.000;
#STOPS:;
#BGCHANGES:;
// cache tags:
#FIRSTBEAT:32.000;
#LASTBEAT:499.750;
#SONGFILENAME:Songs/Cirque du Zonda/Zaia - Monstrous Turtles/Super_Mario_World_-_Monstrous_Turtles!_OC_ReMix.sm;
#HASMUSIC:1;
#HASBANNER:1;
#MUSICLENGTH:144.115;
// end cache tags

//---------------dance-single - Zaia - 17.0----------------
#NOTES:
     dance-single:
     Zaia - 17.0:
     Challenge:
     17:
     1.000,1.000,0.000,0.049,1.000,1031.000,0.000,7.000,4.000,0.000:
0000
0000
0000
0000
,
0000
0000
0000
0000
,
0000
0000
0000
0000
,
0000
0000
0000
0000
,
0000
0000
0000
0000
,
0000
0000
0000
0000
,
0000
0000
0000
0000
,
0000
0000
0000
0000
,
1000
0100
0010
0001
1000
0001
0100
0010
,
0000
0100
0001
1000
0001
0000
0010
0000
,
0100
1000
0001
0100
0010
1000
0001
0010
,
0000
0100
1000
0001
0100
0010
0100
0010
,
1000
0001
0010
0100
0010
0001
0100
0010
,
0000
0100
0001
1000
0001
0000
0010
0000
,
0100
0000
0000
1000
0001
0000
0000
1000
,
0001
0000
1000
0000
0010
0100
0010
0100
,
0001
1000
0010
0100
0001
1000
0010
0100
,
0001
1000
0010
0100
0001
1000
0010
0100
,
0001
0010
0100
1000
0001
0010
0100
1000
,
0001
0010
0100
1000
0001
0010
0100
1000
,
0001
0100
0010
0100
0001
1000
0100
1000
,
0001
0010
0100
0010
0001
1000
0010
1000
,
0001
0100
0010
0100
0001
1000
0100
1000
,
0001
0010
0100
0010
0001
1000
0010
1000
,
0002
0000
0000
0000
,
0023
0000
0230
0000
,
2300
0000
3020
0000
,
0130
0000
0001
0000
0010
0100
1000
0001
,
0010
0000
0000
0000
0000
0000
0000
0000
0001
0000
0000
0000
0000
0000
0000
0000
0100
0000
0000
0000
0000
0000
0000
0000
0010
0000
0000
1000
0000
0000
0001
0000
0000
1000
0000
0000
0010
0000
0000
0100
0000
0000
0001
0000
0000
1000
0000
0000
,
0010
0000
0100
0000
0001
0000
1000
0000
0100
0010
0001
1000
0001
1000
0010
0100
,
0002
0000
0000
0000
,
2003
0000
0000
0000
0000
0000
0000
0000
3001
0010
0100
1000
0001
0010
0100
1000
,
0001
0100
0001
1000
0100
1000
0001
1000
0100
0010
0100
1000
0001
1000
0010
0100
,
0001
0010
0100
1000
0001
1000
0100
0010
0100
1000
0001
1000
0010
0100
0001
1000
,
0001
0010
0001
1000
0010
1000
0001
1000
0010
0100
0010
1000
0001
1000
0100
0010
,
0001
0100
0010
1000
0001
1000
0010
0100
0010
1000
0001
1000
0100
0010
0001
1000
,
0010
1000
0001
0010
0100
0010
0001
1000
0001
0100
0010
1000
0001
1000
0100
1000
,
0010
0100
0001
1000
0001
0100
0010
1000
0001
0010
0100
0010
0001
1000
0010
1000
,
0001
1000
0001
0100
0010
0100
0001
1000
0001
0010
0100
1000
0001
1000
0010
1000
,
0100
0010
0001
1000
0001
0010
0100
1000
0001
0100
0010
0100
0001
1000
0100
1000
,
0001
0100
0010
1000
0001
1000
0010
0100
0010
1000
0001
0010
0001
1000
0010
0100
,
0001
0010
0100
1000
0100
0010
0001
1000
0010
0100
0001
1000
0100
1000
0001
0100
,
0010
0100
0001
1000
0100
1000
0001
0010
0100
1000
0001
0100
0001
1000
0100
0010
,
0001
0100
0010
1000
0010
0100
0001
1000
0100
0010
0001
1000
0010
1000
0001
0010
,
0100
0010
0001
1000
0010
1000
0001
1000
0100
0010
0001
1000
0001
0010
0100
1000
,
0010
1000
0001
0010
0100
0010
0001
1000
0001
0100
0010
1000
0001
1000
0010
1000
,
0001
0010
0001
1000
0010
1000
0001
1000
0100
0010
0001
1000
0001
0100
0010
1000
,
0100
1000
0001
0100
0010
0100
0001
1000
0001
0010
0100
1000
0001
1000
0100
1000
,
0001
0010
0001
1000
0010
1000
0001
1000
0010
0100
0010
1000
0001
1000
0010
0100
,
0001
0010
0100
1000
0001
1000
0100
0010
0100
1000
0001
1000
0010
0100
0001
1000
,
0001
0010
0001
1000
0010
1000
0001
1000
0010
0100
0010
1000
0001
1000
0100
0010
,
0001
0100
0010
1000
0001
1000
0010
0100
0010
1000
0001
1000
0100
0010
0001
1000
,
0010
1000
0001
0010
0100
0010
0001
1000
0001
0100
0010
1000
0001
1000
0100
1000
,
0010
0100
0001
1000
0001
1000
0100
1000
0001
0100
0010
0100
0001
1000
0100
1000
,
0001
1000
0001
0010
0100
0010
0001
1000
0001
0100
0010
1000
0001
1000
0010
1000
,
0100
0010
0001
1000
0001
1000
0010
1000
0001
0010
0100
0010
0001
1000
0010
1000
,
0001
0000
0100
0010
1000
0000
0001
0000
,
0010
0100
1000
0000
0010
0000
0000
0000
,
0100
0000
0001
0100
0010
0000
1000
0100
,
0010
0001
1000
0000
0010
0100
0010
1000
,
0001
0000
0100
0010
1000
0000
0001
0000
,
0010
0001
1000
0000
0010
0000
0000
0000
,
0100
0000
0010
0100
0001
0000
0010
0100
,
1000
0001
0100
0000
0010
1000
0100
1000
,
0001
0000
0010
0100
1000
0000
0001
0000
,
0100
0010
1000
0000
0100
0000
0000
0000
,
0010
0000
0001
0010
0100
0000
1000
0010
,
0100
0001
1000
0000
0100
0010
0100
1000
,
0001
0000
0010
0100
1000
0000
0001
0000
,
0100
0001
1000
0000
0100
0000
0000
0000
,
0010
0100
0010
0100
1000
0001
1000
0001
,
0100
0000
0001
0000
0100
0000
0001
0000
1000
0010
0100
0001
1000
0000
0010
0000
,
0000
0000
0000
0000
,
0000
1000
0000
0000
,
0000
0001
0000
0010
,
0000
0100
0000
0010
,
0000
0000
0000
0000
,
0000
0000
0000
0001
,
0000
0100
0000
0010
,
0000
1000
0000
0000
,
0000
0001
0000
0000
,
0000
0000
1000
0010
1000
0000
0001
0010
,
0001
1000
0010
0000
,
0100
0001
0010
0100
,
1000
0010
0000
0000
,
0000
0000
1000
0100
1000
0000
0001
0100
,
0001
0010
0100
0000
,
0010
0000
0001
1000
0001
1000
0001
1000
,
0001
0000
1000
0000
0001
0000
1000
0000
0001
0000
1000
0000
0010
1000
0001
1000
,
0010
0000
1000
0000
0001
0010
0001
1000
0010
1000
0001
1000
0010
0100
0010
1000
,
0001
1000
0100
0010
0001
0100
0010
1000
0001
1000
0010
0100
0010
1000
0001
1000
,
0100
0010
0001
1000
0001
0100
0001
1000
0100
1000
0001
1000
0100
0010
0100
1000
,
0001
1000
0010
0100
0001
0010
0100
1000
0001
1000
0100
0010
0100
1000
0001
1000
,
0010
0100
0001
1000
0100
1000
0001
0100
0010
0100
0001
1000
0001
0010
0100
1000
,
0001
1000
0010
1000
0100
0010
0001
1000
0001
0010
0100
1000
0001
0100
0010
0100
,
0001
1000
0100
1000
0001
1000
0001
0010
0100
0010
0001
1000
0001
0100
0010
1000
,
0001
1000
0100
1000
0010
0100
0001
1000
0001
0100
0010
1000
0001
0010
0100
0010
,
0001
1000
0010
1000
0001
0010
0100
1000
0001
1000
0100
0010
0100
1000
0001
0100
,
0001
1000
0100
0010
0001
0100
0010
1000
0010
0100
0001
1000
0100
0010
0001
1000
,
0010
1000
0001
0010
0100
0010
0001
1000
0010
1000
0001
0100
0010
1000
0001
0010
,
0001
1000
0010
0100
0001
0010
0100
1000
0100
0010
0001
1000
0010
0100
0001
1000
,
0100
1000
0001
0100
0010
0100
0001
1000
0100
1000
0001
1000
0010
0100
0001
1000
,
0001
0100
0010
1000
0100
1000
0001
0100
0010
0100
0001
1000
0001
0010
0100
1000
,
0001
1000
0100
1000
0001
0100
0001
1000
0100
1000
0001
1000
0010
0100
0001
1000
,
0001
0010
0100
1000
0010
1000
0001
0010
0100
0010
0001
1000
0001
0100
0010
1000
,
0001
1000
0010
1000
0001
0000
0000
0000
0100
0000
0010
0000
1000
0000
0000
0000
,
0100
0010
0001
0000
0100
0010
1000
0000
,
0001
0000
0010
0000
0100
1000
0001
0000
,
0100
0001
1000
0000
0100
1000
0001
0000
,
0010
0000
0100
0000
0010
0001
1000
0000
,
0010
1000
0001
0000
0100
0001
1000
0000
,
0010
0000
0100
0000
0010
0100
0001
0000
,
0010
0100
1000
0000
0010
0100
0001
0000
,
0010
0000
0100
0000
0010
0001
0010
0000
,
0001
1000
0001
0000
1000
0010
1000
0000
,
0001
0000
0100
0000
0010
0100
0010
0000
,
1000
0001
1000
0000
0100
0010
0100
0000
,
1000
0000
0001
0000
1000
0100
1000
0000
,
0001
0100
0001
0000
1000
0100
0010
0000
,
0001
0000
0100
0000
0010
1000
0001
0000
,
0010
0100
1000
0000
0010
0100
0001
0000
,
1000
0000
0000
0000
,
0000
0000
0000
0000
,
0000
0000
0000
0000
,
0000
0000
0000
0000
0000
0000
0000
0000
0000
0000
0000
0000
0000
0000
0000
MMMM
;

//---------------dance-single - Zaia - 16.0----------------
#NOTES:
     dance-single:
     Zaia - 16.0:
     Hard:
     16:
     0.815,1.000,0.000,0.187,0.729,795.000,0.000,27.000,4.000,0.000:
0000
0000
0000
0000
,
0000
0000
0000
0000
,
0000
0000
0000
0000
,
0000
0000
0000
0000
,
0000
0000
0000
0000
,
0000
0000
0000
0000
,
0000
0000
0000
0000
,
0000
0000
0000
0000
,
1000
0100
0010
0001
1000
0001
0100
0010
,
0000
0100
0001
1000
0001
0000
0010
0000
,
0100
1000
0001
0100
0010
1000
0001
0010
,
0000
0100
1000
0001
0100
0010
0100
0010
,
1000
0001
0010
0100
0010
0001
0100
0010
,
0000
0100
0001
1000
0001
0000
0010
0000
,
0100
0000
0000
1000
0001
0000
0000
1000
,
0001
0000
1000
0000
0010
0100
0010
0100
,
0001
1000
0010
0100
0001
1000
0010
0100
,
0001
1000
0010
0100
0001
1000
0010
0100
,
0001
0010
0100
1000
0001
0010
0100
1000
,
0001
0010
0100
1000
0001
0010
0100
1000
,
0001
0100
0010
0100
0001
1000
0100
1000
,
0001
0010
0100
0010
0001
1000
0010
1000
,
0001
0100
0010
0100
0001
1000
0100
1000
,
0001
0010
0100
0010
0001
1000
0010
1000
,
0002
0000
0000
0000
,
0023
0000
0230
0000
,
2300
0000
3020
0000
,
0130
0000
0001
0000
0010
0100
1000
0001
,
0010
0000
0000
0000
0000
0000
0000
0000
0001
0000
0000
0000
0000
0000
0000
0000
0100
0000
0000
0000
0000
0000
0000
0000
0010
0000
0000
1000
0000
0000
0001
0000
0000
1000
0000
0000
0010
0000
0000
0100
0000
0000
0001
0000
0000
1000
0000
0000
,
0010
0000
0100
0000
0001
0000
1000
0000
0100
0010
0001
1000
0001
1000
0010
0100
,
0002
0000
0000
0000
,
2003
0000
0000
0000
0000
0000
0000
0000
3001
0010
0100
1000
0001
0010
0100
1000
,
0001
0100
0010
1000
0001
1000
0010
0100
0001
1000
0010
0100
0010
1000
0001
1000
,
0001
0010
0001
1000
0100
1000
0001
0010
0100
1000
0100
0010
0001
1000
0001
1000
,
0010
0100
0001
1000
0001
0100
0010
0100
0001
1000
0010
0100
0001
1000
0001
1000
,
0100
0010
0100
1000
0001
0010
0100
0010
0001
1000
0100
0010
0001
1000
0001
1000
,
0010
0100
0001
1000
0010
0100
0001
1000
0010
1000
0001
0100
0010
1000
0001
1000
,
0001
0010
0100
1000
0001
1000
0100
0010
0001
1000
0001
0010
0100
1000
0001
1000
,
0001
0100
0010
0100
0001
1000
0010
1000
0001
0100
0010
0100
0001
1000
0001
1000
,
0100
1000
0001
0010
0100
1000
0001
0010
0001
1000
0100
0010
0001
1000
0001
1000
,
0010
0100
0001
1000
0001
0100
0010
0100
0001
1000
0010
0100
0001
1000
0010
1000
,
0001
0010
0100
0010
0001
1000
0100
1000
0001
0010
0100
1000
0100
0010
0001
1000
,
0010
0100
0010
1000
0001
0100
0010
0100
0001
1000
0010
0100
0001
1000
0010
1000
,
0001
0010
0001
1000
0100
0010
0100
1000
0001
1000
0100
1000
0001
0010
0001
1000
,
0010
0100
0001
1000
0001
0100
0010
1000
0001
1000
0010
0100
0010
1000
0001
0100
,
0001
1000
0100
1000
0001
1000
0100
0010
0001
1000
0100
1000
0001
0010
0001
1000
,
0010
0100
0001
1000
0001
0100
0010
1000
0001
1000
0010
1000
0001
0100
0001
1000
,
0100
1000
0001
0010
0001
1000
0100
0010
0001
1000
0001
0010
0001
1000
0100
1000
,
0002
0000
0000
0000
,
0023
0000
0230
0000
,
2300
0000
3020
0000
,
0000
0000
0000
0030
,
0000
0000
0200
0000
,
0302
0000
0023
0000
,
0230
0000
0000
0000
,
2300
0000
0000
3000
,
0001
0000
0100
0010
1000
0000
0001
0000
,
0010
0100
1000
0000
0010
0000
0000
0000
,
0100
0000
0001
0100
0010
0000
1000
0100
,
0010
0001
1000
0000
0010
0100
0010
1000
,
0001
0000
0100
0010
1000
0000
0001
0000
,
0010
0001
1000
0000
0010
0000
0000
0000
,
0100
0000
0010
0100
0001
0000
0010
0100
,
1000
0001
0100
0000
0010
1000
0100
1000
,
0001
0000
0010
0100
1000
0000
0001
0000
,
0100
0010
1000
0000
0100
0000
0000
0000
,
0010
0000
0001
0010
0100
0000
1000
0010
,
0100
0001
1000
0000
0100
0010
0100
1000
,
0001
0000
0010
0100
1000
0000
0001
0000
,
0100
0001
1000
0000
0100
0000
0000
0000
,
0010
0100
0010
0100
1000
0001
1000
0001
,
0100
0000
0001
0000
0100
0000
0001
0000
1000
0010
0100
0001
1000
0000
0010
0000
,
0000
0000
0000
0000
,
0000
1000
0000
0000
,
0000
0001
0000
0010
,
0000
0100
0000
0010
,
0000
0000
0000
0000
,
0000
0000
0000
0001
,
0000
0100
0000
0010
,
0000
1000
0000
0000
,
0000
0001
0000
0000
,
0000
0000
1000
0010
1000
0000
0001
0010
,
0001
1000
0010
0000
,
0100
0001
0010
0100
,
1000
0010
0000
0000
,
0000
0000
1000
0100
1000
0000
0001
0100
,
0001
0010
0100
0000
,
0010
0000
0001
1000
0001
1000
0001
1000
,
0001
0000
1000
0000
0001
0000
1000
0000
0001
0000
1000
0000
0010
1000
0001
1000
,
0010
0000
1000
0000
0001
0100
0010
1000
0001
1000
0010
0100
0001
1000
0010
0100
,
0010
1000
0001
1000
0001
0010
0001
1000
0100
1000
0001
0010
0100
1000
0100
0010
,
0001
1000
0001
1000
0010
0100
0001
1000
0001
0100
0010
0100
0001
1000
0010
0100
,
0001
1000
0001
1000
0100
0010
0100
1000
0001
0010
0100
0010
0001
1000
0100
0010
,
0001
1000
0001
1000
0010
0100
0001
1000
0010
0100
0001
1000
0010
1000
0001
0100
,
0010
1000
0001
1000
0001
0010
0100
1000
0001
1000
0100
0010
0001
1000
0001
0010
,
0100
1000
0001
1000
0001
0100
0010
0100
0001
1000
0010
1000
0001
0100
0010
0100
,
0001
1000
0001
1000
0100
1000
0001
0010
0100
1000
0001
0010
0001
1000
0100
0010
,
0001
1000
0001
1000
0020
0000
0000
0000
0000
0000
0000
0000
0000
0000
0000
0000
,
0000
0230
0000
0302
,
0000
0023
0000
0230
,
0000
0000
0000
0000
,
0300
0000
0000
2000
,
0000
3200
0000
0320
,
0000
0032
0000
0000
,
0000
2003
0000
0000
,
3000
0000
0001
0000
0100
0010
1000
0000
,
0100
0010
0001
0000
0100
0010
1000
0000
,
0001
0000
0010
0000
0100
1000
0001
0000
,
0100
0001
1000
0000
0100
1000
0001
0000
,
0010
0000
0100
0000
0010
0001
1000
0000
,
0010
1000
0001
0000
0100
0001
1000
0000
,
0010
0000
0100
0000
0010
0100
0001
0000
,
0010
0100
1000
0000
0010
0100
0001
0000
,
0010
0000
0100
0000
0010
0001
0010
0000
,
0001
1000
0001
0000
1000
0010
1000
0000
,
0001
0000
0100
0000
0010
0100
0010
0000
,
1000
0001
1000
0000
0100
0010
0100
0000
,
1000
0000
0001
0000
1000
0100
1000
0000
,
0001
0100
0001
0000
1000
0100
0010
0000
,
0001
0000
0100
0000
0010
1000
0001
0000
,
0010
0100
1000
0000
0010
0100
0001
0000
,
1000
0000
0000
0000
,
0000
0000
0000
0000
,
0000
0000
0000
0000
,
0000
0000
0000
0000
0000
0000
0000
MMMM
;
