#TITLE:Strangeprogram;
#SUBTITLE:;
#ARTIST:DJ Sharpnel;
#TITLETRANSLIT:;
#SUBTITLETRANSLIT:;
#ARTISTTRANSLIT:;
#CREDIT:;
#BANNER:strangeprogram-bn.png;
#BACKGROUND:strangeprogram-bg.png;
#LYRICSPATH:;
#CDTITLE:!ZeroTitle.png;
#MUSIC:Strangeprogram.mp3;
#OFFSET:-3.033;
#SAMPLESTART:62.109;
#SAMPLELENGTH:17.800;
#SELECTABLE:YES;
#BPMS:0.000=215.000;
#STOPS:;
#BGCHANGES:;
// cache tags:
#FIRSTBEAT:2.625;
#LASTBEAT:758.000;
#SONGFILENAME:Songs/Hard Songs Megapack Volume 9/Strangeprogram (overstepped as fuc)/Strangeprogram.sm;
#HASMUSIC:1;
#HASBANNER:1;
#MUSICLENGTH:215.118;
// end cache tags

//---------------dance-single - ----------------
#NOTES:
     dance-single:
     :
     Challenge:
     16:
     1.000,1.000,1.000,0.344,1.000,2392.000,1003.000,74.000,88.000,412.000:
0000
0000
0000
0000
0000
0000
0000
0000
0000
0000
0000
0000
0000
0000
0000
0000
0000
0000
0000
0000
0000
0220
0000
0000
0000
0000
0000
0330
0000
0000
0000
0000
,
2012
0000
0000
3003
1011
0000
1100
0000
0000
0000
0101
0000
1011
0000
0000
0000
,
1001
0000
0111
1100
0000
1001
1101
0000
,
0110
0000
0111
0110
0000
0011
1121
0000
,
1001
0000
0000
0000
1101
0000
1100
0000
0000
0000
1001
0000
1101
0000
0000
0030
,
2112
0000
0000
3003
1101
0000
1001
0000
0000
0000
1010
0000
0111
0000
0000
0000
,
0011
0000
1110
1001
0000
0110
1011
0000
,
1100
0000
0000
0000
0111
0000
1001
0000
0000
0000
0110
0002
1100
0000
0000
0000
,
1010
0000
1010
0000
1010
0000
1010
0000
0010
0000
1010
0000
1010
0000
0010
0003
,
1110
0001
1000
0010
1101
0010
0101
0010
1000
0100
1010
0100
1011
0100
0010
0100
,
1001
0010
0100
0010
1101
0010
0101
1000
0010
0100
0011
1000
0111
1000
0100
1000
,
0011
0100
1000
0100
1011
0100
1010
0001
0100
0001
1010
0001
1110
0001
1000
0100
,
0011
0100
0001
0100
1011
0100
1010
0100
0010
0100
0011
0100
1011
0100
0001
0100
,
1010
0001
1000
0010
1101
0010
0101
0010
1000
0010
1100
0001
1110
0001
1000
0001
,
1100
0010
0001
1000
0111
1000
0101
0010
0100
0010
1001
0010
1101
0010
0100
0010
,
0101
1000
0100
1000
0111
1000
0110
0001
0100
0001
1100
0010
1101
0010
1001
0000
,
1011
1011
1011
1011
0011
1011
1011
0011
,
0111
0000
0000
0000
0000
0000
0200
0000
0000
0000
0000
0000
0300
0000
0000
0000
0002
0000
0000
0003
0000
2000
0000
0000
,
3000
0000
0000
0000
0000
0000
0000
0000
0000
0000
0000
0000
0000
0000
0000
0000
0000
0000
0000
0000
0000
0000
0000
0000
0000
0000
0000
0000
0000
0000
0000
0000
0000
0000
0000
0000
0000
0000
0000
0000
0000
0000
0000
0000
0000
0000
0000
0000
0000
0000
0000
0000
0000
0000
0000
0000
0000
0000
0000
0000
0000
0000
0000
0000
0000
0000
0000
0000
0000
0000
0000
0000
0000
0000
0000
0000
0000
0000
0000
0000
0000
0000
0000
0000
0000
0000
0000
0000
0000
0000
0000
0000
0000
0000
0000
0000
0200
0000
0000
0000
0000
0000
0000
0000
0000
0000
0000
0000
0000
0000
0000
0000
0000
0000
0000
0000
0000
0000
0000
0000
0300
0000
0000
0000
0000
0000
0000
0000
0200
0000
0000
0000
0000
0000
0000
0000
0000
0000
0000
0000
0000
0000
0000
0000
0300
0000
0000
0000
0000
0000
0000
0000
0200
0000
0000
0000
0000
0000
0000
0000
0000
0000
0000
0000
0000
0000
0000
0000
0300
0000
0000
0000
0000
0000
0200
0000
0000
0000
0000
0000
0000
0000
0000
0000
0000
0000
0000
0000
0000
0000
0000
0000
,
0300
0000
0000
0000
0000
0000
0000
0000
0020
0000
0000
0000
0000
0000
0000
0000
0030
0000
1000
0000
0000
0000
0000
0000
0000
0000
0000
0000
0000
0000
M000
0000
0000
0000
0000
0000
0000
0000
0000
0000
0000
0000
0000
0000
0000
0000
0000
0000
0000
0000
0000
0000
0000
0000
0000
0000
0000
0000
0000
0000
0000
0000
0000
0000
0000
0000
0000
0000
0000
0000
0000
0000
0100
0000
0000
0000
0000
0000
0000
0000
0000
0000
0000
0000
0000
0000
0000
0000
0000
0000
0000
0000
0000
0000
0000
0000
0010
0000
0000
0000
0000
0000
0000
0000
0100
0000
0000
0000
0000
0000
0000
0000
0000
0000
0000
0000
0000
0000
0000
0000
1000
0000
0000
0000
0000
0000
0000
0000
0000
0000
0000
0000
1000
0000
0000
0000
0000
0000
0000
0000
0000
0000
0000
0000
0010
0000
0000
0000
0000
0000
0000
0000
0000
0000
0000
0000
0000
0000
0000
0000
0000
0000
0000
0000
0000
0000
0000
0000
0010
0000
0000
0000
0000
0000
0000
0000
0000
0000
0000
0000
0000
0000
0000
0000
0000
0000
0000
0000
0000
0000
0000
0000
,
0000
0000
0100
0000
0000
0000
0000
0001
0000
000M
0000
0000
0000
0000
0000
0000
2222
0000
0000
0000
0000
0000
0000
0000
0000
0000
3333
0000
0000
0000
0000
0000
,
1001
0010
0100
0010
1101
0010
0100
0001
1010
0100
0001
0010
1001
0010
1100
0001
,
1010
0001
0100
0010
1101
0010
1000
0100
1010
0001
1000
0010
1001
0100
1010
0100
,
1001
0010
0100
0010
1101
0010
1000
0001
1100
0010
0100
0010
1001
0010
1100
0001
,
1010
0001
1000
0100
1011
0100
0001
0010
1001
0100
1000
0001
1110
000M
1110
0010
,
1100
0010
1000
0001
1110
0001
1000
0100
1001
0010
0001
1000
0101
1000
0011
0100
,
1001
0100
0010
0100
1011
0100
0010
1000
0110
1000
0100
0010
1001
0010
0101
1000
,
0110
0000
0001
0000
0100
0000
0010
0000
1101
0000
0010
0000
0100
0000
0001
0000
1100
0000
0001
0000
0010
0200
0001
0000
1010
0000
0001
0000
1010
0000
0001
0000
,
1010
0000
0011
1001
0011
1001
0011
1001
,
1311
0110
1011
1100
1011
0110
1011
1100
,
0111
0110
1101
0011
1110
0110
0111
0011
,
1110
0110
1101
1001
0111
1100
1101
1010
,
0111
0101
1011
1100
1101
0011
1101
0111
,
1120
0000
0000
0000
0000
0000
0000
0000
0231
0000
0000
0000
0000
0000
0000
0000
1312
0000
0000
0000
0000
0000
0000
0000
0123
0000
0000
0000
0000
0000
0000
0000
2131
0000
0000
0000
0000
0000
0000
3000
2110
0000
0000
0000
0000
0000
0000
0000
3100
0000
0000
0000
0000
0000
0000
0000
0021
0000
0000
0000
0000
0000
0000
0000
,
2131
0000
0000
0000
0000
0000
0000
0000
3100
0000
0000
0000
0000
0000
0000
0010
0200
1000
0000
0000
0000
0000
0000
0001
0320
0100
0000
0000
0000
0000
0000
0000
0031
0000
0000
0000
0000
0000
0000
0010
0002
0100
0000
0000
0003
0000
0002
1000
0000
0100
0000
0000
0003
2000
0000
0000
0100
0000
0000
0000
0000
0000
0000
0100
,
3001
0000
0000
0010
0000
0000
1000
0000
0000
0000
0000
0000
0000
0000
0000
0000
0000
0000
0000
0000
0000
0000
0000
0000
1000
0000
0000
0100
0000
0000
1010
0000
0000
0101
0000
0000
0000
0000
0000
0000
0000
0000
0000
0000
0000
0000
0000
0000
0010
0000
0000
0000
0000
0000
0000
0000
0000
0000
0000
0000
0000
0000
0000
0000
0000
0000
0000
0000
0000
0000
0000
0000
1000
0000
0000
0010
0100
0000
0001
0000
0000
0000
0000
0000
0000
0000
0000
0000
0000
0000
0000
0000
0000
0000
0000
0000
0100
0000
0000
1000
1000
0000
0010
0000
0000
0000
0000
0000
0000
0000
0000
0000
0000
0000
0000
0000
0000
0000
0000
0000
0100
0000
0000
0000
0000
0000
0000
0000
0000
0000
0000
0000
0000
0000
0000
0000
0000
0000
0000
0000
0000
0000
0000
0000
1000
0000
0000
0100
1000
0000
0010
0000
0000
0000
0000
0000
0000
0000
0000
0000
0000
0000
0000
0000
0000
0000
0000
0000
0001
0000
0000
0010
0100
0000
0001
0000
0000
0000
0000
0000
0000
0000
0000
0000
0000
0000
0000
0000
0000
0000
0000
0000
,
2100
0000
0000
0000
0000
0000
0000
0000
0000
0000
0000
0000
0000
0000
0000
0000
0000
0000
0000
0000
0000
0100
0000
0000
0001
0000
0000
0100
0010
0000
0001
0000
0000
0000
0000
0000
0000
0000
0000
0000
0000
0000
0000
0000
0000
0100
0000
0000
0001
0000
0000
0000
0100
0000
0010
0000
0000
0100
0000
0000
0000
0000
0000
0000
0000
0000
0000
0000
0000
0000
0000
0000
0000
0000
0000
0000
0000
0000
0000
0000
0000
0000
0000
0000
3000
0000
0000
0000
0000
0000
0000
0000
0000
0000
0000
0000
1000
0000
0000
0000
0000
0000
0001
0000
0000
0000
0000
0000
1000
0000
0000
0000
0000
0000
0001
0000
0000
0000
0000
0000
1000
0000
0000
0000
0000
0000
0001
0000
0000
0000
0000
0000
1000
0200
0000
0000
0000
0000
0001
0000
0000
0000
0000
0000
1000
0000
0000
0000
0000
0000
0001
0000
0000
0000
0000
0000
1000
0300
0000
0000
0000
0000
0001
0000
0000
0000
0000
0000
1000
0000
0000
0000
0000
0000
0001
0000
0000
0000
0000
0000
1000
0000
0000
0000
0000
0000
0001
0000
0000
0000
0000
0000
,
1011
0100
0010
0100
0011
1000
0110
1000
0101
1000
0001
0010
0101
1000
0010
0100
,
1001
0010
1000
0100
1001
0010
0101
1000
0110
0001
0010
0100
1001
0100
0010
1000
,
0101
1000
0010
0100
1001
0010
0101
1000
0110
0001
0010
0100
1001
0010
0100
0010
,
1100
0001
0010
0100
0011
1000
0110
1000
0101
0001
1110
0100
11M1
0000
1M11
0000
,
0101
0010
0100
0010
1001
0010
0101
0010
1001
0100
1000
0010
1001
0100
1000
0010
,
1100
0010
0001
0010
0101
0010
1001
0010
0101
1000
0100
0010
0101
1000
0100
0010
,
1001
0100
1000
0100
0011
0100
1001
0010
1100
0010
1000
0100
1001
0010
0100
0010
,
1001
0100
0001
0010
1100
0010
0101
1000
0011
0010
1101
1000
0111
0001
1110
1000
,
0110
0001
1000
0100
1010
0001
1100
0001
1010
0100
0001
1000
0011
0100
0001
1000
,
0011
0100
0010
0001
1010
0100
1001
0010
1100
0010
0100
0001
1100
0010
0100
0001
,
1010
0100
0010
0100
1001
0100
1010
0001
1100
0010
1000
0001
1100
0010
1000
0100
,
0011
0100
1000
0100
0011
0100
1010
0100
0011
0001
1110
1000
1M11
0000
11M1
0000
,
1100
0001
0010
0100
1010
0100
0011
0100
1010
0001
0010
0100
1001
0010
1100
0001
,
1010
0000
0001
0000
0100
0000
0010
0000
1000
0101
0001
0000
0100
0000
0010
0000
1000
0000
0011
0000
0100
0000
0010
0000
1000
0000
0001
0000
0100
0000
0110
0000
1000
0000
0001
0000
1100
0000
0010
0000
1000
0000
0012
0000
0100
0000
0010
0000
,
0100
0010
0100
0010
0100
0010
0103
0010
0100
0010
0100
0010
0100
0010
0100
0010
0100
0010
0100
0010
0100
0010
0100
0010
,
0100
2000
0000
0000
0000
0000
0010
0000
0000
0000
0000
0000
0100
0000
0000
0000
0000
0000
0010
0000
0000
3000
0000
0000
0100
0002
0000
0000
0000
0000
0010
0000
0000
0000
0000
0000
0100
0000
0000
0000
0000
0000
0010
0000
0000
0003
0000
0000
0100
0000
0000
0000
0000
0000
0010
0000
0000
0000
0000
0000
0100
0000
0000
0000
0000
0000
0010
0000
0000
0000
0000
0000
0100
2000
0000
0000
0000
0000
0010
0000
0000
0000
0000
0000
0100
0000
0000
0000
0000
0000
0010
0000
0000
3000
0000
0000
0100
0002
0000
0000
0000
0000
0010
0000
0000
0000
0000
0000
0100
0000
0000
0000
0000
0000
0010
0000
0000
0003
0000
0000
1111
0000
0000
0000
0000
0000
0000
0000
0000
0000
0000
0000
0000
0000
0000
0000
0000
0000
0000
0000
0000
0000
0000
0000
1110
0000
0000
0000
0000
0000
0000
0000
0000
0000
0000
0000
0000
0000
0000
0000
0000
0000
0000
0000
0000
0000
0000
0000
0111
0000
0000
0000
0000
0000
0000
0000
0000
0000
0000
0000
0000
0000
0000
0000
0000
0000
0000
0000
0000
0000
0000
0000
,
1111
0100
0111
1000
1010
1000
0111
1010
,
0100
0011
1110
1100
0101
0110
0111
1100
,
1100
0100
0111
0010
0110
1000
1101
0110
,
1000
0011
0111
1100
1001
0101
1110
1010
,
1001
0010
1101
0010
0101
0010
1101
1010
,
0010
0110
1101
1010
0100
0011
1101
0110
,
0010
0001
0111
0110
0101
1100
1110
0001
,
0100
1100
1110
0100
0100
1101
1111
1110
,
1101
0110
1111
0110
1011
0110
1111
0111
,
1110
0111
1111
0111
1101
1011
1111
1110
,
0111
1100
1111
0110
1101
0110
1111
1101
,
0110
0111
1111
1011
1101
1110
1111
1101
,
0111
1010
1111
1100
1110
0110
1111
1110
,
1101
0111
1111
1110
1011
0111
1111
1011
,
1100
0111
1111
1110
1101
1011
1111
0111
,
1100
0111
1111
1101
0110
1101
1111
1101
,
0111
1000
1110
0001
1011
0100
1101
0010
,
1101
0100
1110
0000
0100
0000
1011
0000
0100
0000
1101
0000
0010
0000
0111
0001
,
1101
0010
1011
0100
1110
0010
1101
0100
,
1101
0000
0010
0000
0100
0000
1011
0000
0000
0MMM
0000
0000
1100
0000
0000
0000
0000
0000
0111
0000
0000
0000
0000
0000
1100
0000
0000
0000
0000
0000
0111
0000
0000
0000
0000
0000
1000
0000
0000
0000
0000
0000
1011
0000
0000
1000
0000
0000
,
1110
0001
0111
0100
1101
0010
1110
0100
,
1011
1000
1101
0000
1000
0000
0111
0000
0001
0000
1110
0000
0010
0000
0111
0010
,
1011
0000
0100
0000
1101
0000
0010
0000
0111
0000
1101
0000
0111
0000
1011
0M00
,
M0M0
0M00
M011
0M00
M0M0
0M00
M011
0M00
M0M0
0M00
M011
0M00
M0M0
0M00
M011
0000
,
1110
0001
1000
0001
1110
0001
1000
0010
0101
1000
0010
1000
0111
1000
0111
1000
,
0101
0010
1001
0010
1101
0010
1100
0010
0011
1000
0101
0010
1101
0010
1101
0010
,
1100
0010
0100
0001
1110
0001
0010
0100
1001
0100
0010
0001
1101
0010
1101
0010
,
0101
0000
0010
1000
0100
0000
0010
0000
0000
01M0
0000
0000
1011
0000
0000
0100
0000
0000
0011
0000
0000
1000
0000
0000
0101
0000
0000
0010
0000
0000
1100
0000
0000
0100
0000
0000
1011
0000
0000
0100
0000
0000
1011
0000
0000
0100
0000
0000
,
1010
0100
0001
1000
0111
1000
0010
0100
0011
1000
0010
0100
1011
0100
1011
0100
,
0011
1000
0110
0001
1110
0001
1100
0010
0101
1000
0100
0010
1101
0010
1101
0010
,
1100
0010
0001
1000
0111
1000
0010
0100
1010
0100
0011
0010
0111
1000
0111
1000
,
1010
1000
0110
0001
1110
0001
1100
0010
0101
0010
1100
0001
1110
0001
1110
0001
,
1001
0010
1000
0100
1011
0100
0001
0100
0011
1000
0010
1000
0111
1000
0111
1000
,
0110
0001
1010
0010
1101
0001
1010
0001
0110
0001
1100
0001
1110
0001
1110
0001
,
1100
0001
0100
0001
1110
0001
0100
0010
0101
1000
0100
1000
0111
1000
0111
1000
,
0110
0001
1100
0010
1101
0010
1100
0010
1001
0010
1100
0001
1110
0001
1110
0001
,
1100
0010
0100
0010
0111
1000
0100
1000
0101
0010
1000
0010
1101
0010
1101
0010
,
1100
0010
1001
0010
1101
0010
0101
0010
1100
0001
0110
1000
0111
1000
0111
1000
,
0110
0001
0100
0001
1110
0001
0110
0001
1110
0001
1100
0101
1110
0101
1110
0000
,
MM00
0000
0000
0000
0000
0000
0000
0000
0000
0000
0000
0000
0000
0000
0000
0000
0000
0000
0000
0000
0000
0000
0000
0000
1010
0000
0000
0000
0000
0000
0000
0000
0000
0000
0000
0000
0000
0000
0000
0000
0000
0000
0000
0000
0000
0000
0000
0000
0MM0
0000
0000
0000
0000
0000
0000
0000
0000
0000
0000
0000
0000
0000
0000
0000
0000
0000
0000
0000
0000
0000
0000
0000
1010
0000
0000
0000
0000
0000
0000
0000
0000
0000
0000
0000
0000
0000
0000
0000
0000
0000
0000
0000
0000
0000
0000
0000
MMMM
0000
0000
0000
0000
0000
0000
0000
0000
0000
0000
0000
0000
0000
0000
0000
0000
0000
0000
0000
0000
0000
0000
0000
1010
0000
0000
0000
0000
0000
0000
0000
0000
0000
0000
0000
1010
0000
0000
0000
0000
0000
0000
0000
0000
0000
0000
0000
0000
0000
0000
0000
0010
0000
0000
0000
1000
0000
0000
0000
0000
0000
0000
0000
0010
0000
1000
0000
0010
0000
0000
0000
0000
0000
0000
0000
0000
0000
0010
0000
0000
0000
0000
0000
1010
0000
0000
M000
0000
0000
1000
0000
0000
0000
0000
0000
,
0111
1000
0010
1000
0111
1000
0110
0001
1000
0001
0110
0001
1101
0010
1101
0010
,
1100
0010
0100
1000
0111
1000
0101
1000
0100
0010
1001
0010
1110
0001
1110
0001
,
1100
0010
0100
0010
0111
1000
0110
1000
0100
0010
1100
0010
1110
0001
1110
0001
,
1010
0100
1000
0100
1011
0100
1010
0100
1000
0100
1010
0100
1011
0100
1011
0100
,
1010
0001
0010
0001
1110
0001
0110
0001
0010
0001
0110
1000
0111
1000
0111
1000
,
0011
0100
0010
0100
1011
0100
1010
0100
1000
0001
1100
0001
1110
0001
1110
0001
,
1010
0100
1000
0010
1101
0001
1010
0100
1000
0010
1100
0001
1011
0100
1011
0010
,
1100
0001
0010
1000
0111
0100
1010
0001
0010
1000
0101
0010
1110
0001
1110
1000
,
0101
1000
0100
1000
0111
0010
1100
0001
0100
0001
1100
0001
1110
0001
1110
0001
,
1100
0010
1000
0010
1101
0010
1100
0001
0100
0001
0110
1000
0111
1000
0111
1000
,
0110
0100
0001
0001
1110
1000
0110
0100
0001
1000
0101
0010
0111
1000
0111
0010
,
0101
1000
0010
1000
0111
1000
0011
0100
1000
0010
1100
0001
1110
0100
1110
0100
,
0011
0010
0100
0100
1011
1000
0110
0010
0001
0001
1100
0100
1011
1000
0111
0100
,
1010
0010
0001
0001
1110
0010
0101
0100
1000
1000
0110
0001
1110
0001
1110
0000
,
1100
1011
1100
1011
1100
1011
1100
1011
,
1100
0000
0000
0000
0000
0000
1M11
0000
0000
0000
0000
0000
0000
0000
2000
0000
3000
0000
11M1
0000
0000
0000
2000
0000
3200
0300
2000
0000
3000
0000
11MM
0000
0000
0000
0000
0000
1M1M
0000
0000
0000
0000
0000
11M1
0000
0000
0000
0000
0000
,
2MM2
0000
0000
0000
0000
0000
0000
0000
0000
0000
0000
0000
0000
0000
0000
0000
0000
0000
0000
0000
0000
0000
0000
0000
0000
0000
0000
0000
0000
0000
0003
0000
0000
0000
0000
0000
0002
0000
0000
0000
0000
0000
3000
0000
0000
0000
0000
0000
2000
0000
0000
0000
0000
0000
0003
0000
0000
0000
0000
0000
0002
0000
0000
0000
0000
0000
3000
0000
0000
0000
0000
0000
2003
0000
0000
0000
0000
0000
3000
0000
0001
0000
0000
0000
0000
0000
0000
0000
1000
0000
0000
0000
0000
0000
0000
0000
0001
0000
0000
0000
0000
0000
1000
0000
0000
0000
0000
0000
0001
0000
0000
0000
0000
0000
1000
0000
0000
0000
0000
0000
0001
0000
0000
0000
0000
0000
1000
0000
0000
0000
0000
0000
0001
0000
0000
0000
0000
0000
1000
0000
0000
0000
0000
0000
0001
0000
0000
0000
1000
0000
0000
0000
0001
0000
0000
0000
1000
0000
0000
0000
0001
0000
0000
0000
1000
0001
0000
0000
1001
0000
0000
0000
0000
0000
0000
0000
0000
0000
0000
0000
0000
0000
0000
0000
0000
0000
M000
0000
0000
0000
0000
0000
,
0000
000M
0000
0000
1001
0000
0000
000M
0000
M000
0000
0000
1001
0000
0000
M000
0000
000M
0000
0000
1001
0000
0000
000M
0000
M000
0000
0000
1001
0000
0M00
0000
,
1011
0100
1010
0001
1100
0001
1010
0100
0011
0100
1010
0100
1011
0100
1010
0001
,
1110
0001
1010
0100
1010
0001
1100
0001
1010
0100
0011
0100
1011
0100
0011
1000
,
0111
1000
0110
1000
0101
1000
0011
0100
1001
0010
0101
1000
0111
1000
0110
0001
,
1110
0001
1010
0100
1010
0001
1100
0001
1010
0100
1001
0010
1101
0010
1101
0010
,
1011
0100
1010
0001
1010
0100
0011
0100
1010
0100
1001
0010
1101
0010
1100
0010
,
1101
0010
1001
0100
0011
1000
0110
1000
0101
1000
0110
1000
0111
1000
0110
0001
,
1110
0000
0000
0000
0000
0000
0001
0000
0000
0000
0000
0000
0010
0000
0000
0000
0000
0000
0100
0000
0000
0000
0000
0000
1000
0000
0000
0000
0000
0000
0000
0000
0001
0000
0000
0000
0000
0000
0000
0000
0010
0000
0000
0000
0000
0000
0000
0000
1000
0000
0000
0000
0000
0000
0100
0000
0000
0000
0000
0000
0010
0000
0000
0000
0000
0000
0001
0000
0000
0000
0000
0000
0010
0000
0000
0000
0000
0000
0000
0000
1000
0000
0000
0000
0000
0000
0000
0000
0100
0000
0000
0000
0000
0000
0000
0000
0010
0000
0000
0000
0000
0000
0100
0000
0000
0000
0000
0000
0010
0000
0000
0000
0000
0000
1000
0000
0000
0000
0000
0000
0000
0000
0000
0000
0100
0000
0000
0000
0000
0000
0000
0000
0010
0000
0000
0000
0000
0000
0000
0000
0000
0000
0000
0000
0001
0000
0000
0000
0010
0000
0000
0000
0100
0000
0000
0000
1000
0000
0000
0000
0001
0000
0000
0000
0000
0000
0000
0000
0010
0000
0000
0000
0000
0000
0000
0000
0100
0000
0000
0000
0000
0000
0000
0000
1000
0000
0000
0000
0000
0000
0000
0000
,
0100
0000
0000
0000
0001
0000
0000
0000
0010
0000
0000
0000
0100
0000
0000
0000
1000
0000
0000
0000
0000
0000
0000
0000
0100
0000
0000
0000
0000
0000
0010
0000
0000
0000
0000
0000
0001
0000
0000
0000
0000
0000
0010
0000
0000
0000
0000
0000
0100
0000
0000
0000
1000
0000
0000
0000
0010
0000
0000
0000
0000
0000
0000
0000
0100
0000
0000
0000
0000
0000
0000
0000
1000
0000
0000
0000
0000
0000
0000
0000
0010
0000
0000
0000
0100
0000
0000
0000
0000
0000
1000
0000
0000
0000
0000
0000
0001
0000
0000
0000
0000
0000
0000
0000
0010
0000
0000
0000
0000
0000
0000
0000
0100
0000
0000
0000
0000
0000
0000
0000
M001
0000
0000
0000
0000
0000
0010
0000
0000
0000
0000
0000
0100
0000
0000
0000
0001
0000
0000
0000
0010
0000
0000
0000
M100
0000
0000
0000
0001
0000
0000
0000
0010
0000
0000
0000
0100
0000
0000
0001
0000
0000
0010
0000
0000
0100
0000
0000
M001
0000
0000
0010
0100
0000
0000
0000
0100
0001
0000
0000
0010
0000
0000
0001
0100
0000
0010
0000
0100
0001
0000
0000
,
1011
0010
1100
0010
0101
1000
0111
1000
0110
1000
0001
1000
0111
1000
0100
0010
,
1101
0010
0101
1000
0110
0001
1110
0100
0011
1000
0010
0100
1011
0100
1000
0010
,
1101
0010
0001
0010
1100
0010
1101
0010
1001
0010
0100
1000
0111
1000
0100
1000
,
0111
1000
0100
0010
1001
0010
0111
1000
0110
0001
1000
0010
1101
0010
1101
0010
,
1101
0010
1001
0100
0011
1000
0111
1000
0101
0010
1001
0010
1101
0010
1001
0010
,
0111
1000
0110
1000
0011
0100
1011
0100
1001
0010
0101
1000
0111
1000
0101
1000
,
1011
0100
1001
0100
1010
0001
1110
0001
1100
0010
1001
0100
1110
0001
0110
0001
,
1110
0010
1001
0010
1100
0001
1110
0001
1101
0100
1011
0010
1101
0001
1110
0100
,
2111
0000
0000
0000
0000
0000
0000
0000
0000
0000
0000
0000
0000
0000
0000
0000
0000
0000
0000
0000
0000
0000
0000
0000
3020
0000
0000
0000
0000
0000
0000
0000
0000
0000
0000
0000
0000
0000
0000
0000
0000
0000
0000
0000
0000
0000
0000
0000
0000
0000
0000
0000
0000
0000
0000
0000
0000
0000
0000
0000
0030
0000
0000
0000
0000
0000
0200
0000
0000
0000
0000
0000
0000
0000
0000
0000
0000
0000
0000
0000
0000
0000
0000
0000
0000
0000
0000
0000
0000
0000
0000
0000
0000
0000
0000
0000
0000
0000
0000
0000
0000
0000
0000
0000
0000
0000
0000
0000
0000
0000
0000
0000
0000
0000
0300
0000
0000
0000
0000
0000
0002
0000
0000
0000
0000
0000
0000
0000
0000
0000
0000
0000
0000
0000
0000
0000
0000
0000
0000
0000
0000
0000
0000
0000
0000
0000
0000
0000
0000
0000
0003
0000
0020
0000
0000
0000
0000
0000
0000
0000
0000
0000
0000
0000
0000
0000
0000
0000
0000
0000
0000
0000
0000
0000
0000
0000
0030
0000
0000
0000
2000
0000
0000
0000
0000
0000
0000
0000
0000
0000
0000
0000
,
3000
0000
0000
0000
0000
0000
0000
0000
0000
0000
0000
0000
0000
0000
0000
0000
0000
0000
0000
0000
0000
0000
0000
0000
0000
0000
0000
0200
0000
0000
0000
0000
0000
0000
0000
0000
0000
0000
0000
0000
0000
0000
0000
0000
0000
0020
0000
0000
0000
0000
0000
0000
0000
0000
0000
0000
0300
0000
0000
0000
0000
0000
0000
0000
0000
0000
0000
0000
0000
0000
0000
0000
0000
0000
0000
0000
0000
0000
0000
0000
0000
0000
0000
0000
0030
0000
0000
0000
0200
0000
0000
0000
0000
0000
0000
0000
0000
0000
0000
0000
0300
0000
0000
0000
0000
0000
0000
0000
0002
0000
0000
0000
0000
0000
0000
0000
0000
0000
0000
0000
0003
0000
0000
0000
0000
0000
0000
0000
0000
0000
0000
0000
0000
0000
0000
0000
0000
0000
0000
0000
0000
0000
0000
0000
0000
0000
0000
0000
0000
0000
0000
0000
0000
0000
0000
0000
0000
0000
0000
0000
0000
0000
0000
0000
0000
0000
0000
0000
0000
0000
0000
0000
0000
0000
0000
0000
0000
0000
0000
0000
0000
0000
0000
0000
0000
0000
0000
0000
0000
0000
0000
0000
,
0000
0000
0000
0000
,
0000
0000
0000
0000
0000
0000
0000
0000
0000
0000
0000
0000
0000
0000
0000
0000
0100
0000
0000
0000
0000
0000
0000
0000
0000
0000
0000
0000
0000
0000
0000
0000
0000
0000
0000
0000
0000
0000
0000
0001
0000
0000
0000
0000
0000
0000
0000
0000
0000
0000
0000
0000
0000
0000
0001
0000
0000
0000
0000
0000
0000
0000
0000
0000
0000
0000
0000
0000
0000
0010
0000
0000
0000
0000
0000
0000
0000
0000
0000
0000
0000
0000
0000
0000
0000
0000
0000
0000
0000
0000
1000
0000
0000
0000
0000
0000
0000
0000
0000
0000
0000
0000
0000
0000
0000
0000
0000
0000
0000
0000
0000
1000
0000
0000
0000
0000
0000
0000
0000
0000
0000
0000
0000
0000
0000
0000
0000
0000
0000
0000
0000
0000
0000
0000
0000
0000
0000
0000
0100
0000
0000
0000
0000
0000
0000
0000
0000
0000
0000
0000
0000
0000
0000
0000
0000
0000
0000
0000
0000
0100
0000
0000
0000
0000
0000
0000
0000
0000
0000
0000
0000
0000
0000
0000
0000
0000
0000
0000
0000
0000
0000
0000
0000
0000
0000
0000
0001
0000
0000
0000
0000
0000
,
0000
0000
0000
0001
0000
0000
0000
0000
0001
0000
0000
0000
0000
0000
0000
0000
0000
0000
0000
0000
0010
0000
0000
0000
0000
0000
0000
0000
0000
0000
0000
0000
0000
0100
0000
0000
0000
0000
0000
0000
0000
0000
0000
0000
0000
0000
0200
0000
1011
0000
0000
0000
0000
0000
0000
0000
0300
0000
0000
0000
0000
0000
0000
0000
,
1001
0100
0010
1001
0010
0100
1001
0010
,
0101
0000
0010
0010
0010
0000
1100
0000
1000
0000
0010
0000
1100
0000
0100
0000
,
0011
1000
0010
0011
1000
0100
0011
0100
,
0110
0010
0001
0001
0100
0100
1010
M000
1000
1000
0001
0001
1100
0100
0010
0010
,
1100
0010
0100
0011
0100
1000
0011
0100
,
1001
0000
0001
0001
0001
0000
0101
0000
0100
0000
0010
0000
1100
0000
0010
0000
,
0101
0010
1000
0110
1000
0001
1010
0010
,
0110
0100
0100
0000
1000
0000
1100
0000
0010
0000
0010
0000
0101
0000
0000
0000
,
1001
0110
0011
1100
0110
0101
1010
0011
,
0110
0000
0011
0010
1010
0000
0101
0000
0011
0000
0101
0000
0110
0000
0011
0000
,
0101
1010
1100
0011
0101
1100
0110
0011
,
1101
1000
0110
0100
1010
00M0
0110
0010
1001
0001
0110
0100
0011
0010
1100
1000
,
0110
0101
1010
1100
0110
0011
1100
0110
,
1010
0000
1100
1000
1001
0000
1100
0000
0110
0000
0101
0000
1010
0000
0101
0000
,
0011
0110
1100
0011
0101
1100
0110
0110
,
1111
0000
1111
0000
1111
0000
1111
0000
1111
0000
0000
0000
M111
0000
0000
0000
1M11
0000
0000
0000
111M
0000
0000
0000
1111
0000
0000
0000
000M
00M0
0M00
M000
,
0011
0100
1110
0101
0010
1010
1110
0001
,
0011
0000
0010
0010
1011
0000
0101
0000
0010
0000
0101
0000
1011
0000
0100
0000
,
1001
0010
1110
1010
0100
0011
1101
0010
,
0101
0100
0001
0001
1110
M000
0011
0010
1000
1000
0110
0010
1101
0100
0001
0001
,
1100
0100
0111
0011
1000
0110
1110
0001
,
0011
0000
1000
1000
1011
0000
1100
0000
0010
0000
0011
0000
1110
0000
1000
0000
,
0110
0001
1101
0110
1000
0101
0111
0100
,
1100
0000
0000
0000
0000
0000
0000
0000
0000
0000
0000
0000
1100
0000
0000
0000
0000
0000
0000
0000
0000
0000
0000
0000
1100
0000
0000
0000
0000
0000
0000
0000
0000
0000
0000
0000
0000
0000
0000
0000
0000
0000
0000
0000
0000
0000
0000
0000
1100
0000
0000
0000
0000
0000
0000
0000
0000
0000
0000
0000
0000
0000
0000
0000
0000
0000
0000
0000
0000
0000
0000
0000
1100
0000
0000
0000
0000
0000
0000
0000
0000
0000
0000
0000
0000
0000
0000
0000
0000
0000
0000
0000
0000
0000
0000
0000
0002
0000
0000
0000
0020
0000
2000
0000
0200
0000
0000
0000
0000
0000
0000
0030
0020
0000
0300
0000
0200
0003
0000
0000
3331
0000
0000
0000
0000
0000
0000
0000
0000
0000
0000
0000
0000
0000
0000
0000
0000
0000
0000
0000
0000
0000
0000
0000
0000
0000
0000
0000
000M
0000
0000
0000
M000
0000
0000
0000
0000
0000
0000
0000
000M
0000
0000
0000
0000
0000
0000
0000
M000
0000
0000
0000
0000
0000
0000
0000
000M
0000
0000
0000
0000
0000
0000
0000
0000
0000
0000
0000
0000
0000
0000
0000
,
0110
0011
1100
0101
0110
1100
0011
0110
,
1001
0000
0110
0100
1100
0000
0011
0000
0110
0000
0011
0000
1010
0000
0101
0000
,
0110
1010
0011
1010
0011
0110
0101
1100
,
0011
0001
0110
0010
1100
0100
1001
M000
0101
0001
0110
0100
1010
0010
1100
0100
,
1001
1100
0011
1010
1100
0011
1010
0011
,
0110
0000
0011
0010
1010
0000
0110
0000
1010
0000
0011
0000
1010
0000
0011
0000
,
1100
1010
0011
1100
1010
0011
1010
0011
,
1100
0100
0110
0000
0011
0000
1010
0000
0110
0000
1010
0000
1111
0000
0000
0000
,
1011
0110
1101
0011
1110
0011
0111
1100
,
0111
0000
1100
1000
1110
0000
0011
0000
1110
0000
0011
0000
1101
0000
0011
0000
,
1101
0101
0111
1001
1011
0011
1110
0011
,
1101
0001
1110
0010
1111
0M00
1001
0001
1110
1000
0110
0010
1111
0001
1000
1000
,
0111
1000
0110
1000
0011
0100
1010
0100
0011
1000
0101
0010
1001
0100
1010
0100
,
1001
0010
0101
0100
0101
0010
1001
0100
1010
0001
0110
1000
0101
0010
1100
0001
,
0110
1000
0101
0010
1001
0100
1010
0100
0011
1000
0110
0001
1010
0100
0011
1000
,
0101
0001
0101
0010
1001
0100
1010
0001
0110
1000
0110
1000
1111
0010
0100
1000
,
1001
0010
0100
1000
0001
0010
1001
0100
1000
0001
0010
0100
1001
0100
0010
0001
1000
0100
1010
0001
0010
0100
0001
0010
,
0101
1000
0010
0100
0001
0010
1100
0001
0100
0010
0001
0010
1100
0001
1000
0100
0010
0001
0110
1000
0001
0100
0010
0100
,
1001
0010
1000
0100
1000
0010
1001
0100
0001
0010
0001
0100
1001
0100
0010
1000
0010
0100
1001
0010
0100
0010
0100
0010
,
1001
0100
0010
0100
1000
0100
1111
0010
1000
0100
0010
0001
1010
0100
0010
0100
1000
0001
1111
1000
0001
0010
0100
0010
,
1001
0010
0100
1000
0001
0010
0100
1000
0011
1000
0100
0010
0001
1000
0010
0100
0011
1000
0100
0010
0100
1000
0001
0010
0101
1000
0100
0010
0001
0010
0100
1000
,
0110
0001
0010
0100
1000
0100
0010
0001
0110
0001
0010
0100
1000
0001
0010
0100
1010
0100
0010
1000
0100
0010
0001
0010
1100
0001
0100
0010
1000
0010
0100
0001
,
0110
0001
1000
0001
1000
0001
1000
0001
1010
0100
1000
0100
1000
0100
1000
0100
1010
0001
0010
0001
0010
0001
0010
0001
1010
0100
0010
0100
0010
0100
0010
0100
,
1010
0100
0001
0010
0001
0100
0010
1000
0101
0010
0001
1000
0010
0100
0001
0010
1001
0100
0010
1000
0001
0010
0100
1000
1111
0100
0010
0001
1000
0100
0010
0100
,
2002
0000
0000
0000
0000
0000
0000
0000
0000
0000
0000
0000
0000
0000
0000
0000
0000
0000
0000
0000
0000
0000
0000
0000
0000
0000
0000
0000
0000
0000
0000
0000
0000
0100
0000
0000
0000
0000
0000
0000
0000
0000
0000
0000
0000
0000
0000
0000
0000
0000
0000
0000
0000
0000
0000
0000
0000
0000
0000
0000
0000
0000
0000
0000
0000
0000
0000
0000
0000
0010
0000
0000
0000
0000
0000
0000
0000
0000
0000
0000
0000
0000
0000
0000
0000
0000
0000
0000
0000
0000
0000
0000
0000
0010
0000
0000
0000
0000
0000
0000
0000
0000
0000
0000
0000
0000
0000
0000
0000
0000
0000
0000
0000
0000
0000
0000
0000
0000
0000
0000
0000
0000
0000
0100
0000
0000
0000
0000
0000
0000
0000
0000
0000
0000
0000
0000
0000
0000
0000
0000
0000
0100
0000
0000
0000
0000
0000
0000
0000
0000
0000
0000
0000
0000
0000
0000
0000
0000
0000
0000
0000
0000
0000
0000
0000
0000
0000
0000
0010
0000
0000
0000
0100
0000
0000
0000
0000
0000
0000
0000
0000
0000
0000
0000
0000
0000
0000
0000
0000
0000
0000
0000
,
0000
0000
0000
0000
0000
0010
0000
0000
0000
0000
0000
0000
0000
0000
0000
0010
0000
0000
0000
0000
0000
0000
0000
0000
0000
0000
0010
0000
0000
0000
0100
0000
0000
0000
0000
0000
0010
0000
0000
0000
0000
0000
0000
0000
0000
0100
0000
0000
0000
0000
0000
0000
0000
0000
0000
0000
0000
0000
0000
0000
0000
0000
0000
3000
,
2000
0000
0000
0000
,
0000
0000
0000
0000
0000
0000
0000
0000
0000
0000
0000
0000
0000
0000
0000
0000
0000
0000
0000
0000
0000
0000
0000
0000
0000
0000
0000
0000
0000
0000
0000
0000
0000
3000
0000
1000
0000
0000
0000
0000
1000
0000
0000
0000
0000
1000
0000
0000
,
0000
M000
0000
0000
1000
0000
0000
M000
0000
0000
1000
0000
M000
0000
1000
0000
0000
M000
0000
M000
0000
0000
1000
0000
0000
0000
1000
0000
0000
0000
1000
0000
,
2000
0000
0000
0000
0000
0000
0000
0000
0000
0000
0000
0000
0000
0000
0000
0000
0000
0000
0000
0000
0000
0000
0000
0000
0000
0000
0000
3000
0000
0000
1000
0000
0000
0000
M000
0000
0000
0000
0000
1000
0000
0000
0000
0000
0000
1000
0000
0000
,
2000
0000
0000
0000
,
0000
0000
0000
0000
0000
0000
0000
0000
0000
0000
0000
0000
0000
0000
0000
0000
0000
0000
0000
0000
0000
0000
0000
0000
0000
0000
0000
0000
0000
0000
0000
0000
0000
3000
0000
0000
M000
0000
0000
0000
M000
0000
0000
0000
M000
0000
0000
0000
,
2000
0000
0000
0000
,
0000
0000
0000
0000
0000
0000
0000
0000
0000
0000
0000
0000
0000
0000
0000
0000
0000
0000
0000
0000
0000
0000
0000
0000
0000
0000
0000
0000
0000
0000
0000
0000
0000
0000
0000
0000
3000
0000
0000
0000
0000
0000
0000
0000
0000
0000
0000
0000
0000
0000
0000
0000
0000
0000
0000
0000
0000
0000
0000
0000
1000
0000
0000
0100
0000
0000
0000
0000
1000
0000
0000
0000
0100
0000
0000
0000
0000
0000
0100
0000
0000
0000
0000
0000
M100
0000
0000
0000
0000
0000
0000
0000
1000
0000
0000
0000
0003
0000
0000
0000
0000
0000
0000
0000
0000
0000
0000
0000
0000
0000
0000
0000
0000
0000
0000
0000
0000
0000
0000
0000
0000
0000
0000
0000
0000
0000
0000
0000
0000
0000
0000
0000
0000
0000
0000
0000
0000
0000
0000
0000
0000
0000
0000
0000
0000
0000
0000
0000
0000
0000
0000
0000
0000
0000
0000
0000
0000
0000
0000
0000
0000
0000
0000
0000
0000
0000
0000
0000
0000
0000
0000
0000
0000
0000
0000
0000
0000
0000
0000
0000
0000
0000
0000
0000
0000
0000
0000
0000
0000
0000
0000
0000
;
