#TITLE:Air;
#SUBTITLE:;
#ARTIST:Shiki;
#TITLETRANSLIT:;
#SUBTITLETRANSLIT:;
#ARTISTTRANSLIT:;
#CREDIT:;
#BANNER:../banner.png;
#BACKGROUND:../bg.png;
#LYRICSPATH:;
#CDTITLE:;
#MUSIC:Air.ogg;
#OFFSET:-1.612;
#SAMPLESTART:1.000;
#SAMPLELENGTH:20.900;
#SELECTABLE:YES;
#BPMS:0.000=178.000;
#STOPS:;
#BGCHANGES:;
// cache tags:
#FIRSTBEAT:12.000;
#LASTBEAT:428.000;
#SONGFILENAME:Songs/Cirque du Lykan/Air - [Zaia]/Air.sm;
#HASMUSIC:1;
#HASBANNER:1;
#MUSICLENGTH:168.698;
// end cache tags

//---------------dance-single - Zaia - 13(mid-high) ----------------
#NOTES:
     dance-single:
     Zaia - 13(mid-high) :
     Challenge:
     13:
     0.984,1.000,0.130,0.172,1.000,1111.000,22.000,29.000,4.000,0.000:
0000
0000
0000
0000
,
0000
0000
0000
0000
,
0000
0000
0000
0000
,
1000
0001
1000
0100
1000
0001
0010
0001
1000
0010
1000
0001
0100
0001
0010
0100
,
1000
0001
1000
0010
1000
0001
0100
0001
1000
0100
1000
0001
0010
0001
0100
0010
,
1000
0001
1000
0001
0100
0001
1000
0010
1000
0001
0010
0001
1000
0100
1000
0010
,
0100
0001
1000
0001
0010
0001
1000
0100
1000
0001
0100
0001
1000
0010
1000
0100
,
0010
0100
1000
0001
0010
0001
1000
0100
0010
0001
1000
0100
1000
0001
0010
0100
,
1000
0010
1000
0001
0100
0001
1000
0010
1000
0001
0100
0010
1000
0001
0100
0001
,
0010
0100
0010
0001
1000
0100
0010
0001
1000
0001
0010
0100
1000
0001
0010
0001
,
0100
0010
1000
0100
1000
0001
1000
0001
0010
0001
0100
0001
0010
0100
0010
0100
,
1000
0001
1000
0010
M00M
0010
0001
1000
,
0100
0010
0001
0100
0000
0100
1000
0001
,
0100
0010
1000
0010
0000
0010
0001
1000
,
0100
1000
0001
0010
0000
0010
1000
0001
,
0100
0000
0001
0000
1000
0000
0100
M00M
0100
0000
0001
0000
1000
0000
0100
0000
,
0010
0001
1000
0010
0010
0001
1000
0100
,
1000
0001
1000
0010
0010
0100
1000
0001
,
0100
0000
0010
0000
0100
0000
0001
0000
1000
0010
1000
0001
0000
1000
0001
0010
,
0100
1000
0001
0100
0010
0100
0001
1000
0100
0010
0100
1000
0010
0100
0001
1000
,
0100
0010
0001
1000
0001
0010
0001
1000
0010
0100
0010
1000
0100
0010
0001
1000
,
0010
1000
0001
0010
0100
0010
0001
1000
0010
0100
0010
1000
0100
0010
0001
1000
,
0010
0100
0010
1000
0001
0100
0001
1000
0100
0010
0100
1000
0010
0100
0010
1000
,
0001
1000
0010
0100
0010
1000
0001
0010
0100
0010
0001
0100
0010
1000
0001
0010
,
0100
1000
0001
1000
0100
1000
0001
0100
0010
0100
0001
0010
0100
1000
0001
0100
,
0001
1000
0100
0010
0100
1000
0001
0100
0010
0100
0001
0010
0100
1000
0001
0100
,
0010
1000
0001
1000
0010
1000
0001
0010
0100
0010
0001
0100
0010
1000
0010
0100
,
0002
0000
0000
0000
,
0000
0000
2003
0000
3200
0320
0000
0000
,
0032
0000
0000
0203
0000
0000
0302
0000
,
0023
0000
0230
0000
2300
3200
0000
0000
,
0320
0000
0000
0000
0000
0032
0000
0203
,
0320
0000
2030
0000
3002
0023
0000
0000
,
0032
0000
0000
0000
0000
2003
0000
3020
,
0230
0000
0000
0000
0302
0000
0000
0000
2003
0000
3020
0000
0000
0000
0000
0030
,
1000
0001
0100
0001
1000
0001
0010
0100
1000
0001
1000
0010
0100
0001
1000
0001
,
0010
0100
0010
0001
1000
0010
0100
0010
1000
0100
1000
0010
0100
0001
1000
0001
,
0010
0100
1000
0001
0100
0001
0010
0001
1000
0010
0100
0010
1000
0001
1000
0010
,
1000
0001
0010
0001
1000
0010
0100
0001
1000
0001
0010
0100
1000
0001
0010
0001
,
1000
0010
0100
0001
1000
0001
0100
0010
1000
0001
0010
0100
0010
0001
0100
0010
,
1000
0100
1000
0001
0010
0001
1000
0010
0100
0001
1000
0001
0100
0010
0100
0010
,
1000
0100
0010
0001
1000
0100
1000
0001
0010
0001
1000
0010
0100
0010
1000
0001
,
0010
0100
1000
0001
0100
0010
1000
0001
0010
0001
0100
0010
1000
0001
0100
0010
,
1000
0001
0010
0001
1000
0001
0100
0010
1000
0001
1000
0100
0010
0001
1000
0001
,
0100
0010
0100
0001
1000
0100
0010
0100
1000
0010
1000
0100
0010
0001
1000
0001
,
0100
0010
1000
0001
0010
0001
0100
0001
1000
0100
0010
0100
1000
0001
1000
0100
,
1000
0001
0100
0001
1000
0100
0010
0001
1000
0001
0100
0010
1000
0001
0100
0001
,
1000
0100
0010
0001
1000
0001
0010
0100
1000
0001
0100
0010
0100
0001
0010
0100
,
1000
0010
1000
0001
0100
0001
1000
0100
0010
0001
1000
0001
0010
0100
0010
0100
,
1000
0010
0100
0001
1000
0010
1000
0001
0100
0001
1000
0100
0010
0100
1000
0001
,
0100
0010
1000
0001
0010
0100
1000
0001
0100
0001
0010
0100
1000
0001
0010
0001
,
1000
0100
1000
0100
1000
0100
1000
0100
,
0010
0100
0010
0100
0010
0100
0010
0100
,
0010
0001
0010
0001
0010
0001
0010
0001
,
0010
0001
0010
0001
0010
0001
0010
0001
,
0100
0001
0100
0001
0100
0001
0100
0001
,
0100
0010
0100
0010
0100
0010
0100
0010
,
1000
0010
1000
0010
1000
0010
1000
0010
,
1000
0010
0010
1000
0020
0000
0000
0030
,
0100
0001
0100
0001
0100
0001
0100
0001
,
1000
0001
1000
0001
1000
0001
1000
0001
,
0010
0100
0010
0100
0010
0100
0010
0100
,
0010
0100
0010
0100
0010
0100
0010
0100
,
1000
0100
1000
0100
1000
0100
1000
0100
,
1000
0010
1000
0010
1000
0010
1000
0010
,
0100
0001
0100
0001
0100
0001
0100
0001
,
0100
0001
0001
0100
0002
0000
0000
0003
,
0101
0000
0000
0000
0000
0000
0000
0000
0000
0000
0000
0000
0000
0000
0000
0000
0000
0000
0000
0000
0000
0001
0010
0001
,
1000
0000
0100
1000
0000
1000
0001
0000
,
1001
0000
0000
0101
0000
0000
0110
0010
,
2000
0000
3002
0000
,
0013
0000
0000
0000
,
0000
0000
0110
0000
1100
1001
0000
0001
,
0100
0000
0010
0000
,
1000
0010
0100
0001
1000
0010
0100
0001
0010
0100
1000
0001
0010
0100
1000
0001
,
0010
0000
0000
0000
0000
0000
0010
0000
0000
0000
0000
0000
0010
0000
0000
0000
0000
0000
0100
0000
0000
1000
0100
1000
,
0001
0000
1000
0010
0000
0010
0100
0000
,
0101
0000
0000
1001
0000
0000
1100
0100
,
0010
0010
0010
0010
,
0011
0001
0001
0001
,
0001
0000
1001
0000
1010
0110
0000
0100
,
0001
0000
1000
0000
,
0100
0010
0001
1000
0100
0010
0001
1000
0001
0100
0010
1000
0001
0100
0010
1000
,
0001
0000
0000
0000
0000
0000
0001
0000
0000
0000
0000
0000
0001
0000
0000
0000
0000
0000
1000
0000
0000
0001
0100
0001
,
1000
0000
0001
0100
0000
0100
0010
0000
,
1010
0000
0000
1001
0000
0000
0011
0001
,
0100
0100
0100
0100
,
1010
0010
0010
0010
,
0010
0000
0110
0000
0101
0001
0000
1000
,
1100
0000
0110
0000
,
0010
0001
0100
0010
1000
0100
0010
0001
0100
0010
1000
0100
0010
0001
0100
0010
,
1000
0001
1000
0010
1000
0001
0100
0001
1000
0100
1000
0001
0010
0001
0100
0010
,
1000
0001
1000
0100
1000
0001
0010
0001
1000
0010
1000
0001
0100
0001
0010
0100
,
1000
0001
1000
0001
0010
0001
1000
0100
1000
0001
0100
0001
1000
0010
1000
0100
,
0010
0001
1000
0001
0100
0001
1000
0010
1000
0001
0010
0001
1000
0100
1000
0010
,
0100
0001
1000
0100
1000
0001
0010
0001
1000
0010
1000
0001
0100
0001
0010
0100
,
1000
0001
1000
0010
1000
0001
0100
0001
1000
0100
1000
0001
0010
0001
0100
0010
,
1000
0001
1000
0001
0100
0001
1000
0010
1000
0001
0010
0001
1000
0100
1000
0010
,
0100
0001
1000
0001
0010
0001
1000
0100
1000
0001
0100
0001
1000
0010
1000
0100
,
0010
0001
0100
0001
0010
0001
0100
0010
1000
0010
0100
0001
0010
0100
0010
0001
,
1000
0100
1000
0010
1000
0100
1000
0001
0010
0100
0010
0001
1000
0010
1000
0001
,
0100
0001
0010
0001
0100
0001
1000
0100
0010
0001
1000
0001
0100
0010
0100
0001
,
1000
0010
1000
0100
1000
0010
1000
0001
0010
0001
1000
0010
0100
0001
1000
0100
,
1000
0010
1000
0100
1000
0010
0100
0001
0100
0010
1000
0100
0010
0100
1000
0001
,
0010
0001
0100
0001
0010
0001
1000
0100
0010
0100
1000
0001
0100
0001
1000
0010
,
1000
0100
1000
0010
1000
0001
0010
0100
1000
0001
1000
0010
0100
0010
1000
0001
,
0100
0001
0010
0001
0100
0001
1000
0100
1000
0001
0100
0010
1000
0001
0010
0100
,
1000
0000
0000
0000
;

//---------------dance-single - Zaia - 13(low) FS----------------
#NOTES:
     dance-single:
     Zaia - 13(low) FS:
     Hard:
     12:
     0.860,1.000,0.130,0.172,0.862,964.000,22.000,29.000,4.000,0.000:
0000
0000
0000
0000
,
0000
0000
0000
0000
,
0000
0000
0000
0000
,
1000
0001
1000
0100
1000
0001
0010
0001
1000
0010
1000
0001
0100
0001
0010
0100
,
1000
0001
1000
0010
1000
0001
0100
0001
1000
0100
1000
0001
0010
0001
0100
0010
,
1000
0001
1000
0001
0100
0001
1000
0010
1000
0001
0010
0001
1000
0100
1000
0010
,
0100
0001
1000
0001
0010
0001
1000
0100
1000
0001
0100
0001
1000
0010
1000
0100
,
0010
0100
1000
0001
0010
0001
1000
0100
0010
0001
1000
0100
1000
0001
0010
0100
,
1000
0010
1000
0001
0100
0001
1000
0010
1000
0001
0100
0010
1000
0001
0100
0001
,
0010
0100
0010
0001
1000
0100
0010
0001
1000
0001
0010
0100
1000
0001
0010
0001
,
0100
0010
1000
0100
1000
0001
1000
0001
0010
0001
0100
0001
0010
0100
0010
0100
,
1000
0001
1000
0010
M00M
0010
0001
1000
,
0100
0010
0001
0100
0000
0100
1000
0001
,
0100
0010
1000
0010
0000
0010
0001
1000
,
0100
1000
0001
0010
0000
0010
1000
0001
,
0100
0000
0001
0000
1000
0000
0100
M00M
0100
0000
0001
0000
1000
0000
0100
0000
,
0010
0001
1000
0010
0010
0001
1000
0100
,
1000
0001
1000
0010
0010
0100
1000
0001
,
0100
0000
0010
0000
0100
0000
0001
0000
1000
0010
1000
0001
0000
1000
0001
0010
,
0100
1000
0100
0000
1000
0001
1000
0000
0001
0100
0001
0000
0100
0010
0100
0000
,
0010
1000
0010
0000
1000
0001
1000
0000
0001
0010
0001
0000
0010
0100
0010
0000
,
0100
1000
0100
0000
1000
0010
1000
0000
0001
0010
0001
0000
1000
0100
1000
0000
,
0001
1000
0001
0000
0100
0001
0100
0000
0010
0100
0010
0000
1000
0010
1000
0000
,
0001
0010
0001
0000
0010
0100
0010
0000
0100
1000
0100
0000
1000
0001
1000
0000
,
0001
0100
0001
0000
1000
0100
1000
0000
0100
0010
0100
0000
0010
0001
0010
0000
,
0001
1000
0001
0000
0100
0010
0100
0000
0010
1000
0010
0000
1000
0100
1000
0000
,
0001
0010
0001
0000
1000
0001
1000
0000
0010
1000
0010
0000
0100
0010
0100
0000
,
0002
0000
0000
0000
,
0000
0000
2003
0000
3200
0320
0000
0000
,
0032
0000
0000
0203
0000
0000
0302
0000
,
0023
0000
0230
0000
2300
3200
0000
0000
,
0320
0000
0000
0000
0000
0032
0000
0203
,
0320
0000
2030
0000
3002
0023
0000
0000
,
0032
0000
0000
0000
0000
2003
0000
3020
,
0230
0000
0000
0000
0302
0000
0000
0000
2003
0000
3020
0000
0000
0000
0000
0030
,
1000
0000
0001
0000
0010
0000
0001
1000
0000
0001
0100
0000
0010
0000
1000
0000
,
0001
0000
0010
0000
0100
0000
1000
0100
0000
0010
0100
0000
1000
0000
0010
0000
,
0100
0000
0001
0000
0010
0000
0100
1000
0000
0001
1000
0000
0010
0000
0100
0000
,
0001
0000
1000
0000
0100
0000
1000
0010
0000
0100
0001
0000
1000
0000
0001
0000
,
0010
0000
0100
0000
0010
0000
0001
1000
0000
0001
0100
0000
0010
0000
1000
0000
,
0001
0000
0010
0000
0100
0000
1000
0001
0000
0010
0001
0000
1000
0000
0010
0000
,
0100
0000
0001
0000
0010
0000
0100
0010
0000
0100
1000
0000
0001
0000
1000
0000
,
0010
0000
0100
0000
0001
0000
0010
0001
0000
1000
0001
0000
0100
0000
0001
0000
,
1000
0000
0001
0000
0100
0000
0001
1000
0000
0001
0010
0000
0100
0000
1000
0000
,
0001
0000
0100
0000
0010
0000
1000
0010
0000
0100
0010
0000
1000
0000
0100
0000
,
0010
0000
0001
0000
0100
0000
0010
1000
0000
0001
1000
0000
0100
0000
0010
0000
,
0001
0000
1000
0000
0010
0000
1000
0100
0000
0010
0001
0000
1000
0000
0001
0000
,
0100
0000
0010
0000
0100
0000
0001
1000
0000
0001
0010
0000
0100
0000
1000
0000
,
0001
0000
0100
0000
0010
0000
1000
0001
0000
0100
0001
0000
1000
0000
0100
0000
,
0010
0000
0001
0000
0100
0000
0010
0100
0000
0010
1000
0000
0001
0000
1000
0000
,
0100
0000
0010
0000
0001
0000
0100
0001
0000
1000
0001
0000
0010
0000
0001
0000
,
1000
0100
1000
0100
1000
0100
1000
0100
,
0010
0100
0010
0100
0010
0100
0010
0100
,
0010
0001
0010
0001
0010
0001
0010
0001
,
0010
0001
0010
0001
0010
0001
0010
0001
,
0100
0001
0100
0001
0100
0001
0100
0001
,
0100
0010
0100
0010
0100
0010
0100
0010
,
1000
0010
1000
0010
1000
0010
1000
0010
,
1000
0010
0010
1000
0020
0000
0000
0030
,
0100
0001
0100
0001
0100
0001
0100
0001
,
1000
0001
1000
0001
1000
0001
1000
0001
,
0010
0100
0010
0100
0010
0100
0010
0100
,
0010
0100
0010
0100
0010
0100
0010
0100
,
1000
0100
1000
0100
1000
0100
1000
0100
,
1000
0010
1000
0010
1000
0010
1000
0010
,
0100
0001
0100
0001
0100
0001
0100
0001
,
0100
0001
0001
0100
0002
0000
0000
0003
,
0101
0000
0000
0000
0000
0000
0000
0000
0000
0000
0000
0000
0000
0000
0000
0000
0000
0000
0000
0000
0000
0001
1000
0100
,
0000
0000
0010
0001
0000
0001
1000
0000
,
1001
0000
0000
1010
0000
0000
0110
0100
,
0002
0000
2003
0000
,
3100
0000
0000
0000
,
0000
0000
0110
0000
0011
1001
0000
0001
,
0100
0000
0010
0000
,
0100
0001
1000
0010
0100
0001
1000
0010
0100
0001
1000
0100
0010
0001
1000
0100
,
0010
0000
0000
0000
0000
0000
0010
0000
0000
0000
0000
0000
0010
0000
0000
0000
0000
0000
0100
0000
0000
1000
0100
0010
,
0000
0000
0001
0100
0000
0100
0010
0000
,
1010
0000
0000
1001
0000
0000
0011
0010
,
0100
0100
0100
0100
,
1100
1000
1000
1000
,
1000
0000
1001
0000
0101
0110
0000
0010
,
1000
0000
0001
0000
,
0010
0100
1000
0001
0010
0100
1000
0001
1000
0010
0100
0001
1000
0010
0100
0001
,
1000
0000
0000
0000
0000
0000
1000
0000
0000
0000
0000
0000
1000
0000
0000
0000
0000
0000
0001
0000
0000
0100
0010
1000
,
0000
0000
0001
0100
0000
0100
0010
0000
,
1010
0000
0000
1001
0000
0000
0011
0001
,
0100
0100
0100
0100
,
1010
0010
0010
0010
,
0010
0000
0110
0000
0101
0001
0000
1000
,
1100
0000
0110
0000
,
1000
0100
0010
0001
1000
0010
0100
0001
1000
0100
0010
0001
1000
0010
0100
0010
,
1000
0001
1000
0010
1000
0001
0100
0001
1000
0100
1000
0001
0010
0001
0100
0010
,
1000
0001
1000
0100
1000
0001
0010
0001
1000
0010
1000
0001
0100
0001
0010
0100
,
1000
0001
1000
0001
0010
0001
1000
0100
1000
0001
0100
0001
1000
0010
1000
0100
,
0010
0001
1000
0001
0100
0001
1000
0010
1000
0001
0010
0001
1000
0100
1000
0010
,
0100
0001
1000
0100
1000
0001
0010
0001
1000
0010
1000
0001
0100
0001
0010
0100
,
1000
0001
1000
0010
1000
0001
0100
0001
1000
0100
1000
0001
0010
0001
0100
0010
,
1000
0001
1000
0001
0100
0001
1000
0010
1000
0001
0010
0001
1000
0100
1000
0010
,
0100
0001
1000
0001
0010
0001
1000
0100
1000
0001
0100
0001
1000
0010
1000
0100
,
0010
0001
1000
0001
0010
0001
0100
0010
1000
0010
0100
0001
0010
0100
0010
0001
,
1000
0100
1000
0001
1000
0100
1000
0001
0010
0100
0010
0001
1000
0010
1000
0001
,
0100
0001
1000
0001
0100
0001
1000
0100
0010
0001
1000
0001
0100
0010
0100
0001
,
1000
0010
1000
0001
1000
0010
1000
0001
0010
0001
1000
0010
0100
0001
1000
0100
,
1000
0001
1000
0100
1000
0010
0100
0001
0100
0010
1000
0100
0010
0100
1000
0001
,
0010
0001
1000
0001
0010
0001
1000
0100
0010
0100
1000
0001
0100
0001
1000
0010
,
1000
0001
1000
0010
1000
0001
0010
0100
1000
0001
1000
0010
0100
0010
1000
0001
,
0100
0001
1000
0001
0100
0001
1000
0100
1000
0001
0100
0010
1000
0001
0010
0100
,
1000
0000
0000
0000
;

//---------------dance-single - Zaia - 10(mid) FS----------------
#NOTES:
     dance-single:
     Zaia - 10(mid) FS:
     Medium:
     10:
     0.661,0.793,0.130,0.172,0.258,730.000,22.000,29.000,4.000,0.000:
0000
0000
0000
0000
,
0000
0000
0000
0000
,
0000
0000
0000
0000
,
1000
0000
0000
0010
0000
0000
0100
0000
0000
0001
0000
0000
0010
0000
0001
0000
,
1000
0000
0000
0100
0000
0000
0010
0000
0000
0100
0000
0000
1000
0000
0010
0000
,
0100
0000
0000
0001
0000
0000
1000
0000
0000
0100
0000
0000
1000
0000
0010
0000
,
0100
0000
0000
0001
0000
0000
0010
0000
0000
0001
0000
0000
0100
0000
0010
0000
,
1000
0000
0000
0100
0000
0000
0010
0000
0000
0001
0000
0000
0100
0000
0001
0000
,
1000
0000
0000
0010
0000
0000
0100
0000
0000
0010
0000
0000
1000
0000
0100
0000
,
0010
0000
0000
0001
0000
0000
1000
0000
0000
0010
0000
0000
1000
0000
0100
0000
,
0010
0000
0000
0001
0000
0000
0100
0000
0000
0001
0000
0000
0010
0000
0100
0000
,
1000
0001
1000
0010
M00M
0010
0001
1000
,
0100
0010
0001
0100
0000
0100
1000
0001
,
0100
0010
1000
0010
0000
0010
0001
1000
,
0100
1000
0001
0010
0000
0010
1000
0001
,
0100
0000
0001
0000
1000
0000
0100
M00M
0100
0000
0001
0000
1000
0000
0100
0000
,
0010
0001
1000
0010
0010
0001
1000
0100
,
1000
0001
1000
0010
0010
0100
1000
0001
,
0100
0000
0010
0000
0100
0000
0001
0000
0000
0000
0100
0010
0000
1000
0001
1000
,
0001
0010
0100
0000
1000
0001
1000
0000
0001
0100
0001
0000
0100
0010
0100
0000
,
0010
1000
0010
0000
1000
0001
1000
0000
0001
0010
0001
0000
0010
0100
0010
0000
,
0100
1000
0100
0000
1000
0010
1000
0000
0001
0010
0001
0000
1000
0100
1000
0000
,
0001
1000
0001
0000
0100
0001
0100
0000
0010
0100
0010
0000
1000
0010
1000
0000
,
0001
0010
0001
0000
0010
0100
0010
0000
0100
1000
0100
0000
1000
0001
1000
0000
,
0001
0100
0001
0000
1000
0100
1000
0000
0100
0010
0100
0000
0010
0001
0010
0000
,
0001
1000
0001
0000
0100
0010
0100
0000
0010
1000
0010
0000
1000
0100
1000
0000
,
0001
0010
0001
0000
1000
0001
1000
0000
0010
1000
0010
0000
0100
0010
0100
0000
,
0002
0000
0000
0000
,
0000
0000
2003
0000
3200
0320
0000
0000
,
0032
0000
0000
0203
0000
0000
0302
0000
,
0023
0000
0230
0000
2300
3200
0000
0000
,
0320
0000
0000
0000
0000
0032
0000
0203
,
0320
0000
2030
0000
3002
0023
0000
0000
,
0032
0000
0000
0000
0000
2003
0000
3020
,
0230
0000
0000
0000
0302
0000
0000
0000
2003
0000
3020
0000
0000
0000
0000
0030
,
1000
0000
0001
0000
0010
0000
0001
1000
0000
0001
0100
0000
0010
0000
1000
0000
,
0001
0000
0010
0000
0100
0000
1000
0100
0000
0010
0100
0000
1000
0000
0010
0000
,
0100
0000
0001
0000
0010
0000
0100
1000
0000
0001
1000
0000
0010
0000
0100
0000
,
0001
0000
1000
0000
0100
0000
1000
0010
0000
0100
0001
0000
1000
0000
0001
0000
,
0010
0000
0100
0000
0010
0000
0001
1000
0000
0001
0100
0000
0010
0000
1000
0000
,
0001
0000
0010
0000
0100
0000
1000
0001
0000
0010
0001
0000
1000
0000
0010
0000
,
0100
0000
0001
0000
0010
0000
0100
0010
0000
0100
1000
0000
0001
0000
1000
0000
,
0010
0000
0100
0000
0001
0000
0010
0001
0000
1000
0001
0000
0100
0000
0001
0000
,
1000
0000
0001
0000
0100
0000
0001
1000
0000
0001
0010
0000
0100
0000
1000
0000
,
0001
0000
0100
0000
0010
0000
1000
0010
0000
0100
0010
0000
1000
0000
0100
0000
,
0010
0000
0001
0000
0100
0000
0010
1000
0000
0001
1000
0000
0100
0000
0010
0000
,
0001
0000
1000
0000
0010
0000
1000
0100
0000
0010
0001
0000
1000
0000
0001
0000
,
0100
0000
0010
0000
0100
0000
0001
1000
0000
0001
0010
0000
0100
0000
1000
0000
,
0001
0000
0100
0000
0010
0000
1000
0001
0000
0100
0001
0000
1000
0000
0100
0000
,
0010
0000
0001
0000
0100
0000
0010
0100
0000
0010
1000
0000
0001
0000
1000
0000
,
0100
0000
0010
0000
0001
0000
0100
0001
0000
1000
0001
0000
0010
0000
0001
0000
,
1000
0100
1000
0100
1000
0100
1000
0100
,
0010
0100
0010
0100
0010
0100
0010
0100
,
0010
0001
0010
0001
0010
0001
0010
0001
,
0010
0001
0010
0001
0010
0001
0010
0001
,
0100
0001
0100
0001
0100
0001
0100
0001
,
0100
0010
0100
0010
0100
0010
0100
0010
,
1000
0010
1000
0010
1000
0010
1000
0010
,
1000
0010
0010
1000
0020
0000
0000
0030
,
0100
0001
0100
0001
0100
0001
0100
0001
,
1000
0001
1000
0001
1000
0001
1000
0001
,
0010
0100
0010
0100
0010
0100
0010
0100
,
0010
0100
0010
0100
0010
0100
0010
0100
,
1000
0100
1000
0100
1000
0100
1000
0100
,
1000
0010
1000
0010
1000
0010
1000
0010
,
0100
0001
0100
0001
0100
0001
0100
0001
,
0100
0001
0001
0100
0002
0000
0000
0003
,
0101
0000
0000
0000
0000
0000
0000
0000
0000
0000
0000
0000
0000
0000
0010
1000
,
0001
0000
0010
0001
0000
0001
1000
0000
,
1001
0000
0000
1010
0000
0000
0110
0100
,
0002
0000
2003
0000
,
3100
0000
0000
0000
,
0000
0000
0110
0000
0011
1001
0000
0001
,
0100
0000
0010
0000
,
0100
0001
1000
0010
1000
0100
0010
0001
,
0010
0000
0000
0000
0010
0000
0000
0000
0010
0000
0000
0000
0100
0000
1000
0001
,
0010
0000
0001
0100
0000
0100
0010
0000
,
1010
0000
0000
1001
0000
0000
0011
0010
,
0100
0100
0100
0100
,
1100
1000
1000
1000
,
1000
0000
1001
0000
0101
0110
0000
0010
,
1000
0000
0001
0000
,
0010
0100
1000
0001
0010
0001
0100
0010
,
1000
0000
0000
0000
1000
0000
0000
0000
1000
0000
0000
0000
0001
0000
0100
0010
,
1000
0000
0001
0100
0000
0100
0010
0000
,
1010
0000
0000
1001
0000
0000
0011
0001
,
0100
0100
0100
0100
,
1010
0010
0010
0010
,
0010
0000
0110
0000
0101
0001
0000
1000
,
1100
0000
0110
0000
,
0001
0010
0100
1000
0001
0100
0010
1000
,
0001
0010
0001
0100
0001
1000
0100
1000
,
0010
1000
0001
0010
0100
1000
0010
1000
,
0100
1000
0001
0100
0001
0010
0001
1000
,
0010
0100
0001
0010
0100
1000
0010
0100
,
0001
1000
0100
1000
0010
1000
0001
0100
,
0001
0010
0001
1000
0100
0010
0100
1000
,
0001
0100
0010
0100
0001
0010
0001
0100
,
0001
1000
0010
1000
0100
1000
0010
0100
,
0001
1000
0001
0010
0100
1000
0001
1000
,
0010
0100
0001
1000
0010
1000
0100
1000
,
0001
0010
0001
0100
0001
1000
0100
0010
,
0001
1000
0010
0100
0001
0010
0001
1000
,
0100
1000
0010
1000
0001
0100
0001
0010
,
0001
1000
0010
0100
0001
1000
0001
0010
,
0100
1000
0001
0100
0010
0100
0001
0010
,
0100
1000
0001
0100
0010
1000
0001
1000
,
0010
0000
0000
0000
;
