#TITLE:Go!Go! Broadcloth Appeal;
#SUBTITLE:;
#ARTIST:DJ Sharpnel;
#TITLETRANSLIT:;
#SUBTITLETRANSLIT:;
#ARTISTTRANSLIT:;
#CREDIT:;
#BANNER:broadcloth bn.png;
#BACKGROUND:broadcloth bg.png;
#LYRICSPATH:;
#CDTITLE:;
#MUSIC:02 Go!Go! Broadcloth Appeal.ogg;
#OFFSET:-3.866;
#SAMPLESTART:117.505;
#SAMPLELENGTH:20.200;
#SELECTABLE:YES;
#BPMS:0.000=190.091;
#STOPS:;
#BGCHANGES:;
// cache tags:
#FIRSTBEAT:0.000;
#LASTBEAT:700.000;
#SONGFILENAME:Songs/SHARPNELSTREAMZ v2/Go!Go! Broadcloth Appeal/Go!Go! Broadcloth Appeal.sm;
#HASMUSIC:1;
#HASBANNER:1;
#MUSICLENGTH:226.194;
// end cache tags

//---------------dance-single - 16+ (@@)----------------
#NOTES:
     dance-single:
     16+ (@@):
     Challenge:
     16:
     1.000,1.000,0.022,0.632,1.000,2187.000,5.000,143.000,0.000,0.000:
2002
3003
1000
1000
0100
0100
0010
0010
,
0001
0001
0100
0020
2030
0000
3200
0000
,
1300
0001
1000
0001
0100
0010
0100
0001
1000
0010
1000
0001
0010
0100
1000
0100
,
0010
0001
1000
0001
0100
0010
0100
0001
0010
0100
0010
0100
1000
0001
1000
0001
,
0100
0010
0100
0010
1000
0001
0100
0001
1000
0010
1000
0001
0010
0100
1000
0100
,
0010
0001
1000
0100
1000
0001
0100
0010
1000
0100
1000
0100
0010
0001
0010
0001
,
1000
0010
1000
0010
0100
0001
1000
0001
0100
0010
1000
0001
0010
0100
1000
0001
,
0010
0100
0010
0100
1000
0010
1000
0010
0100
0001
0100
0001
0010
0100
0010
0100
,
1000
0001
1000
0001
0010
0100
0010
0001
1000
0100
1000
0001
0100
0010
1000
0010
,
0100
0001
1000
0001
0010
0100
0010
0001
0100
0010
0100
0010
1000
0001
1000
0001
,
0010
0100
0010
0100
1000
0001
0010
0001
1000
0100
1000
0001
0100
0010
1000
0010
,
0100
0001
1000
0010
1000
0001
0010
0100
1000
0010
1000
0010
0100
0001
0100
0001
,
1000
0100
1000
0100
0010
0001
1000
0001
0010
0100
1000
0001
0100
0010
1000
0001
,
1000
0010
0100
0010
1000
0001
0010
0001
0100
0010
0100
0010
1000
0001
1000
0001
,
0010
0100
0010
0100
1000
0001
0010
0001
1000
0100
0010
0001
1000
0010
1000
0001
,
0100
0010
0100
0010
1000
0100
1000
0100
0010
0001
0010
0001
0100
0010
0100
0010
,
1000
0001
1000
0001
0100
0010
0100
0001
1000
0100
0010
0001
1000
0010
1000
0001
,
0010
0100
1000
0001
1000
0010
0100
0001
0010
0100
0010
0100
1000
0001
1000
0001
,
0100
0010
0100
0010
1000
0001
0100
0001
1000
0100
0010
0001
1000
0010
1000
0001
,
0010
0100
1000
0001
1000
0010
0100
0010
1000
0100
1000
0100
0010
0001
0010
0001
,
1000
0010
1000
0010
0100
0001
1000
0010
1000
0001
0010
0100
1000
0001
0100
0001
,
1000
0100
0010
0001
1000
0010
0100
0001
0010
0100
0010
0100
1000
0001
1000
0001
,
0100
0010
0100
0010
1000
0001
0100
0001
1000
0100
0010
0001
1000
0010
1000
0001
,
0100
0010
0100
0010
1000
0100
1000
0100
0010
0001
0010
0001
0100
0010
0100
0010
,
1000
0001
1000
0001
0010
0100
0010
0001
1000
0010
0100
0001
1000
0100
1000
0001
,
0100
0010
1000
0001
1000
0100
0010
0001
0100
0010
0100
0010
1000
0001
1000
0001
,
0010
0100
0010
0100
1000
0001
0010
0001
1000
0010
0100
0001
1000
0100
1000
0001
,
0100
0010
1000
0001
1000
0100
0010
0100
1000
0010
1000
0010
0100
0001
0100
0001
,
1000
0100
1000
0100
0010
0001
1000
0100
1000
0001
0100
0010
1000
0001
0010
0001
,
1000
0010
0100
0001
1000
0100
0010
0001
0100
0010
0100
0010
1000
0001
1000
0001
,
0010
0100
0010
0100
1000
0001
0010
0001
1000
0010
0100
0001
1000
0100
1000
0001
,
0010
0100
0010
0100
1000
0010
1000
0010
0100
0001
0100
0001
0010
0100
0010
0100
,
1000
0010
1000
0001
1000
0100
0010
0100
1000
0001
0100
0001
1000
0100
0010
0100
,
1000
0010
0100
0001
1000
0001
0100
0010
1000
0001
0010
0100
1000
0001
0100
0010
,
0100
0001
1000
0001
0010
0100
0010
0001
1000
0010
1000
0001
1000
0100
0010
0001
,
0100
0010
1000
0001
1000
0010
0100
0001
1000
0100
0010
0001
1000
0001
0100
0010
,
1000
0001
1000
0100
1000
0001
0100
0010
0100
0001
1000
0001
0010
0100
0010
0001
,
0100
0010
1000
0001
0100
0001
1000
0010
1000
0001
0010
0100
1000
0001
0100
0010
,
1000
0001
0010
0001
1000
0010
0100
0001
1000
0100
1000
0001
1000
0010
0100
0001
,
0010
0100
1000
0001
0100
0010
0100
0001
1000
0100
0010
0001
0100
0010
0100
0010
,
1000
0100
1000
0001
1000
0010
0100
0010
1000
0001
0010
0001
1000
0010
0100
0010
,
1000
0100
0010
0001
1000
0001
0010
0100
1000
0001
0100
0010
1000
0001
0010
0100
,
0010
0001
1000
0001
0100
0010
0100
0001
1000
0100
1000
0001
1000
0010
0100
0001
,
0010
0100
1000
0001
1000
0100
0010
0001
1000
0010
0100
0001
1000
0001
0010
0100
,
1000
0001
1000
0010
1000
0001
0010
0100
0010
0001
1000
0001
0100
0010
0100
0001
,
0010
0100
1000
0001
0010
0001
1000
0100
1000
0001
0100
0010
1000
0001
0010
0100
,
1000
0001
0100
0001
1000
0100
0010
0001
1000
0010
1000
0001
1000
0100
0010
0001
,
0100
0010
1000
0001
0010
0100
0010
0001
1000
0010
0100
0001
0010
0100
0010
0100
,
1000
0001
0100
0001
1000
0010
0100
0001
1000
0100
1000
0001
1000
0010
0100
0001
,
0010
0100
1000
0001
0010
0001
1000
0100
1000
0001
0100
0010
1000
0001
0010
0100
,
1000
0001
1000
0010
1000
0001
0010
0100
1000
0001
0100
0001
1000
0100
0010
0100
,
1000
0010
0100
0001
1000
0010
0100
0010
1000
0001
0010
0100
1000
0001
0100
0010
,
0100
0001
1000
0001
0010
0100
0010
0001
1000
0010
1000
0001
1000
0100
0010
0100
,
1000
0010
0100
0001
0100
0010
1000
0001
1000
0100
0010
0001
1000
0010
0100
0001
,
1000
0100
1000
0001
1000
0010
0100
0010
1000
0001
0010
0001
1000
0010
0100
0001
,
0010
0100
0010
0001
1000
0010
0100
0001
1000
0100
0010
0001
0100
0010
0100
0010
,
1000
0100
0010
0001
1000
0010
0100
0001
0100
0010
1000
0001
0010
0100
1000
0010
,
1000
0001
0010
0001
1000
0100
0010
0001
1000
0010
0100
0001
0010
0100
0010
0100
,
1000
0001
0100
0001
1000
0100
1000
0001
0010
0100
0010
0001
1000
0010
1000
0100
,
0010
0001
1000
0010
1000
0001
0100
0001
1000
0100
0010
0100
1000
0010
1000
0010
,
1000
0001
0010
0001
1000
0010
1000
0001
0100
0001
1000
0100
0010
0100
1000
0010
,
1000
0001
0010
0001
1000
0100
1000
0001
0100
0010
0100
0001
0010
0100
0010
0100
,
1000
0001
0100
0010
1000
0001
0010
0100
1000
0001
0010
0001
1000
0010
1000
0100
,
0010
0001
0010
0001
0100
0010
0100
0010
1000
0001
1000
0001
0010
0100
0010
0100
,
1000
0010
0100
0001
1000
0100
0010
0001
0010
0100
1000
0001
0100
0010
1000
0100
,
1000
0001
0100
0001
1000
0010
0100
0001
1000
0100
0010
0001
0100
0010
0100
0010
,
1000
0001
0010
0001
1000
0010
1000
0001
0100
0010
0100
0001
1000
0100
1000
0010
,
0100
0001
1000
0100
1000
0001
0010
0001
1000
0010
0100
0010
1000
0100
1000
0100
,
1000
0001
0100
0001
1000
0100
1000
0001
0010
0001
1000
0010
0100
0010
1000
0100
,
1000
0001
0100
0001
1000
0010
1000
0001
0010
0100
0010
0001
0100
0010
0100
0010
,
1000
0001
0010
0100
1000
0001
0100
0010
1000
0001
0100
0001
1000
0100
1000
0010
,
0100
0001
0100
0001
0010
0100
0010
0100
1000
0001
1000
0001
0100
0010
0100
0010
,
1000
0100
0010
0001
0100
0001
1000
0000
,
0010
0200
0300
0000
0001
0020
0030
0000
,
0001
0100
0010
1000
0100
1000
0001
0000
,
0100
0020
0030
0000
1000
0200
0300
0000
,
1000
0001
0010
0001
0100
0010
1000
0000
,
0001
0020
0030
0000
0001
0200
0300
0000
,
0001
1000
0010
1000
0100
0010
0001
0000
,
0200
0300
0010
1000
0200
0300
0010
0010
,
0001
0100
0010
1000
0100
1000
0001
0000
,
0010
0200
0300
0000
1000
0020
0030
0000
,
1000
0100
0010
0001
0100
0001
1000
0000
,
0100
0020
0030
0000
0001
0200
0300
0000
,
0001
1000
0010
1000
0100
0010
0001
0000
,
1000
0020
0030
0000
1000
0200
0300
0000
,
1000
0001
0010
0001
0100
0010
1000
0000
,
0200
0300
0010
0001
0200
0300
0010
0010
,
2000
0000
3000
0000
0002
0003
0002
0003
0002
0003
0000
0000
0002
0000
0003
0000
,
0200
0000
0300
0000
0020
0000
0030
0000
2000
3000
0200
0300
0010
0000
0000
0000
,
0001
0100
0010
1000
0001
0010
0100
1000
0100
0010
0001
1000
0010
0100
0001
0010
,
0001
1000
0010
1000
0001
0100
0010
1000
0001
0010
0100
1000
0010
0100
0010
0100
,
0001
1000
0100
1000
0001
0100
0001
1000
0010
0100
0010
1000
0001
0010
0001
0100
,
0010
1000
0001
0010
0001
1000
0100
1000
0001
0100
0010
0100
0001
0010
0001
0010
,
0001
1000
0010
1000
0001
0010
0001
1000
0100
1000
0001
0100
0010
0100
0001
0010
,
0001
1000
0010
1000
0001
0100
0001
1000
0100
0010
0100
1000
0010
0100
0010
0100
,
0001
1000
0100
0010
0001
1000
0010
0100
0001
1000
0010
1000
0001
0010
0001
0100
,
0010
1000
0010
1000
0100
0010
0100
0010
0001
1000
0001
1000
0010
0100
0010
0100
,
0001
0010
0100
1000
0001
0100
0010
1000
0010
0100
0001
1000
0100
0010
0001
0100
,
0001
1000
0100
1000
0001
0010
0100
1000
0001
0100
0010
1000
0100
0010
0100
0010
,
0001
1000
0010
1000
0001
0010
0001
1000
0100
0010
0100
1000
0001
0100
0001
0010
,
0100
1000
0001
0100
0001
1000
0010
1000
0001
0010
0100
0010
0001
0100
0001
0100
,
0001
1000
0100
1000
0001
0100
0001
1000
0010
1000
0001
0010
0100
0010
0001
0100
,
0001
1000
0100
1000
0001
0010
0001
1000
0010
0100
0010
1000
0100
0010
0100
0010
,
0001
1000
0010
0100
0001
1000
0100
0010
0001
1000
0100
1000
0001
0100
0001
0010
,
0100
1000
0100
1000
0010
0100
0010
0100
0001
1000
0001
1000
0100
0010
0100
0010
,
0002
0000
0000
0003
0002
0000
0000
0003
,
0200
0000
0000
0000
0000
0000
0000
0000
0000
0000
0300
0000
0002
0000
0003
0001
,
0020
0000
0000
0000
0000
0000
0000
0000
0000
0000
0030
0000
0002
0000
0003
0001
,
0200
0000
0000
0000
0000
0300
0002
0003
,
2001
0000
0000
3000
2000
0000
0000
3000
,
0200
0000
0000
0000
0000
0000
0000
0000
0000
0000
0300
0000
2000
0000
3000
1000
,
0020
0000
0000
0000
0000
0000
0000
0000
0000
0000
0030
0000
2000
0000
3000
1000
,
0200
0000
0000
0000
0000
0300
2000
3000
,
1002
0000
0000
0003
0002
0000
0000
0003
,
0020
0000
0000
0000
0000
0000
0000
0000
0000
0000
0030
0000
0002
0000
0003
0001
,
0200
0000
0000
0000
0000
0000
0000
0000
0000
0000
0300
0000
0002
0000
0003
0001
,
0020
0000
0000
0000
0000
0030
0002
0003
,
0200
0320
2030
3002
,
1003
0100
0010
0001
0100
0010
1000
0001
,
0020
0230
2300
3002
,
1003
0010
0100
0001
0010
0100
1000
0001
,
1000
0010
0000
0000
0000
0000
0000
0000
,
0000
0000
0000
0000
0000
0000
0000
0000
1000
0001
0100
0001
1000
0010
0100
0001
,
1000
0100
0010
0100
1000
0001
0010
0100
1000
0001
0100
0001
1000
0010
0100
0010
,
1000
0001
0010
0100
1000
0001
0010
0001
1000
0010
0100
0001
0010
0100
1000
0010
,
0200
0300
0002
0023
0030
0002
0203
0300
,
0002
0003
0002
0003
0000
0000
2000
0000
3200
0000
0300
0000
2000
0000
3000
0000
,
0020
0030
2000
3200
0300
2000
3020
0030
,
2000
3000
2000
3000
0000
0000
0002
0003
0020
0000
0030
0000
0002
0000
0003
0000
,
0200
0300
0002
0023
0030
0002
0203
0300
,
0002
0003
0002
0003
0000
0000
2000
0000
3200
0000
0300
0000
2000
0000
3000
0000
,
0020
0030
2000
3200
0300
2000
3020
0030
,
2000
3000
2000
3000
0000
0000
0002
0003
0020
0000
0030
0000
0001
0000
0000
0000
,
0020
0030
0002
0203
0300
0002
0023
0030
,
0002
0003
0002
0003
0000
0000
2000
0000
3020
0000
0030
0000
2000
0000
3000
0000
,
0200
0300
2000
3020
0030
2000
3200
0300
,
2000
3000
2000
3000
0000
0000
0002
0003
0200
0000
0300
0000
0002
0000
0003
0000
,
0020
0030
0002
0203
0300
0002
0023
0030
,
0002
0003
0002
0003
0000
0000
2000
0000
3020
0000
0030
0000
2000
0000
3000
0000
,
0200
0300
2000
3020
0030
2000
3200
0300
,
2000
3000
2000
3000
0000
0000
0002
0003
0200
0000
0300
0000
2002
0000
3003
0000
,
0001
0010
0001
1000
0010
0100
0010
1000
0001
0100
0001
1000
0100
0010
0001
0100
,
0001
1000
0100
1000
0001
0010
0001
1000
0010
0100
0010
1000
0100
0010
0100
0010
,
0001
1000
0010
0100
0001
1000
0001
0010
0100
1000
0001
1000
0010
0100
0001
0010
,
0100
1000
0001
0100
0001
1000
0010
0100
0001
1000
0100
0010
0001
0100
0001
0100
,
0001
1000
0100
0010
0001
1000
0001
0100
0010
1000
0001
0010
0100
0010
0001
0100
,
0001
1000
0100
1000
0001
0010
0100
1000
0001
0100
0010
1000
0100
0010
0100
0010
,
0001
1000
0001
0100
0010
1000
0001
0010
0001
1000
0100
1000
0001
0100
0001
0010
,
0100
1000
0100
1000
0010
0100
0010
0100
0001
1000
0001
1000
0100
0010
0100
0010
,
0001
0100
0001
1000
0100
0010
0100
1000
0001
0010
0001
1000
0010
0100
0001
0010
,
0001
1000
0010
1000
0001
0100
0001
1000
0100
0010
0100
1000
0010
0100
0010
0100
,
0001
1000
0100
0010
0001
1000
0001
0100
0010
1000
0001
1000
0100
0010
0001
0100
,
0010
1000
0001
0010
0001
1000
0100
0010
0001
1000
0010
0100
0001
0010
0001
0010
,
0001
1000
0010
0100
0001
1000
0001
0010
0100
1000
0001
0100
0010
0100
0001
0010
,
0001
1000
0010
1000
0001
0100
0010
1000
0001
0010
0100
1000
0010
0100
0010
0100
,
0001
1000
0001
0010
0100
1000
0001
0100
0001
1000
0010
1000
0001
0010
0001
0100
,
0010
1000
0010
1000
0100
0010
0100
0010
0001
1000
0001
1000
0010
0100
0010
0100
,
0001
0010
0001
1000
0010
0100
0010
1000
0100
0010
0001
1000
0010
0100
0001
0010
,
0001
1000
0100
1000
0001
0010
0100
1000
0010
0100
0010
1000
0100
0010
0100
0010
,
0001
1000
0010
0100
0001
1000
0010
1000
0100
0010
0001
1000
0010
0100
0001
0010
,
0100
1000
0001
0100
0001
1000
0010
0100
0001
0010
0100
0010
0001
0100
0001
0100
,
0001
1000
0100
0010
0001
1000
0010
1000
0100
0010
0100
1000
0001
0010
0001
0100
,
0010
1000
0001
1000
0100
0010
0100
1000
0010
0100
0010
1000
0100
0010
0100
0010
,
0001
1000
0001
0100
0010
1000
0001
0010
0001
0100
0010
1000
0001
0100
0001
0010
,
0100
1000
0100
1000
0010
0100
0010
0100
0001
1000
0001
1000
0100
0010
0100
0010
,
0001
0100
0001
1000
0100
0010
0100
1000
0010
0100
0001
1000
0100
0010
0001
0100
,
0001
1000
0010
1000
0001
0100
0010
1000
0100
0010
0100
1000
0010
0100
0010
0100
,
0001
1000
0100
0010
0001
1000
0100
1000
0010
0100
0001
1000
0100
0010
0001
0100
,
0010
1000
0001
0010
0001
1000
0100
0010
0001
0100
0010
0100
0001
0010
0001
0010
,
0001
1000
0010
0100
0001
1000
0100
1000
0010
0100
0010
1000
0001
0100
0001
0010
,
0100
1000
0001
1000
0010
0100
0010
1000
0100
0010
0100
1000
0010
0100
0010
0100
,
0001
1000
0001
0010
0100
1000
0001
0100
0001
0010
0100
1000
0001
0010
0001
0100
,
0010
1000
0010
1000
0100
0010
0100
0010
0001
1000
0001
1000
0010
0100
0010
0100
,
0002
0003
1000
1000
0010
0010
0100
0100
,
1001
0000
0000
0000
;

//---------------dance-single - Oh Henry!----------------
#NOTES:
     dance-single:
     Oh Henry!:
     Edit:
     17:
     1.000,1.000,0.009,0.066,1.000,2751.000,2.000,15.000,0.000,0.000:
2002
3003
1000
1000
0100
0100
0010
0010
,
0001
0001
0100
0020
2030
0000
3200
0000
,
1300
0001
1000
0001
0100
0010
0100
0001
1000
0010
1000
0001
0010
0100
1000
0100
,
0010
0001
1000
0001
0100
0010
0100
0001
0010
0100
0010
0100
1000
0001
1000
0001
,
0100
0010
0100
0010
1000
0001
0100
0001
1000
0010
1000
0001
0010
0100
1000
0100
,
0010
0001
1000
0100
1000
0001
0100
0010
1000
0100
1000
0100
0010
0001
0010
0001
,
1000
0010
1000
0010
0100
0001
1000
0001
0100
0010
1000
0001
0010
0100
1000
0001
,
0010
0100
0010
0100
1000
0010
1000
0010
0100
0001
0100
0001
0010
0100
0010
0100
,
1000
0001
1000
0001
0010
0100
0010
0001
1000
0100
1000
0001
0100
0010
1000
0010
,
0100
0001
1000
0001
0010
0100
0010
0001
0100
0010
0100
0010
1000
0001
1000
0001
,
0010
0100
0010
0100
1000
0001
0010
0001
1000
0100
1000
0001
0100
0010
1000
0010
,
0100
0001
1000
0010
1000
0001
0010
0100
1000
0010
1000
0010
0100
0001
0100
0001
,
1000
0100
1000
0100
0010
0001
1000
0001
0010
0100
1000
0001
0100
0010
1000
0001
,
1000
0010
0100
0010
1000
0001
0010
0001
0100
0010
0100
0010
1000
0001
1000
0001
,
0010
0100
0010
0100
1000
0001
0010
0001
1000
0100
0010
0001
1000
0010
1000
0001
,
0100
0010
0100
0010
1000
0100
1000
0100
0010
0001
0010
0001
0100
0010
0100
0010
,
1000
0001
1000
0001
0100
0010
0100
0001
1000
0100
0010
0001
1000
0010
1000
0001
,
0010
0100
1000
0001
1000
0010
0100
0001
0010
0100
0010
0100
1000
0001
1000
0001
,
0100
0010
0100
0010
1000
0001
0100
0001
1000
0100
0010
0001
1000
0010
1000
0001
,
0010
0100
1000
0001
1000
0010
0100
0010
1000
0100
1000
0100
0010
0001
0010
0001
,
1000
0010
1000
0010
0100
0001
1000
0010
1000
0001
0010
0100
1000
0001
0100
0001
,
1000
0100
0010
0001
1000
0010
0100
0001
0010
0100
0010
0100
1000
0001
1000
0001
,
0100
0010
0100
0010
1000
0001
0100
0001
1000
0100
0010
0001
1000
0010
1000
0001
,
0100
0010
0100
0010
1000
0100
1000
0100
0010
0001
0010
0001
0100
0010
0100
0010
,
1000
0001
1000
0001
0010
0100
0010
0001
1000
0010
0100
0001
1000
0100
1000
0001
,
0100
0010
1000
0001
1000
0100
0010
0001
0100
0010
0100
0010
1000
0001
1000
0001
,
0010
0100
0010
0100
1000
0001
0010
0001
1000
0010
0100
0001
1000
0100
1000
0001
,
0100
0010
1000
0001
1000
0100
0010
0100
1000
0010
1000
0010
0100
0001
0100
0001
,
1000
0100
1000
0100
0010
0001
1000
0100
1000
0001
0100
0010
1000
0001
0010
0001
,
1000
0010
0100
0001
1000
0100
0010
0001
0100
0010
0100
0010
1000
0001
1000
0001
,
0010
0100
0010
0100
1000
0001
0010
0001
1000
0010
0100
0001
1000
0100
1000
0001
,
0010
0100
0010
0100
1000
0010
1000
0010
0100
0001
0100
0001
0010
0100
0010
0100
,
1000
0010
1000
0001
1000
0100
0010
0100
1000
0001
0100
0001
1000
0100
0010
0100
,
1000
0010
0100
0001
1000
0001
0100
0010
1000
0001
0010
0100
1000
0001
0100
0010
,
0100
0001
1000
0001
0010
0100
0010
0001
1000
0010
1000
0001
1000
0100
0010
0001
,
0100
0010
1000
0001
1000
0010
0100
0001
1000
0100
0010
0001
1000
0001
0100
0010
,
1000
0001
1000
0100
1000
0001
0100
0010
0100
0001
1000
0001
0010
0100
0010
0001
,
0100
0010
1000
0001
0100
0001
1000
0010
1000
0001
0010
0100
1000
0001
0100
0010
,
1000
0001
0010
0001
1000
0010
0100
0001
1000
0100
1000
0001
1000
0010
0100
0001
,
0010
0100
1000
0001
0100
0010
0100
0001
1000
0100
0010
0001
0100
0010
0100
0010
,
1000
0100
1000
0001
1000
0010
0100
0010
1000
0001
0010
0001
1000
0010
0100
0010
,
1000
0100
0010
0001
1000
0001
0010
0100
1000
0001
0100
0010
1000
0001
0010
0100
,
0010
0001
1000
0001
0100
0010
0100
0001
1000
0100
1000
0001
1000
0010
0100
0001
,
0010
0100
1000
0001
1000
0100
0010
0001
1000
0010
0100
0001
1000
0001
0010
0100
,
1000
0001
1000
0010
1000
0001
0010
0100
0010
0001
1000
0001
0100
0010
0100
0001
,
0010
0100
1000
0001
0010
0001
1000
0100
1000
0001
0100
0010
1000
0001
0010
0100
,
1000
0001
0100
0001
1000
0100
0010
0001
1000
0010
1000
0001
1000
0100
0010
0001
,
0100
0010
1000
0001
0010
0100
0010
0001
1000
0010
0100
0001
0010
0100
0010
0100
,
1000
0001
0100
0001
1000
0010
0100
0001
1000
0100
1000
0001
1000
0010
0100
0001
,
0010
0100
1000
0001
0010
0001
1000
0100
1000
0001
0100
0010
1000
0001
0010
0100
,
1000
0001
1000
0010
1000
0001
0010
0100
1000
0001
0100
0001
1000
0100
0010
0100
,
1000
0010
0100
0001
1000
0010
0100
0010
1000
0001
0010
0100
1000
0001
0100
0010
,
0100
0001
1000
0001
0010
0100
0010
0001
1000
0010
1000
0001
1000
0100
0010
0100
,
1000
0010
0100
0001
0100
0010
1000
0001
1000
0100
0010
0001
1000
0010
0100
0001
,
1000
0100
1000
0001
1000
0010
0100
0010
1000
0001
0010
0001
1000
0010
0100
0001
,
0010
0100
0010
0001
1000
0010
0100
0001
1000
0100
0010
0001
0100
0010
0100
0010
,
1000
0100
0010
0001
1000
0010
0100
0001
0100
0010
1000
0001
0010
0100
1000
0010
,
1000
0001
0010
0001
1000
0100
0010
0001
1000
0010
0100
0001
0010
0100
0010
0100
,
1000
0001
0100
0001
1000
0100
1000
0001
0010
0100
0010
0001
1000
0010
1000
0100
,
0010
0001
1000
0010
1000
0001
0100
0001
1000
0100
0010
0100
1000
0010
1000
0010
,
1000
0001
0010
0001
1000
0010
1000
0001
0100
0001
1000
0100
0010
0100
1000
0010
,
1000
0001
0010
0001
1000
0100
1000
0001
0100
0010
0100
0001
0010
0100
0010
0100
,
1000
0001
0100
0010
1000
0001
0010
0100
1000
0001
0010
0001
1000
0010
1000
0100
,
0010
0001
0010
0001
0100
0010
0100
0010
1000
0001
1000
0001
0010
0100
0010
0100
,
1000
0010
0100
0001
1000
0100
0010
0001
0010
0100
1000
0001
0100
0010
1000
0100
,
1000
0001
0100
0001
1000
0010
0100
0001
1000
0100
0010
0001
0100
0010
0100
0010
,
1000
0001
0010
0001
1000
0010
1000
0001
0100
0010
0100
0001
1000
0100
1000
0010
,
0100
0001
1000
0100
1000
0001
0010
0001
1000
0010
0100
0010
1000
0100
1000
0100
,
1000
0001
0100
0001
1000
0100
1000
0001
0010
0001
1000
0010
0100
0010
1000
0100
,
1000
0001
0100
0001
1000
0010
1000
0001
0010
0100
0010
0001
0100
0010
0100
0010
,
1000
0001
0010
0100
1000
0001
0100
0010
1000
0001
0100
0001
1000
0100
1000
0010
,
0100
0001
0100
0001
0010
0100
0010
0100
1000
0001
1000
0001
0100
0010
0100
0010
,
1000
0100
1000
0001
0010
0001
1000
0100
1000
0010
0100
0001
1000
0100
0010
0100
,
1000
0001
0100
0010
0100
0010
1000
0001
0010
0100
1000
0001
1000
0001
0010
0100
,
1000
0010
0100
0010
1000
0001
0100
0010
1000
0100
0010
0100
1000
0001
0100
0001
,
1000
0100
0010
0001
0010
0001
1000
0010
0100
0001
1000
0010
1000
0010
0100
0001
,
0010
0100
0010
0001
1000
0100
0010
0100
1000
0010
0100
0001
1000
0100
1000
0001
,
0100
0010
1000
0001
1000
0001
0010
0100
1000
0001
0100
0010
0100
0010
1000
0001
,
1000
0100
0010
0100
1000
0001
0010
0001
0100
0010
1000
0001
0010
0100
0010
0001
,
1000
0010
1000
0010
0100
0001
1000
0100
0010
0001
0010
0001
1000
0100
0010
0001
,
1000
0010
1000
0001
0100
0001
1000
0010
1000
0100
0010
0001
1000
0010
0100
0010
,
1000
0001
0010
0100
0010
0100
1000
0001
0100
0010
1000
0001
1000
0001
0100
0010
,
1000
0100
0010
0100
1000
0001
0010
0100
1000
0010
0100
0010
1000
0001
0010
0001
,
1000
0010
0100
0001
0100
0001
1000
0100
0010
0001
1000
0100
1000
0100
0010
0001
,
0100
0010
0100
0001
1000
0010
0100
0010
1000
0100
0010
0001
1000
0010
1000
0001
,
0010
0100
1000
0001
1000
0001
0100
0010
1000
0001
0010
0100
0010
0100
1000
0001
,
1000
0010
0100
0010
1000
0001
0100
0001
0010
0100
1000
0001
0100
0010
0100
0001
,
1000
0100
1000
0100
0010
0001
1000
0010
0100
0001
0100
0001
1000
0010
0100
0001
,
2000
0000
3000
0000
0002
0003
0002
0003
0002
0003
0000
0000
0002
0000
0003
0000
,
0020
0000
0030
0000
0200
0000
0300
0000
2000
3000
0020
0030
0100
0000
0000
0000
,
0001
0100
0010
1000
0001
0010
0100
1000
0100
0010
0001
1000
0010
0100
0001
0010
,
0001
1000
0010
1000
0001
0100
0010
1000
0001
0010
0100
1000
0010
0100
0010
0100
,
0001
1000
0100
1000
0001
0100
0001
1000
0010
0100
0010
1000
0001
0010
0001
0100
,
0010
1000
0001
0010
0001
1000
0100
1000
0001
0100
0010
0100
0001
0010
0001
0010
,
0001
1000
0010
1000
0001
0010
0001
1000
0100
1000
0001
0100
0010
0100
0001
0010
,
0001
1000
0010
1000
0001
0100
0001
1000
0100
0010
0100
1000
0010
0100
0010
0100
,
0001
1000
0100
0010
0001
1000
0010
0100
0001
1000
0010
1000
0001
0010
0001
0100
,
0010
1000
0010
1000
0100
0010
0100
0010
0001
1000
0001
1000
0010
0100
0010
0100
,
0001
0010
0100
1000
0001
0100
0010
1000
0010
0100
0001
1000
0100
0010
0001
0100
,
0001
1000
0100
1000
0001
0010
0100
1000
0001
0100
0010
1000
0100
0010
0100
0010
,
0001
1000
0010
1000
0001
0010
0001
1000
0100
0010
0100
1000
0001
0100
0001
0010
,
0100
1000
0001
0100
0001
1000
0010
1000
0001
0010
0100
0010
0001
0100
0001
0100
,
0001
1000
0100
1000
0001
0100
0001
1000
0010
1000
0001
0010
0100
0010
0001
0100
,
0001
1000
0100
1000
0001
0010
0001
1000
0010
0100
0010
1000
0100
0010
0100
0010
,
0001
1000
0010
0100
0001
1000
0100
0010
0001
1000
0100
1000
0001
0100
0001
0010
,
0100
1000
0100
1000
0010
0100
0010
0100
0001
1000
0001
1000
0100
0010
0100
0010
,
0001
1000
0010
0100
0010
1000
0001
0100
0001
1000
0100
0010
0001
1000
0100
1000
,
0001
0100
0001
1000
0010
0100
0010
1000
0001
0100
0001
1000
0100
0010
0100
1000
,
0010
0100
0001
1000
0001
0100
0010
1000
0001
0100
0001
1000
0100
0010
0100
1000
,
0010
0100
0001
1000
0010
1000
0001
0100
0001
1000
0100
1000
0001
0100
0010
0100
,
0001
0010
0100
0010
0001
1000
0100
0010
0001
1000
0010
0100
0001
1000
0010
1000
,
0001
0010
0001
1000
0100
0010
0100
1000
0001
0010
0001
1000
0010
0100
0010
1000
,
0100
0010
0001
1000
0001
0010
0100
1000
0001
0010
0001
1000
0010
0100
0010
1000
,
0100
0010
0001
1000
0100
1000
0001
0010
0001
1000
0010
1000
0001
0010
0100
0010
,
0001
0100
0010
1000
0001
0100
0001
1000
0100
0010
0100
1000
0001
0010
0100
1000
,
0001
0100
0001
1000
0010
0100
0001
1000
0001
0100
0010
1000
0001
0010
0100
1000
,
0010
0100
0001
1000
0001
0100
0010
1000
0001
0100
0001
1000
0100
1000
0001
0010
,
0001
0100
0010
1000
0001
0100
0001
1000
0100
0010
0100
1000
0001
0100
0010
0100
,
0001
0010
0001
0010
0100
1000
0100
1000
0001
0100
0001
0100
0010
1000
0010
1000
,
0001
0010
0100
1000
0001
0100
0010
0100
0001
1000
0100
1000
0001
0010
0001
0010
,
0100
1000
0100
1000
0001
0100
0001
0100
0010
1000
0010
1000
0001
0100
0001
0100
,
0010
1000
0001
0010
0100
0010
0001
1000
0010
0100
0010
1000
0001
0010
0100
1000
,
0001
0100
0001
1000
0010
0100
0010
1000
0001
0010
0001
1000
0100
0010
0100
1000
,
0001
0100
0010
1000
0001
0100
0001
1000
0100
0010
0100
1000
0001
0010
0100
1000
,
0001
0100
0010
0100
0001
1000
0010
0100
0001
1000
0100
1000
0001
0010
0100
0010
,
0001
1000
0010
0100
0001
1000
0010
1000
0001
0010
0100
1000
0010
0100
0001
0010
,
0100
1000
0100
1000
0010
0100
0001
0010
0001
0010
0100
1000
0010
0100
0010
0100
,
0001
0010
0100
1000
0001
1000
0010
0100
0001
0010
0001
0010
0100
1000
0100
1000
,
0010
0100
0010
0100
0001
0010
0100
1000
0100
1000
0010
0100
0001
0010
0001
0010
,
0100
1000
0001
0010
0001
1000
0010
0100
0001
0010
0001
0010
0001
1000
0010
1000
,
0001
0010
0001
0010
0100
1000
0010
0100
0010
0100
0001
0010
0100
1000
0100
1000
,
0001
0010
0100
1000
0001
1000
0010
0100
0001
0010
0001
0010
0100
1000
0100
1000
,
0010
0100
0010
0100
0001
0010
0100
1000
0100
1000
0010
0100
0001
1000
0001
1000
,
0100
0010
0100
1000
0100
1000
0001
0010
0001
1000
0100
0010
0001
0010
0100
1000
,
0010
1000
0010
1000
0100
0010
0001
0100
0001
0100
0010
1000
0100
0010
0100
0010
,
0001
0100
0010
1000
0001
1000
0100
0010
0001
0100
0001
0100
0010
1000
0010
1000
,
0100
0010
0100
0010
0001
0100
0010
1000
0010
1000
0100
0010
0001
0100
0001
0100
,
0010
1000
0001
0100
0001
1000
0100
0010
0001
0100
0001
0100
0001
1000
0100
1000
,
0001
0100
0001
0100
0010
1000
0100
0010
0100
0010
0001
0100
0010
1000
0010
1000
,
0001
0100
0010
1000
0001
1000
0100
0010
0001
0100
0001
0100
0010
1000
0010
1000
,
0100
0010
0100
0010
0001
0100
0010
1000
0010
1000
0100
0010
0001
1000
0001
1000
,
0010
0100
0010
1000
0010
1000
0001
0100
0010
1000
0001
0100
0001
1000
0010
1000
,
0001
0010
0001
1000
0010
0100
0010
1000
0001
0100
0001
1000
0100
0010
0001
0100
,
0001
1000
0100
1000
0001
0010
0001
1000
0010
0100
0010
1000
0100
0010
0100
0010
,
0001
1000
0010
0100
0001
1000
0001
0010
0100
1000
0001
1000
0010
0100
0001
0010
,
0100
1000
0001
0100
0001
1000
0010
0100
0001
1000
0100
0010
0001
0100
0001
0100
,
0001
1000
0100
0010
0001
1000
0001
0100
0010
1000
0001
0010
0100
0010
0001
0100
,
0001
1000
0100
1000
0001
0010
0100
1000
0001
0100
0010
1000
0100
0010
0100
0010
,
0001
1000
0001
0100
0010
1000
0001
0010
0001
1000
0100
1000
0001
0100
0001
0010
,
0100
1000
0100
1000
0010
0100
0010
0100
0001
1000
0001
1000
0100
0010
0100
0010
,
0001
0100
0001
1000
0100
0010
0100
1000
0001
0010
0001
1000
0010
0100
0001
0010
,
0001
1000
0010
1000
0001
0100
0001
1000
0100
0010
0100
1000
0010
0100
0010
0100
,
0001
1000
0100
0010
0001
1000
0001
0100
0010
1000
0001
1000
0100
0010
0001
0100
,
0010
1000
0001
0010
0001
1000
0100
0010
0001
1000
0010
0100
0001
0010
0001
0010
,
0001
1000
0010
0100
0001
1000
0001
0010
0100
1000
0001
0100
0010
0100
0001
0010
,
0001
1000
0010
1000
0001
0100
0010
1000
0001
0010
0100
1000
0010
0100
0010
0100
,
0001
1000
0001
0010
0100
1000
0001
0100
0001
1000
0010
1000
0001
0010
0001
0100
,
0010
1000
0010
1000
0100
0010
0100
0010
0001
1000
0001
1000
0010
0100
0010
0100
,
0001
0010
0001
1000
0010
0100
0010
1000
0100
0010
0001
1000
0010
0100
0001
0010
,
0001
1000
0100
1000
0001
0010
0100
1000
0010
0100
0010
1000
0100
0010
0100
0010
,
0001
1000
0010
0100
0001
1000
0010
1000
0100
0010
0001
1000
0010
0100
0001
0010
,
0100
1000
0001
0100
0001
1000
0010
0100
0001
0010
0100
0010
0001
0100
0001
0100
,
0001
1000
0100
0010
0001
1000
0010
1000
0100
0010
0100
1000
0001
0010
0001
0100
,
0010
1000
0001
1000
0100
0010
0100
1000
0010
0100
0010
1000
0100
0010
0100
0010
,
0001
1000
0001
0100
0010
1000
0001
0010
0001
0100
0010
1000
0001
0100
0001
0010
,
0100
1000
0100
1000
0010
0100
0010
0100
0001
1000
0001
1000
0100
0010
0100
0010
,
0001
0100
0001
1000
0100
0010
0100
1000
0010
0100
0001
1000
0100
0010
0001
0100
,
0001
1000
0010
1000
0001
0100
0010
1000
0100
0010
0100
1000
0010
0100
0010
0100
,
0001
1000
0100
0010
0001
1000
0100
1000
0010
0100
0001
1000
0100
0010
0001
0100
,
0010
1000
0001
0010
0001
1000
0100
0010
0001
0100
0010
0100
0001
0010
0001
0010
,
0001
1000
0010
0100
0001
1000
0100
1000
0010
0100
0010
1000
0001
0100
0001
0010
,
0100
1000
0001
1000
0010
0100
0010
1000
0100
0010
0100
1000
0010
0100
0010
0100
,
0001
1000
0001
0010
0100
1000
0001
0100
0001
0010
0100
1000
0001
0010
0001
0100
,
0010
1000
0010
1000
0100
0010
0100
0010
0001
1000
0001
1000
0010
0100
0010
0100
,
0002
0003
1000
1000
0010
0010
0100
0100
,
1001
0000
0000
0000
;
