#TITLE:No Such Thing as the Promised Land;
#SUBTITLE:;
#ARTIST:Sephire & SGX;
#TITLETRANSLIT:;
#SUBTITLETRANSLIT:;
#ARTISTTRANSLIT:;
#CREDIT:;
#BANNER:nstbn2.png;
#BACKGROUND:nst.png;
#LYRICSPATH:;
#CDTITLE:;
#MUSIC:FFVII - No Such Thing as the Promised Land.mp3;
#OFFSET:-4.595;
#SAMPLESTART:48.080;
#SAMPLELENGTH:12.000;
#SELECTABLE:YES;
#BPMS:0.000=160.000,212.000=80.000,310.000=160.000,374.000=80.000,406.000=40.000,409.000=160.000;
#STOPS:;
#BGCHANGES:;
// cache tags:
#FIRSTBEAT:3.000;
#LASTBEAT:517.000;
#SONGFILENAME:Songs/toune 8/No Such Thing/no such thing as your mom.sm;
#HASMUSIC:1;
#HASBANNER:1;
#MUSICLENGTH:253.988;
// end cache tags

//---------------dance-single - ----------------
#NOTES:
     dance-single:
     :
     Easy:
     3:
     0.907,1.000,1.000,0.740,0.482,1066.000,330.000,188.000,0.000,155.000:
0000
0000
0000
0001
,
1001
0100
1000
0010
2000
0000
0000
0000
,
3011
0000
2000
0000
,
3011
0000
2000
0000
,
3011
0001
2000
0000
,
3000
0000
0000
0000
2001
0010
0001
0010
,
3000
0000
2100
0100
,
3000
0000
0000
0000
2000
0000
0100
0100
,
3010
0000
0001
0000
0000
0000
1000
0010
1000
0000
1000
0000
0000
0000
0000
0000
,
1001
0000
0000
0000
0100
0010
0001
0010
,
0001
0010
0000
0000
0000
0000
0000
0000
,
1000
0000
0010
0000
1000
0001
0100
0010
0000
0000
0100
0000
0010
0000
0001
0000
,
0010
0000
0001
0000
0000
0000
0000
0000
0000
0000
2000
0000
0200
0300
0010
0000
,
3011
0000
0001
2100
3020
0030
2100
3020
,
0030
0000
0000
0000
0100
0000
0000
0000
1100
0000
0001
0000
1000
0000
0010
0100
,
1001
0000
0000
2100
3020
0030
2100
3020
,
0030
0000
1000
0000
1101
0001
0001
0001
,
1100
0000
0000
2100
3020
0030
2100
3020
,
0030
0001
1001
0000
,
0020
0000
0000
2130
3020
0030
2100
3020
,
0030
0000
0000
0000
0000
0000
0000
0000
2000
3200
0300
0020
0030
0002
0003
0000
,
1101
0000
1100
0000
1100
0002
0003
1000
,
0001
1100
0001
1100
0010
0002
1003
0002
,
1103
0000
0001
1100
0001
0010
1100
1000
,
0010
0002
0003
0001
0010
0001
0010
0002
,
1103
0000
1100
0000
1100
0002
1003
0100
,
0010
1100
0010
1100
0010
0002
0103
0002
,
1103
0000
0010
1100
0001
0001
1100
0010
,
0100
0000
0000
0000
0002
0000
0000
0000
0003
0000
0000
0000
0010
0000
0000
0000
0100
0000
0000
0000
0010
0000
0000
0000
1000
0100
0010
0001
0000
0000
0000
0000
,
1101
0010
1100
0010
1100
0012
0100
1000
,
0123
1100
0001
1130
0100
0002
1003
0002
,
1103
0100
0001
1100
0001
0010
1100
1000
,
0010
0000
0000
0000
0002
0000
0000
0000
1003
0000
0000
0000
0001
0000
0000
0000
1000
0100
0010
0001
0000
0000
0000
0000
0001
0010
0100
1000
0002
0000
0000
0000
,
1103
0001
1100
0010
1100
0012
1000
0100
,
0123
1100
0001
1130
0010
0002
0103
0002
,
1103
0010
1000
1100
0010
0010
1100
0010
,
0001
0000
0000
0000
1100
0000
0000
0000
0001
0000
0000
0000
0010
0000
0000
0000
1100
0000
0000
0000
0010
0000
0000
0000
0001
0100
1000
0001
0000
0000
0000
0000
,
1011
0100
1100
0010
1011
0002
1003
0001
,
0110
1100
0001
1100
0110
0002
0103
0002
,
1103
0010
1000
1100
0011
0001
1100
0010
,
0110
0000
0000
0000
0002
0000
0000
0000
0103
0000
0000
0000
0010
0000
0000
0000
1000
0010
0100
0001
0000
0000
0000
0000
0001
0100
0010
1000
0000
0000
0000
0000
,
1011
0010
1100
0100
1011
0002
0013
0001
,
0110
1100
0010
1100
0110
0002
0103
0002
,
1103
0100
0001
1100
0011
1000
1100
0001
,
0110
0000
0000
0000
0002
0000
0000
0000
1003
0000
0000
0000
0001
0000
0000
0000
1000
0001
0100
0001
0000
0000
0000
0000
0001
1000
0100
1000
0000
0000
0000
0000
,
1011
0010
1100
0100
1011
0100
0001
0010
,
1110
1100
0001
1100
1110
0010
0100
0100
,
1011
0010
0001
1100
1011
0001
1100
0010
,
1110
0000
0000
0000
0001
0000
0000
0000
0100
0000
0000
0000
0001
0000
0000
0000
1000
0100
0010
0001
0000
0000
0000
0000
0001
0010
0100
1000
0000
0000
0000
0000
,
1011
0010
1100
0010
1011
0010
1000
0001
,
1110
1100
0001
1100
1110
0001
0100
0001
,
1011
0010
1000
1100
1011
0001
1100
0010
,
1110
0000
0000
0000
0001
0000
0000
0000
0100
0000
0000
0000
0001
0000
0000
0000
1000
0010
0100
0001
0000
0000
0000
0000
0001
0100
0010
1000
0000
0000
0000
0000
,
0011
0011
0110
0110
,
0011
0011
0110
0110
,
0001
0001
0100
0100
,
0001
0001
0100
0100
,
1000
0000
0010
0000
1000
0001
0100
0010
0000
0000
0000
0000
0000
0000
0000
0000
1001
0000
0000
0000
0000
0000
0000
0000
1002
0000
0100
0000
1003
0000
0100
0000
,
0010
0100
0010
0100
0002
0000
0003
0000
1100
0000
0010
0010
0012
0000
0203
0320
,
1130
0000
0000
0000
0000
0000
0000
0000
0002
0000
1000
0100
0003
0000
0100
0000
1100
0000
0000
0000
1100
0000
0000
0000
1002
0000
0100
0000
0013
0000
0100
0000
,
0010
0001
0010
0100
1002
0000
0013
0000
1100
0000
0000
0110
0000
0000
0200
0320
,
1130
0000
0000
0000
1002
1000
1003
1000
1100
0000
0000
0000
0002
0010
0103
1000
,
0100
1000
0100
1000
0102
0000
0103
0000
1100
0010
0100
0020
0232
0300
0203
0320
,
1130
0000
0000
0000
0000
0000
0000
0000
1100
0000
0010
0100
0010
0000
0100
0000
0000
0000
0000
0000
0000
0000
0000
0000
1002
0000
0010
0000
0103
0000
0001
0000
,
0100
0001
0000
0000
0012
0000
0013
0100
1000
0100
0010
0100
1002
0000
0003
0000
,
0001
0000
0000
0000
0000
0000
1000
0100
0010
0000
0010
0000
0010
0000
0010
0000
1001
0000
0000
0000
0000
0000
0000
0000
1001
0000
0000
0000
0000
0000
0000
0000
,
1010
1010
1001
1001
,
1010
1010
1001
1001
,
1010
1010
1001
1001
,
1010
0000
0000
0000
1010
0000
0000
0000
1001
0100
0001
0100
1001
0100
0010
0100
,
1010
0000
0000
0000
1010
0000
0000
0000
1001
0100
0010
0100
1001
0100
0001
0100
,
1010
0100
1000
0100
1010
0100
0001
0100
1001
0000
0000
0000
1001
0000
0000
0000
,
1010
0100
1000
0100
1010
0100
0010
0100
1001
0100
0001
0200
1302
0003
0002
0203
,
1310
0000
0000
0000
0000
0000
0000
0000
1010
0000
0010
0000
0010
0000
0010
0000
1001
0000
0010
0000
1001
0000
0010
0100
1000
0001
0010
0000
0100
0000
0010
0000
,
1001
0000
0100
0000
0010
0000
1000
0100
0001
0100
0010
0000
0001
0000
0100
0000
1001
0000
0100
0000
1001
0000
0010
0100
1001
0010
0100
0000
0001
0000
0100
0000
,
1001
0000
0000
0000
0100
0000
0000
0000
1010
0000
0010
0000
0010
0000
0010
0000
1001
0000
0000
0000
1001
0000
0100
0010
1001
0010
1000
0000
0010
0000
0100
0000
,
1001
0000
0100
0000
0010
0000
0100
0010
1001
0010
0100
0000
0010
0000
1001
0000
1001
0000
0010
0000
0100
0000
0010
0100
1001
0100
0001
0000
1000
0000
0010
0000
,
1001
0000
0010
0000
1000
0000
0010
0100
0001
0100
0010
0000
1000
0000
0100
0000
2101
0000
0000
0000
0010
0000
0000
0000
0101
0000
0000
0000
0010
0000
0000
0000
,
0101
0002
0103
0010
0001
0101
0001
0101
,
0010
0002
0013
0002
3123
1000
0001
2100
,
3002
0103
2100
3002
1003
0002
0103
0001
,
1000
0100
0001
0000
1000
0100
0001
0000
1132
0000
0010
0000
1100
0000
0010
0000
,
1100
2000
3010
0100
0010
1100
0010
1100
,
0010
2000
3010
2000
3110
1000
0010
1020
,
2030
3100
1020
2030
3010
0100
1000
0010
,
1000
0010
0100
0000
1000
0010
0100
0000
2003
0000
0010
0000
0101
0000
0010
0000
,
0101
0002
0103
0010
0001
0101
0001
0101
,
0010
0002
0013
0002
3213
0001
1000
0012
,
2003
3010
0012
2003
3001
2000
3010
1000
,
0001
0010
1000
0000
0001
0010
1000
0000
0321
0000
1000
0000
0101
0000
1000
0000
,
0101
2000
3001
0001
0100
0101
1000
0101
,
0001
2000
3001
2000
3132
1000
1100
0120
,
2030
3100
0120
2030
3010
1000
0010
1000
,
1000
0000
0000
0000
0000
0000
0000
0000
0000
0000
0000
0000
0100
0000
0000
0000
0000
0000
0000
0000
0000
0000
0000
0000
0010
0000
0000
0000
0000
0000
0000
0000
0000
0000
0000
0000
0000
0000
0000
0000
0000
0000
0000
0000
0000
0000
0000
0000
1000
0000
0000
0000
0000
0000
0000
0000
0000
0000
0000
0000
0100
0000
0000
0000
0000
0000
0000
0000
0000
0000
0000
0000
0010
0000
0000
0000
0000
0000
0000
0000
0000
0000
0000
0000
0000
0000
0000
0000
0000
0000
0000
0000
0000
0000
0000
0000
1000
0003
0000
0000
0000
0000
0000
0000
0000
0000
0000
0000
0100
0000
0000
0000
0000
0000
0000
0000
0000
0000
0000
0000
0010
0000
0000
0000
0000
0000
0000
0000
0000
0000
0000
0000
0001
0000
0000
0000
0000
0000
0000
0000
0000
0000
0000
0000
2010
0000
0000
0000
0000
0000
0000
0000
0000
0000
0000
0000
0000
0000
0000
0000
0000
0000
0000
0000
0000
0000
0000
0000
3110
0000
0000
0000
0000
0000
0000
0000
0000
0000
0000
0000
0001
0000
0000
0000
0000
0000
0000
0000
0000
0000
0000
0000
,
0100
0010
0001
0010
2100
0000
3000
0100
1001
0110
1000
0010
2000
0000
3000
0011
,
0011
1000
0100
1000
0001
2100
3100
0010
1000
0001
0110
0001
2000
0000
3100
0011
,
1000
0110
1000
0010
2000
0011
3011
0100
1001
0100
0010
0100
2000
0110
3001
1000
,
0110
0000
0001
0000
1000
0000
0011
0011
2000
0000
0110
0000
3001
0000
0010
0000
1001
0000
0010
0000
0100
0000
0001
0000
2100
0000
0000
0000
3110
0000
1000
0000
,
0010
0100
1000
0100
2010
0001
3100
0010
1001
0110
0001
0100
2100
0000
3001
0110
,
1100
0001
0100
0010
1000
0001
0100
0010
0001
1000
0110
0001
2000
0000
3100
1100
,
0001
0110
0001
0100
2000
0011
3011
0100
1001
0010
0100
0010
2000
0011
3100
0001
,
0110
0000
1000
0000
0001
0000
0110
0110
2000
0000
0110
0000
3000
0000
0100
0000
0001
0100
0001
0100
0001
0100
0001
0000
0000
0000
0000
0000
0000
0000
0000
0000
,
0000
0000
0000
0020
1130
0000
0000
0000
1100
0000
0000
0000
1100
0000
0012
0000
,
0100
1000
0123
1100
0001
1130
0100
0002
,
1003
0002
1103
0000
0001
0102
2023
0030
,
0102
3223
0030
0002
1303
0001
1000
0010
,
0100
0002
1103
0000
1100
0000
1100
0012
,
1000
0100
0123
1100
0001
2130
0010
0002
,
3103
0002
1023
0000
0000
2100
3002
0003
,
2130
3002
0003
1100
0001
0010
1100
0010
,
0001
0010
0100
1000
0000
0000
0000
0000
1101
0000
0000
0000
0010
0000
0000
0000
1100
0000
0000
0000
0001
0000
0000
0000
1100
0000
0000
0000
2100
0000
0000
0000
,
0010
0100
3021
1100
0001
1130
0001
0020
,
0130
0020
1130
0001
0010
1020
0232
0300
,
1020
0000
0000
0000
2233
0000
0000
0000
0300
0000
0000
0000
0020
0000
0000
0000
3130
0000
0000
0000
0010
0000
0000
0000
0100
0001
1000
0010
0000
0000
0000
0000
,
0010
1000
0001
0100
0000
0000
0000
0000
1100
0000
0000
0000
0001
0000
0000
0000
1100
0000
0000
0000
0010
0000
0000
0000
1100
0000
0000
0000
0021
0000
0000
0000
,
0100
1000
1032
1100
0010
1203
0001
0020
,
1330
0020
0132
1000
0100
1200
0320
0030
,
1203
0000
0000
0000
0320
0000
0000
0000
1030
0000
0000
0000
0020
0000
0000
0000
1030
0000
0000
0000
0001
0000
0000
0000
0100
1000
0001
0010
0000
0000
0000
0000
,
0010
0001
1000
0100
0000
0000
0000
0000
1101
0000
0000
0000
0010
0000
0000
0000
0011
0000
0000
0000
0100
0000
0000
0000
1101
0000
0000
0000
2000
0000
0000
0000
,
3001
1000
0110
0011
1000
0011
0110
2000
,
3010
2000
3110
0100
0001
0011
1100
1000
,
0011
0000
0000
0000
0100
0000
0000
0000
0110
0000
0000
0000
2000
0000
0000
0000
3010
0000
0000
0000
0100
0000
0000
0000
0001
0100
0010
1000
0000
0000
0000
0000
,
1000
0010
0100
0001
0000
0000
0000
0000
1101
0000
0000
0000
0100
0000
0000
0000
0011
0000
0000
0000
0010
0000
0000
0000
1101
0000
0000
0000
2000
0000
0000
0000
,
3100
1000
0110
0011
0100
0011
0110
2000
,
3010
2000
3110
0010
1000
0011
1100
0001
,
0011
1000
0110
1100
0001
1000
0011
0100
,
1000
0001
0010
0001
0000
0000
0000
0000
2200
0000
0000
0000
0000
0000
0000
0000
0000
0000
0000
0000
0000
0000
0000
0000
0000
0000
0000
0000
0000
0000
0000
0000
,
0000
0000
0000
0000
,
0000
0000
0000
0000
,
0000
3300
0000
0000
;
