#TITLE:The Gears;
#SUBTITLE:Oh Henry!;
#ARTIST:Dethklok;
#TITLETRANSLIT:;
#SUBTITLETRANSLIT:;
#ARTISTTRANSLIT:;
#CREDIT:;
#BANNER:../Fallback-Ban.png;
#BACKGROUND:../Fallback-BG.png;
#LYRICSPATH:;
#CDTITLE:../~CDTitle-@@.png;
#MUSIC:Dethklok - The Gears.ogg;
#OFFSET:1.240;
#SAMPLESTART:127.991;
#SAMPLELENGTH:19.692;
#SELECTABLE:YES;
#BPMS:0.000=195.000;
#STOPS:;
#BGCHANGES:;
// cache tags:
#FIRSTBEAT:4.000;
#LASTBEAT:844.000;
#SONGFILENAME:Songs/Oh Henry! Mad Stamina/The Gears (16)/The Gears.sm;
#HASMUSIC:1;
#HASBANNER:1;
#MUSICLENGTH:260.000;
// end cache tags

//---------------dance-single - @@----------------
#NOTES:
     dance-single:
     @@:
     Challenge:
     16:
     1.000,1.000,0.319,0.004,1.000,2664.000,83.000,1.000,0.000,0.000:
0000
0000
0000
0000
,
0001
1000
0100
1000
0001
0010
0001
1000
0001
0010
0100
1000
0010
0100
0001
0010
,
0001
1000
0010
0100
0001
0100
0010
1000
0001
0100
0001
1000
0100
0010
0100
0010
,
0001
1000
0010
1000
0001
0100
0001
1000
0010
0100
0001
1000
0100
0010
0001
0100
,
0001
0010
0100
1000
0100
0010
0100
1000
0001
0010
0100
0010
0001
0100
0001
0100
,
0010
1000
0001
1000
0010
0100
0001
1000
0001
0100
0010
1000
0100
0010
0001
0100
,
0001
1000
0100
0010
0001
0010
0100
1000
0001
0010
0001
1000
0010
0100
0010
0100
,
0001
1000
0100
1000
0001
0010
0001
1000
0100
0010
0001
1000
0010
0100
0001
0010
,
0001
0100
0010
1000
0010
0100
0010
1000
0001
0100
0010
0100
0001
0010
0001
0010
,
0100
1000
0001
1000
0010
0100
0001
0100
0010
1000
0001
1000
0100
0010
0001
0100
,
0010
1000
0010
0100
0001
1000
0100
0010
0100
1000
0001
0100
0010
1000
0100
1000
,
0001
0010
0100
0010
0001
1000
0010
0100
0001
0100
0010
1000
0001
0100
0001
0010
,
0001
1000
0010
0100
0001
1000
0100
0010
0001
1000
0010
1000
0100
0010
0100
1000
,
0001
0100
0010
1000
0001
0010
0100
1000
0001
1000
0010
1000
0001
0010
0001
0100
,
0010
1000
0100
0010
0001
1000
0010
0100
0010
1000
0001
0010
0001
1000
0100
1000
,
0001
0100
0010
0100
0001
1000
0100
0010
0001
0010
0100
1000
0001
0010
0001
0100
,
0001
1000
0010
1000
0100
0010
0001
1000
0010
0100
0001
0010
0100
1000
0100
1000
,
0001
1000
1001
0001
0101
0100
0010
0100
,
0001
1000
1001
0001
0011
0010
0001
1000
,
0001
0100
0110
0010
1010
1000
0001
0100
,
0010
1000
0010
0000
1000
0001
1000
0000
0100
0000
1000
0000
0010
0000
0100
0000
,
0001
1000
1001
0001
0101
0100
0010
0100
,
0001
1000
1100
0100
0110
0010
0001
1000
,
0010
1000
1001
0001
0101
0100
0001
1000
,
0001
0010
0001
0000
1000
0001
1000
0000
0100
0000
1000
0000
0010
0000
0100
0000
,
0001
0010
0011
0001
1001
1000
0010
0100
,
0001
1000
1010
0010
0110
0100
0001
1000
,
0001
0010
0110
0100
1100
1000
0001
0100
,
0001
0010
0001
0000
1000
0100
1000
0000
0010
0000
0100
0000
0010
0000
1000
0000
,
0100
0010
0011
0001
0101
0100
0001
1000
,
0001
0010
0011
0001
1001
1000
0010
0100
,
0010
1000
1100
0100
0110
0010
0001
1000
,
0010
1000
0010
0000
0100
0001
0100
0000
0010
0000
1000
0000
0100
0000
1000
0000
,
0001
0010
0100
0000
1000
0000
0100
0000
0010
0000
0001
0000
0100
0000
0010
0000
,
1000
0001
0100
0000
0001
0000
1000
0000
0010
0000
0100
0000
0001
0000
0010
0000
,
0100
0010
0001
0000
1000
0000
0001
0000
0010
0000
0100
0000
1000
0000
0010
0000
,
0100
0001
1000
0000
0001
0000
0100
0000
0010
0000
1000
0000
0100
0000
0010
0000
,
0001
0010
0100
0000
1000
0000
0001
0000
0010
0000
0001
0000
0100
0000
0010
0000
,
1000
0001
0100
0000
0001
0000
0100
0000
0010
0000
1000
0000
0100
0000
1000
0000
,
0001
0010
0100
0000
1000
0000
0001
0000
0010
0000
0001
0000
0100
0000
0010
0000
,
1000
0001
0100
0000
0001
0000
0100
0000
0010
0000
1000
0000
1000
0000
0100
0000
,
1000
0001
0100
0001
1000
0010
1000
0001
1000
0010
0100
0001
0010
0100
1000
0010
,
1000
0001
0010
0100
1000
0100
0010
0001
1000
0100
1000
0001
0100
0010
0100
0010
,
1000
0001
0010
0001
1000
0100
1000
0001
0010
0100
1000
0001
0100
0010
1000
0100
,
1000
0010
0100
0001
0100
0010
0100
0001
1000
0010
0100
0010
1000
0100
1000
0100
,
0010
0001
1000
0001
0010
0100
1000
0001
1000
0100
0010
0001
0100
0010
1000
0100
,
1000
0001
0100
0010
1000
0010
0100
0001
1000
0010
1000
0001
0010
0100
0010
0100
,
1000
0001
0100
0001
1000
0010
1000
0001
0100
0010
1000
0001
0010
0100
1000
0010
,
1000
0100
0010
0001
0010
0100
0010
0001
1000
0100
0010
0100
1000
0010
1000
0010
,
0100
0001
1000
0001
0010
0100
1000
0100
0010
0001
1000
0001
0100
0010
1000
0100
,
0010
0001
0010
0100
1000
0001
0100
0010
0100
0001
1000
0100
0010
0001
0100
0001
,
1000
0010
0100
0010
1000
0001
0010
0100
1000
0100
0010
0001
1000
0100
1000
0010
,
1000
0001
0010
0100
1000
0001
0100
0010
1000
0001
0010
0001
0100
0010
0100
0001
,
1000
0100
0010
0001
1000
0010
0100
0001
1000
0001
0010
0001
1000
0010
1000
0100
,
0010
0001
0100
0010
1000
0001
0010
0100
0010
0001
1000
0010
1000
0001
0100
0001
,
1000
0100
0010
0100
1000
0001
0100
0010
1000
0010
0100
0001
1000
0010
1000
0100
,
1000
0001
0010
0001
0100
0010
1000
0001
0010
0100
1000
0010
0100
0001
0100
0001
,
1000
0001
1001
1000
1100
0100
0010
0100
,
1000
0001
1001
1000
1010
0010
1000
0001
,
1000
0100
0110
0010
0011
0001
1000
0100
,
0010
0001
0010
0000
0001
1000
0001
0000
0100
0000
0001
0000
0010
0000
0100
0000
,
1000
0001
1001
1000
1100
0100
0010
0100
,
1000
0001
0101
0100
0110
0010
1000
0001
,
0010
0001
1001
1000
1100
0100
1000
0001
,
1000
0010
1000
0000
0001
1000
0001
0000
0100
0000
0001
0000
0010
0000
0100
0000
,
1000
0010
1010
1000
1001
0001
0010
0100
,
1000
0001
0011
0010
0110
0100
1000
0001
,
1000
0010
0110
0100
0101
0001
1000
0100
,
1000
0010
1000
0000
0001
0100
0001
0000
0010
0000
0100
0000
0010
0000
0001
0000
,
0100
0010
1010
1000
1100
0100
1000
0001
,
1000
0010
1010
1000
1001
0001
0010
0100
,
0010
0001
0101
0100
0110
0010
1000
0001
,
0010
0001
0010
0000
0100
1000
0100
0000
0010
0000
0001
0000
0100
0000
0001
0000
,
1000
0100
0010
0000
0001
0000
0010
0000
0100
0000
1000
0000
0010
0000
0100
0000
,
0001
1000
0010
0000
1000
0000
0001
0000
0100
0000
0010
0000
1000
0000
0100
0000
,
0010
0100
1000
0000
0001
0000
1000
0000
0100
0000
0010
0000
0001
0000
0100
0000
,
0010
1000
0001
0000
1000
0000
0010
0000
0100
0000
0001
0000
0010
0000
0100
0000
,
1000
0100
0010
0000
0001
0000
1000
0000
0100
0000
1000
0000
0010
0000
0100
0000
,
0001
1000
0010
0000
1000
0000
0010
0000
0100
0000
0001
0000
0010
0000
0001
0000
,
1000
0100
0010
0000
0001
0000
1000
0000
0100
0000
1000
0000
0010
0000
0100
0000
,
0010
1000
0010
0000
0100
0000
0100
0000
0001
0000
0001
0000
1000
0000
1000
0000
,
0001
0010
0100
1000
0001
0010
0001
1000
0010
0100
0010
1000
0001
0100
0001
1000
,
0100
0010
0001
1000
0100
1000
0001
0010
0001
1000
0010
0100
0001
0100
0010
1000
,
0001
0010
0001
1000
0100
0010
0001
1000
0010
0100
0001
1000
0001
0100
0010
1000
,
0001
0010
0100
1000
0001
0010
0001
1000
0001
0100
0010
1000
0001
1000
0010
0100
,
0001
1000
0100
0010
0001
0010
0100
1000
0001
1000
0010
0100
0001
0100
0010
1000
,
0001
0010
0001
1000
0100
0010
0001
1000
0001
0100
0010
1000
0001
0100
0001
1000
,
0100
0010
0001
1000
0100
1000
0001
0010
0001
1000
0010
0100
0010
1000
0001
0100
,
0001
1000
0100
0010
0001
0100
0010
1000
0100
0010
0100
1000
0001
0010
0001
0100
,
0001
1000
0010
1000
0001
0100
0001
1000
0100
0010
0100
1000
0001
0010
0001
1000
,
0010
0100
0001
1000
0010
1000
0001
0100
0001
1000
0100
0010
0001
0010
0100
1000
,
0001
0100
0001
1000
0010
0100
0001
1000
0100
0010
0001
0100
0001
0010
0100
1000
,
0001
0100
0010
1000
0001
0100
0001
1000
0001
0010
0100
1000
0001
1000
0100
0010
,
0001
1000
0010
0100
0001
0100
0010
1000
0001
1000
0100
0010
0001
0010
0100
1000
,
0001
0100
0001
1000
0010
0100
0001
1000
0001
0010
0100
1000
0001
0010
0001
1000
,
0010
0100
0001
1000
0010
1000
0001
0100
0001
1000
0100
0010
0100
1000
0001
0010
,
0001
1000
0010
1000
0001
1000
0010
1000
0001
1000
0010
1000
0001
1000
0010
1000
,
0001
0001
0010
0100
1000
1000
0001
0100
,
0010
0010
1000
0001
0010
0010
0100
0010
,
0001
0001
1000
0010
0100
0100
0010
1000
,
0001
0001
0010
0100
1000
0010
0100
0000
,
0001
0001
0100
0010
1000
1000
0001
0010
,
0100
0100
1000
0001
0100
0100
0010
0100
,
0001
0001
1000
0100
0010
0010
0100
1000
,
0001
0001
0100
0010
1000
0100
0010
0010
,
0001
1000
0100
0010
0001
1000
0100
1000
0001
0010
0100
1000
0010
0100
0001
0010
,
0001
1000
0010
0100
0001
0100
0010
1000
0001
0100
0001
1000
0100
0010
0100
0010
,
0001
1000
0010
1000
0001
0100
0001
1000
0010
0100
0001
1000
0100
0010
0001
0100
,
0001
0010
0100
1000
0100
0010
0100
1000
0001
0010
0100
0010
0001
0100
0001
0100
,
0001
0010
0100
1000
0001
0100
0010
1000
0001
0010
0100
1000
0001
0100
0010
1000
,
0001
1000
0100
0010
0001
1000
0010
0100
0001
1000
0100
0010
0001
1000
0010
0100
,
0010
1000
0001
0010
0100
1000
0001
0100
0010
1000
0001
0010
0100
1000
0001
0100
,
0001
1000
0100
0010
0001
1000
0010
0100
0001
1000
0100
0010
0001
1000
0010
0100
,
0001
1000
0100
0010
0001
1000
0010
1000
0001
0010
0100
1000
0010
0100
0001
0010
,
0001
1000
0010
0100
0010
1000
0001
0100
0001
1000
0010
1000
0100
0010
0100
0010
,
0001
1000
0010
1000
0001
0100
0001
1000
0010
0100
0001
1000
0100
0010
0001
0100
,
0001
0010
0001
1000
0100
0010
0001
1000
0001
0010
0100
0010
0001
0100
0001
0100
,
0010
1000
0100
0010
0001
1000
0010
1000
0100
0010
0001
1000
0010
1000
0100
0010
,
0001
0100
0001
0010
0100
1000
0001
0100
0001
0010
0100
1000
0001
0100
0001
0010
,
0100
1000
0001
0010
0001
0100
0010
1000
0100
1000
0001
0010
0001
0100
0010
1000
,
0100
1000
0010
0100
0001
0010
0001
1000
0100
1000
0010
0100
0001
0010
0001
1000
,
0100
1000
1001
0001
1001
1000
1100
0100
,
1100
1000
1001
0001
1001
1000
1001
0001
,
0101
0100
0101
0001
1001
1000
1100
0100
,
1000
0001
1000
0000
0010
0100
0010
0000
1000
0000
0001
0000
0010
0000
0001
0000
,
0100
0010
0110
0100
0101
0001
1000
0100
,
0010
0001
1001
1000
1100
0100
1000
0001
,
1000
0010
0110
0100
0101
0001
1000
0001
,
0010
0100
0010
0000
0001
1000
0001
0000
0100
0000
0001
0000
0010
0000
0001
0000
,
1001
1000
1001
0001
1001
1000
1010
0010
,
0110
0100
0101
0001
1001
1000
1001
0001
,
0011
0010
0110
0100
1100
1000
1001
0001
,
1000
0010
1000
0000
0001
0100
0001
0000
0010
0000
0001
0000
0100
0000
0010
0000
,
1000
0001
1001
1000
1010
0010
0100
0010
,
1000
0001
0011
0010
0110
0100
1000
0010
,
0100
0001
1001
1000
1010
0010
0100
0001
,
0010
0001
0010
0000
0001
1000
0001
0000
0100
0000
0010
0000
1000
0000
0100
0000
,
1000
0010
0100
0001
1000
0010
1000
0001
0010
0100
0010
0001
1000
0100
1000
0001
,
0100
0010
1000
0001
0100
0001
1000
0010
1000
0001
0010
0100
1000
0100
0010
0001
,
1000
0010
1000
0001
0100
0010
1000
0001
0010
0100
1000
0001
1000
0100
0010
0001
,
1000
0010
0100
0001
1000
0010
1000
0001
1000
0100
0010
0001
1000
0001
0010
0100
,
1000
0001
0100
0010
1000
0010
0100
0001
1000
0001
0010
0100
1000
0100
0010
0001
,
1000
0010
1000
0001
0100
0010
1000
0001
1000
0100
0010
0001
1000
0100
1000
0001
,
0100
0010
1000
0001
0100
0001
1000
0010
1000
0001
0010
0100
0010
0001
1000
0100
,
1000
0001
0100
0010
1000
0100
0010
0001
0100
0010
0100
0001
1000
0010
1000
0100
,
1000
0001
0010
0001
1000
0100
1000
0001
0100
0010
0100
0001
1000
0010
1000
0001
,
0010
0100
1000
0001
0010
0001
1000
0100
1000
0001
0100
0010
1000
0010
0100
0001
,
1000
0100
1000
0001
0010
0100
1000
0001
0100
0010
1000
0100
1000
0010
0100
0001
,
1000
0100
0010
0001
1000
0100
1000
0001
1000
0010
0100
0001
1000
0001
0100
0010
,
1000
0001
0010
0100
1000
0100
0010
0001
1000
0001
0100
0010
1000
0010
0100
0001
,
1000
0100
1000
0001
0010
0100
1000
0001
1000
0010
0100
0001
1000
0010
1000
0001
,
0010
0100
1000
0001
0010
0001
1000
0100
1000
0001
0100
0010
0100
0001
1000
0001
,
0010
0100
0010
0100
0010
0100
0010
0100
1000
0010
1000
0010
1000
0010
1000
0010
,
0100
0001
0100
0001
0100
0001
0100
0001
1000
0001
1000
0001
1000
0001
1000
0001
,
0010
0100
0010
0100
0010
0100
0010
0100
1000
0001
1000
0001
1000
0001
1000
0001
,
0100
0010
0100
0010
0100
0010
0100
0010
1000
0010
1000
0010
1000
0010
1000
0010
,
1000
0100
1000
0100
1000
0100
1000
0100
0010
0001
0010
0001
0010
0001
0010
0001
,
1000
0001
1000
0001
1000
0001
1000
0001
0100
0010
0100
0010
0100
0010
0100
0010
,
1000
0001
1000
0001
1000
0001
1000
0001
0010
0100
0010
0100
0010
0100
0010
0100
,
1000
0010
1000
0010
1000
0010
1000
0010
0100
0001
0100
0001
0100
0001
0100
0001
,
1000
0001
1000
0001
1000
0001
1000
0001
1000
0001
1000
0001
1000
0001
1000
0001
,
1000
0100
0010
0001
1000
0100
1000
0001
0100
0010
0100
0001
1000
0010
1000
0001
,
0010
0100
1000
0001
0010
0001
1000
0100
1000
0001
0100
0010
1000
0010
0100
0001
,
1000
0100
1000
0001
0010
0100
1000
0001
0100
0010
1000
0100
1000
0010
0100
0001
,
1000
0100
0010
0001
1000
0100
1000
0001
1000
0010
0100
0001
1000
0001
0100
0010
,
1000
0001
0010
0100
1000
0100
0010
0001
1000
0001
0100
0010
1000
0010
0100
0001
,
1000
0100
1000
0001
0010
0100
1000
0001
1000
0010
0100
0001
1000
0010
1000
0001
,
0010
0100
1000
0001
0010
0001
1000
0100
1000
0001
0100
0010
0100
0001
1000
0010
,
1000
0001
0010
0100
1000
0010
0100
0001
0010
0100
0010
0001
1000
0100
1000
0010
,
1000
0001
0100
0001
1000
0010
1000
0001
0010
0100
0010
0001
1000
0100
1000
0001
,
0100
0010
1000
0001
0100
0001
1000
0010
1000
0001
0010
0100
1000
0100
0010
0001
,
1000
0010
1000
0001
0100
0010
1000
0001
0010
0100
1000
0001
1000
0100
0010
0001
,
1000
0010
0100
0001
1000
0010
1000
0001
1000
0100
0010
0001
1000
0001
0010
0100
,
1000
0001
0100
0010
1000
0010
0100
0001
1000
0001
0010
0100
1000
0100
0010
0001
,
1000
0010
1000
0001
0100
0010
1000
0001
1000
0100
0010
0001
1000
0100
1000
0001
,
0100
0010
1000
0001
0100
0001
1000
0010
1000
0001
0010
0100
0010
0001
1000
0010
,
1000
0001
0100
0010
1000
0100
0010
0001
1000
0010
0100
0001
1000
0010
0100
0010
,
1000
0100
0010
0001
1000
0100
1000
0001
0100
0010
0100
0001
1000
0010
1000
0001
,
0010
0100
1000
0001
0010
0001
1000
0100
1000
0001
0100
0010
1000
0010
0100
0001
,
1000
0100
1000
0001
0010
0100
1000
0001
0100
0010
1000
0100
1000
0010
0100
0001
,
1000
0100
0010
0001
1000
0100
1000
0001
1000
0010
0100
0001
1000
0001
0100
0010
,
1000
0001
0010
0100
1000
0100
0010
0001
1000
0001
0100
0010
1000
0010
0100
0001
,
1000
0100
1000
0001
0010
0100
1000
0001
1000
0010
0100
0001
1000
0010
1000
0001
,
0010
0100
1000
0001
0010
0001
1000
0100
1000
0001
0100
0010
0100
0001
1000
0010
,
1000
0001
0010
0100
1000
0010
0100
0001
0010
0100
0010
0001
1000
0100
1000
0010
,
1000
0001
0100
0001
1000
0010
1000
0001
0010
0100
0010
0001
1000
0100
1000
0001
,
0100
0010
1000
0001
0100
0001
1000
0010
1000
0001
0010
0100
1000
0100
0010
0001
,
1000
0010
1000
0001
0100
0010
1000
0001
0010
0100
1000
0001
1000
0100
0010
0001
,
1000
0010
0100
0001
1000
0010
1000
0001
1000
0100
0010
0001
1000
0001
0010
0100
,
1000
0001
0100
0010
1000
0010
0100
0001
1000
0001
0010
0100
1000
0100
0010
0001
,
1000
0010
1000
0001
0100
0010
1000
0001
1000
0100
0010
0001
1000
0100
1000
0001
,
0100
0010
1000
0001
0100
0001
1000
0010
1000
0001
0010
0100
0010
0001
1000
0100
,
1000
0001
0100
0010
1000
0100
0010
0001
0100
0010
0100
0001
1000
0010
1000
0100
,
0010
0100
1000
0001
0010
0100
1000
0001
0100
0010
1000
0001
1000
0010
0100
0001
,
1000
0100
0010
0001
1000
0100
1000
0001
1000
0010
0100
0001
1000
0001
0100
0010
,
1000
0001
0010
0100
1000
0100
0010
0001
1000
0010
1000
0100
1000
0010
0100
0001
,
1000
0100
1000
0001
0010
0100
1000
0001
1000
0010
0100
0001
1000
0010
1000
0001
,
0010
0100
1000
0001
0010
0001
1000
0100
1000
0001
0100
0010
0100
0001
1000
0100
,
1000
0001
0100
0010
1000
0010
0100
0001
1000
0100
0010
0001
1000
0100
1000
0001
,
0100
0010
0100
0001
1000
0010
1000
0001
0010
0100
0010
0001
1000
0100
1000
0001
,
0100
0010
1000
0001
0100
0001
1000
0010
1000
0001
0010
0100
1000
0100
0010
0001
,
0200
0000
0000
0000
,
0000
0000
0000
0000
,
0000
0000
0000
0000
,
0000
0000
0000
0000
,
0000
0000
0000
0000
,
0000
0000
0000
0000
,
0000
0000
0000
0000
,
0000
0000
0000
0000
,
0000
0000
0000
0000
,
0000
0000
0000
0000
,
0300
0000
0000
0000
;
