#TITLE:Into the Oblivion;
#SUBTITLE:ObliVioN EXTREME DWI Version!;
#ARTIST:Warmen;
#TITLETRANSLIT:;
#SUBTITLETRANSLIT:;
#ARTISTTRANSLIT:;
#CREDIT:;
#BANNER:into_the_oblivion.jpg;
#BACKGROUND:into_the_oblivion-bg.jpg;
#LYRICSPATH:;
#CDTITLE:;
#MUSIC:oblivion.mp3;
#OFFSET:-0.240;
#SAMPLESTART:39.073;
#SAMPLELENGTH:12.000;
#SELECTABLE:YES;
#BPMS:0.000=156.033;
#STOPS:;
#BGCHANGES:;
// cache tags:
#FIRSTBEAT:0.000;
#LASTBEAT:600.000;
#SONGFILENAME:Songs/IzzySM Keyboard Mega Pack/Into_the_Oblivion/oblivion.sm;
#HASMUSIC:1;
#HASBANNER:1;
#MUSICLENGTH:237.118;
// end cache tags

//---------------dance-single - EXTREME!----------------
#NOTES:
     dance-single:
     EXTREME!:
     Hard:
     13:
     1.000,1.000,0.354,0.291,1.000,1674.000,84.000,69.000,0.000,0.000:
0022
0000
0000
0000
,
0000
0000
0000
0033
,
2200
0000
0000
0000
,
0000
0000
3300
0000
,
2002
0000
0000
0000
,
0000
0000
0000
3003
,
2020
0000
0000
0000
,
0000
0000
0000
3030
,
0202
0000
0000
0303
,
0220
0000
0000
0330
,
0001
0000
0100
1000
0100
0000
0010
1000
0100
0000
0001
0100
1000
0000
0000
0000
,
0001
1000
0100
1000
0001
1000
0100
1000
0001
1000
0100
1000
0001
1000
0100
1000
,
0001
1000
0100
1000
0001
1000
0100
1000
0001
1000
0100
1000
0001
1000
0100
0010
,
1000
0001
0100
0001
1000
0001
0100
0001
1000
0001
0100
0001
1000
0001
0100
0001
,
1000
0001
0100
0001
1000
0001
0100
0001
1000
0001
0100
0001
1000
0001
0100
0001
,
1000
0100
0010
0001
0010
0100
1000
0100
0010
0001
0010
0100
1000
0100
0010
0001
,
0010
0100
1000
0100
0010
0001
0010
0100
1000
0100
0010
0001
0010
0100
1000
0100
,
0001
0100
1000
0010
0001
0100
1000
0010
0001
0100
1000
0010
0001
0100
1000
0010
,
0001
0100
1000
0010
0001
0100
1000
0010
0001
0100
1000
0010
0001
0000
0000
0000
,
0001
1000
0010
0100
0001
0010
1000
0001
0100
0010
1000
0100
1000
0001
0100
0010
,
1000
0010
0100
0001
1000
0010
0100
0001
1000
0100
0010
0001
1000
0100
1000
0001
,
0100
0010
1000
0100
0001
0010
0100
1000
0100
0001
0100
1000
0010
0100
0001
0010
,
1000
0100
0001
1000
0010
0100
0001
1000
0100
0010
1000
0001
0010
1000
0100
0001
,
0010
0001
0100
0010
1000
0010
0100
0001
1000
0010
0100
0001
0100
1000
0100
0010
,
0100
0001
1000
0010
0100
0001
1000
0100
0001
1000
0100
1000
0001
0010
0100
0010
,
0100
1000
0010
0100
1000
0001
0100
0010
1000
0100
0001
0100
1000
0001
0010
0100
,
1000
0100
1000
0001
1000
0010
1000
0001
1000
0100
1000
0001
1000
0010
1000
0001
,
1100
0000
1100
0000
,
1100
0000
0000
0000
0000
0000
0000
0000
0000
0000
0000
0000
1100
0000
0000
0000
0000
0000
0001
0010
1000
0000
0000
0000
,
0101
0000
0101
0000
,
0101
0000
0000
0000
0000
0000
0000
0000
0000
0000
0000
0000
0101
0000
0000
0000
0000
0000
0001
0100
0001
1000
0100
0000
,
1100
1100
0101
0101
1100
1100
0101
0101
,
1100
0000
1100
0000
0101
0000
0101
0000
0001
0100
1000
0010
0001
0100
1000
0010
,
0011
0011
1010
1010
0011
0011
1010
1010
,
0011
0000
0011
0000
1010
0000
1010
0000
0010
0100
1000
0001
0010
0100
1000
0010
,
1000
0100
0010
1000
0001
1000
0010
0001
1000
0001
0100
1000
0001
1000
0010
1000
,
0100
0010
1000
0001
0100
0010
1000
0001
0100
0010
1000
0100
0001
0100
0010
1000
,
0010
0100
0001
1000
0100
0010
1000
0001
0100
0010
1000
0001
0010
0100
0010
0100
,
1000
0100
1000
0001
0010
0100
1000
0100
0010
1000
0001
0010
0100
0010
0001
0010
,
0200
0000
0000
0000
,
0000
0000
0000
0000
0000
0000
0000
0000
0300
0000
0000
0000
1000
0000
0001
0100
,
1000
0000
1000
0000
1000
0000
1000
0000
1000
0000
1000
0000
1000
0000
1000
0001
,
1000
1000
1000
1000
1000
0100
0010
1000
,
0001
0100
0010
1000
0001
0100
0020
0000
,
0000
0000
0000
0030
,
1000
0100
0001
0010
1000
0100
0001
0010
1000
0100
0010
0001
,
0100
0000
0000
0000
0000
0000
0000
0000
0000
0000
0000
0000
1000
0000
0000
0000
0100
0000
0000
0000
0001
0000
0000
0000
1000
0000
0000
0000
0010
0000
0000
0000
0100
0000
0000
0000
0001
0000
0000
1000
0000
0000
0100
0000
0000
0010
0000
0000
,
2000
0000
0000
0000
0000
0000
0001
0100
,
0002
0000
0000
3003
,
0100
0001
0010
0001
0100
0001
0010
0001
0100
0001
0010
0001
0100
0001
0010
0001
,
0010
1000
0100
1000
0010
1000
0100
1000
0020
0000
0000
0000
0030
0000
0000
0000
,
1000
0100
0010
0001
1000
0100
0010
0001
1000
0100
0010
0001
1000
0100
0010
0001
,
0010
0100
1000
0001
0010
0100
1000
0001
0010
0100
1000
0001
0010
0100
1000
0100
,
0001
0100
0010
1000
0001
0100
1000
0100
0010
0001
0010
0001
0010
0001
0010
0001
,
1000
0100
1000
0100
0010
0001
0010
0100
2000
0000
0000
0000
0000
0000
0000
3000
,
0011
0000
0000
0000
0100
1000
0100
0000
1001
0000
0000
0000
0100
0010
0001
0000
,
1100
0000
0000
0000
0010
0001
1000
0000
0101
0000
0000
0000
0001
0100
0010
1000
,
0101
0000
0000
0000
0001
1000
0010
0000
1100
0000
0000
0000
1000
0001
0010
0000
,
0101
0000
0000
0000
1000
0100
0010
0000
1010
0000
0000
0000
0001
1000
0010
0100
,
1000
0001
1000
0001
,
1000
0001
1000
0001
1000
0001
1000
0001
,
1000
0001
1000
0001
1000
0001
1000
0001
1000
0001
1000
0001
1000
0001
1000
0001
,
1000
0001
1000
0001
1000
0001
1000
0001
1000
0001
1000
0001
1000
0001
1000
0001
1000
0001
1000
0001
1000
0001
1000
0001
,
2000
0000
0000
0000
0000
0000
0000
0000
3000
0000
1000
0010
0100
0001
1000
0010
,
0100
0001
0010
0100
1000
0100
0010
0100
1000
0001
0010
1000
0001
0100
0010
1000
,
0002
0000
0000
0000
0000
0003
0000
1000
0010
0001
0010
0100
0001
0010
2000
0000
,
0000
0000
0000
0000
0000
3000
0000
0000
0001
0010
1000
0100
0001
0010
1000
0100
,
0001
0010
1000
0100
0010
1000
0100
1000
0001
0010
0100
0001
1000
0100
0010
1000
,
0001
0000
0000
0010
0000
0000
0100
0000
0000
0010
0000
0000
0001
0000
0000
0000
0000
0000
0001
0000
1000
0000
0001
0000
2000
0000
0000
0000
0000
0000
3000
0000
0000
0000
0000
0000
0001
0000
0000
0000
0000
0000
1000
0000
0001
0000
0100
0000
,
0020
0000
0000
0000
0000
0000
0000
0000
0000
0030
0000
0000
1000
0000
0000
0000
0000
0000
0001
0000
0010
0000
0100
0000
2000
0000
0000
0000
0000
0000
0000
0000
0000
0000
0000
0000
0000
0000
0000
0000
0000
0000
0000
0000
0000
0000
0000
0000
,
0000
0000
0000
0000
0000
0000
0000
3000
,
2200
3300
0001
0000
2200
3300
0001
2200
3300
0001
2200
3300
0001
0000
2200
3300
,
0202
0303
1000
0000
0202
0303
1000
0202
0303
1000
0202
0303
1000
0000
0202
0303
,
1000
0010
0100
0001
1000
0010
0100
0001
0000
0000
0000
0000
0100
0000
0000
0000
,
0010
0100
1000
0001
0010
0001
0100
1000
0010
0100
0001
1000
0100
0010
1000
0001
,
0100
0000
0000
0000
0010
0100
0001
0000
1000
0100
0001
0000
1000
0010
0100
0010
,
1000
0001
0100
1000
0010
0001
1000
0010
0001
1000
0010
0100
0001
0010
0100
1000
,
0100
0010
1000
0001
0100
0010
1000
0100
0001
0010
0100
0001
1000
0010
0100
0001
,
1000
0100
1000
0010
1000
0001
1000
0010
0100
0001
1000
0010
0100
0001
0010
0000
,
0011
0100
1000
0001
1010
0100
0001
1000
0011
0100
1000
0001
1010
0100
0001
1000
,
0011
0100
1000
0001
1010
0100
0001
1000
0011
0100
1000
0001
1100
0100
0001
1000
,
0100
0010
0100
1000
0100
0010
0100
1000
0100
0010
0100
1000
0100
0010
0100
1000
,
0100
0010
0001
0010
0100
0010
0001
0010
0100
0010
0001
0010
0100
0010
0001
0010
,
0100
1000
0001
0100
0010
1000
0001
0100
0010
1000
0001
0100
0010
0100
1000
0001
,
1000
0010
1000
0001
0100
0010
1000
0001
0010
0100
1000
0010
0100
0001
1000
0010
,
0100
0001
0100
1000
0010
0001
0100
1000
0010
0100
0001
1000
0100
0010
1000
0001
,
2000
0000
0000
0000
0000
0000
0000
0000
0000
0000
0000
0000
0000
0000
0000
3000
,
1000
0100
0010
0001
0010
0100
1000
0100
0010
0001
0010
0100
1000
0100
0010
0001
,
0100
0010
1000
0001
0100
0010
1000
0001
0100
0010
1000
0001
0100
0001
0100
1000
,
0010
0001
0100
1000
0010
0001
0100
1000
0001
0100
0010
1000
0100
1000
0100
0001
,
0100
0010
0100
0001
0100
0010
1000
0001
0100
0010
0001
1000
0100
0010
1000
0001
,
0100
0010
1000
0100
1000
0100
0010
0001
1000
0100
0001
0010
1000
0100
0001
1000
,
0001
0010
1000
0100
1000
0001
0010
1000
0010
0100
0001
1000
0100
0010
1000
0100
,
0001
0010
1000
0100
0001
0010
1000
0001
0100
0010
1000
0100
1000
0100
0010
0100
,
0010
0100
0001
0010
0001
1000
0100
0001
1000
0100
0010
1000
0001
0100
0010
1000
,
0100
0010
0100
0001
0100
0010
0100
1000
0100
0001
1000
0010
0100
0001
1000
0010
,
0100
0010
0100
0001
0100
0010
0100
1000
0010
0100
0001
1000
0010
0100
0001
1000
,
0001
0010
0100
1000
0100
0010
0001
0100
0010
0100
1000
0001
0010
0100
1000
0100
,
0001
1000
0010
0100
1000
0010
0001
0100
1000
0001
0100
0010
1000
0100
1000
0001
,
0010
0100
0010
0100
0001
0010
1000
0100
0001
0100
1000
0010
0001
0100
0010
1000
,
0001
1000
0001
0100
0010
1000
0001
0100
0010
1000
0100
1000
0100
0001
0100
0010
,
1000
0001
1000
0001
0100
0010
1000
0001
0100
0010
0100
0010
0001
0010
0100
0010
,
0100
1000
0100
1000
0001
0010
0100
1000
0100
0010
0100
0010
1000
0001
0100
0010
,
1001
0000
0000
0000
0000
0000
0000
0000
0000
1010
0000
0000
0000
0000
0000
0000
,
0000
0000
0000
0000
0000
0000
1010
0000
1001
0000
0110
0000
,
1010
0000
0000
0000
0000
0000
0000
0000
0000
1001
0000
0000
0000
0000
0000
0000
,
1000
0000
0000
0000
0001
0000
0000
0000
1000
0000
0001
0000
1000
0000
0001
1000
0001
1000
0001
1000
0001
1000
0001
1000
,
0022
0000
0000
0033
2200
0000
0000
3300
,
0022
0000
0000
0033
2200
0000
0000
3300
,
2002
0000
0000
3003
0220
0000
0000
0330
,
2020
0000
0000
3030
0202
0000
0000
0303
,
1000
0001
0100
0000
1000
0001
0100
0000
1000
0001
0100
0000
1000
0001
0100
0000
,
1000
0001
0100
0000
1000
0001
0100
0000
1000
0001
0100
0000
1000
0001
0100
0000
,
1000
0010
0001
0000
1000
0010
0001
0000
1000
0010
0001
0000
1000
0010
0001
0000
,
1000
0010
0001
0000
1000
0010
0100
0000
1000
0010
0100
0000
1000
0010
0100
0000
,
1000
0010
0100
0000
0001
1000
0010
0000
0100
0001
1000
0000
1000
0001
0100
0000
,
0010
0100
1000
0000
0001
1000
0010
0000
0100
0001
1000
0000
0100
1000
0010
0000
,
0001
0100
1000
0000
1000
0010
0001
0000
0100
1000
0010
0000
0001
0010
0100
0000
,
1000
0010
1000
0000
1000
0001
0100
0000
1000
0001
0100
0000
1000
0001
0100
0000
,
1000
0001
0100
0010
1000
0001
0100
0010
1000
0001
1000
0010
0100
0001
1000
0100
,
1000
0010
0001
0010
0100
1000
0100
1000
0100
0010
0100
0010
0001
1000
0100
1000
,
0001
0010
1000
0010
0001
0100
1000
0100
0001
0100
1000
0010
0001
1000
0100
0010
,
1000
0100
0001
1000
0010
0100
0001
1000
0100
0010
1000
0100
0001
1000
0100
0010
,
0001
1000
0001
0100
0010
1000
0001
0100
1000
0010
0100
0001
0010
0100
1000
0100
,
0010
1000
0010
0001
0100
0010
1000
0001
0100
1000
0010
0100
0001
1000
0100
0010
,
0100
1000
0001
0010
0001
0100
0010
1000
0001
0100
1000
0100
1000
0001
0100
0010
,
0001
0100
0001
0100
0001
0100
0001
0100
0001
0100
0001
0100
0001
0100
0001
0100
,
1000
0100
1000
0100
1000
0100
1000
0100
1000
0100
1000
0100
1000
0100
1000
0100
,
0001
1000
0001
1000
0001
1000
0001
1000
0001
1000
0001
1000
0001
1000
0001
1000
,
2002
3003
0220
0330
2002
0000
0000
0000
,
0000
0000
0000
0000
,
0000
0000
0000
0000
3003
0000
0000
0000
0000
1001
0000
0000
0000
1000
0100
0010
,
0001
0010
0100
1000
0100
0010
0001
0010
0100
1000
0100
0010
0001
0010
0100
1000
,
0100
0010
0001
0010
0100
1000
0001
0100
1000
0100
0001
0100
1000
0100
0001
0100
,
1000
0100
0001
0010
0100
1000
0010
0100
0001
1000
0001
0100
0010
1000
0001
0100
,
0010
1000
0001
0100
0010
1000
0001
0010
0001
0010
0100
0010
0001
0100
1000
0100
,
0001
0010
1000
0010
0001
1000
0100
0001
0010
1000
0100
0001
0010
0100
1000
0100
,
1000
0001
0100
0010
0001
1000
0100
0001
1000
0100
0010
1000
0001
0010
0001
0010
,
0100
0010
0100
1000
0100
0001
1000
0100
0010
1000
0001
0100
0010
0001
1000
0001
,
1000
0001
1000
0100
0010
1000
0001
0100
0010
1000
0001
0010
0100
0001
0010
1000
,
0100
1000
0100
0001
1000
0100
0010
1000
0100
0010
0001
0100
0010
0001
0100
0010
,
1000
0001
0100
0010
1000
0001
1000
0100
0010
1000
0001
0010
0100
0010
0100
1000
,
0010
0100
0010
0001
1000
0100
1000
0001
0010
0100
0001
1000
0100
0010
1000
0100
,
0001
0100
1000
0010
1000
0001
0100
0010
1000
0001
0100
0010
,
1000
0001
0100
0010
1000
0001
0100
0010
1000
0100
0010
0100
,
0001
0100
1000
0010
0100
0001
1000
0100
0010
1000
0010
0100
,
0001
1000
0010
0100
0001
1000
0100
0010
,
1000
0001
0100
0000
,
0000
0000
0000
0000
0000
0000
0000
0000
0000
0000
0000
0000
0000
0000
0000
2002
,
0000
0000
0000
0000
,
3003
0000
0000
0000
;
