#TITLE:Frozen Sky;
#SUBTITLE:MetzgerSM;
#ARTIST:Conquest;
#TITLETRANSLIT:;
#SUBTITLETRANSLIT:;
#ARTISTTRANSLIT:;
#CREDIT:;
#BANNER:Dragon-BN.JPG;
#BACKGROUND:dragon-BG.jpg;
#LYRICSPATH:;
#CDTITLE:metzger-cdtitle.png;
#MUSIC:Conquest_-_Frozen_Sky.mp3;
#OFFSET:-0.120;
#SAMPLESTART:24.560;
#SAMPLELENGTH:19.240;
#SELECTABLE:YES;
#BPMS:0.000=190.000;
#STOPS:;
#BGCHANGES:;
// cache tags:
#FIRSTBEAT:0.000;
#LASTBEAT:921.000;
#SONGFILENAME:Songs/Hard Songs Megapack Volume 9/Frozen Sky/Conquest_-_Frozen_Sky.sm;
#HASMUSIC:1;
#HASBANNER:1;
#MUSICLENGTH:295.079;
// end cache tags

//---------------dance-single - Blank----------------
#NOTES:
     dance-single:
     Blank:
     Hard:
     12:
     1.000,1.000,0.424,0.352,1.000,2672.000,125.000,104.000,0.000,0.000:



2002
0000
0000
0000
,
0000
0000
0000
0000
,
0000
0000
0000
0000
,
3003
0000
0000
0100
0001
0010
0100
1000
,
0002
0000
0000
0000
0000
0000
0000
0000
0000
0000
0000
0003
0001
0000
0000
0000
,
0100
0000
0000
0000
0010
0000
0000
1000
,
0001
0000
0000
0001
0100
0010
2000
0000
,
0000
0000
3000
1000
0001
0010
0100
1000
,
0020
0000
0000
0000
0000
0000
0000
0000
0000
0000
0000
0030
0010
0000
0000
0000
,
0100
0000
0000
0000
0001
0000
0000
0010
,
2000
0000
0000
0000
,
0000
0000
3000
1000
0010
0100
0010
0001
,
0200
0000
0000
0000
0000
0000
0000
0000
0000
0000
0000
0300
0100
0000
0000
0000
,
1000
0000
0000
0000
0001
0000
0000
0010
,
0100
0000
0000
1000
0010
0100
0002
0000
,
0000
0000
0003
0001
1000
0010
0100
0001
,
0020
0000
0000
0000
0000
0000
0000
0000
0000
0000
0000
0030
0010
0000
0000
0000
,
0100
0000
0000
0000
0001
0000
0000
0100
,
0220
0000
0000
0000
,
0000
0000
0000
0000
0330
0000
1000
0010
0101
0000
0000
0000
1001
0000
0000
0000
,
1100
0010
0001
0010
0100
0010
0001
1000
0100
0010
0001
0010
0100
1000
0100
0001
,
0100
0010
0001
0010
0100
1000
0100
0010
0100
0001
0010
0100
0010
1000
0100
0010
,
0001
1000
0100
0010
0001
0100
0010
1000
0001
0100
0010
0001
0010
0100
1000
0001
,
0100
0001
1000
0001
0100
0010
0100
0001
0100
1000
0100
0010
0001
1000
0100
1000
,
0001
1000
0010
1000
0100
0001
0010
0100
1000
0001
0010
0100
1000
0001
0010
0100
,
0010
0001
1000
0100
0010
0100
0010
0001
1000
0100
0001
0010
0100
0010
1000
0001
,
1000
0001
0100
0010
0100
0001
0100
0010
1000
0010
1000
0100
0001
0100
0001
0010
,
1000
0001
1000
0001
0010
0100
1000
0100
0010
0001
0100
0010
1000
0001
0100
0010
,
0001
0010
0100
1000
0100
0001
1000
0001
0100
0001
0010
0001
0010
0100
0010
1000
,
0010
0100
0001
0010
1000
0100
0010
0001
0010
0100
1000
0010
0100
0001
0010
0100
,
1000
0100
0010
0100
0001
0010
0100
1000
0100
0001
0010
1000
0100
0010
0001
0010
,
0100
0001
1000
0100
0010
0001
1000
0001
0100
0010
1000
0010
1000
0100
0001
0100
,
0001
0010
1000
0010
1000
0100
0001
0010
0100
1000
0100
0010
0001
1000
0100
0010
,
0001
0010
0100
0010
1000
0100
0010
0100
0001
0100
0010
0100
1000
0100
0010
0100
,
1001
0010
0001
0010
1000
0100
1000
0100
0011
0100
0010
0100
1000
0001
1000
0001
,
0010
1000
0010
1000
0100
0010
0100
0001
0100
0000
0011
0000
1100
0000
0011
0000
,
1001
0100
0010
0001
0100
0001
1000
0010
,
0100
0001
0010
0100
1000
0011
1100
0011
,
0100
0010
0001
0100
0010
1000
0010
0100
,
0001
0010
0100
1010
0101
0010
1000
0100
,
0001
1000
0001
0100
1000
0010
0100
0001
,
0010
0000
0001
0000
0100
0000
1000
0000
0101
1000
0100
0010
0001
0010
0100
1000
,
0100
1000
0001
0010
0100
1000
0100
0010
0100
1000
0100
0010
0001
0010
0100
0010
,
0001
0010
0100
1000
0001
0100
0001
0010
0001
0100
0001
1000
0100
0010
0100
0001
,
1000
0100
0010
0001
0010
1000
0100
0010
0001
0100
0010
0100
1000
0001
0010
0100
,
1000
0010
0100
0001
0100
0010
0100
1000
0100
0010
0100
0001
0010
0001
0010
0001
,
1000
0100
0010
0001
0010
0100
0010
0001
0010
0001
1000
0100
1000
0010
1000
0100
,
0001
0010
0100
0010
0001
0100
0001
0100
0010
1000
0010
1000
0100
0001
0100
0001
,
0010
1000
0010
1000
0010
0100
1000
0100
0010
0001
0010
0100
0010
0001
0100
1000
,
0100
0010
0001
0010
0100
0010
1000
0100
0011
1000
0100
0010
0001
0010
0100
1000
,
0100
1000
0001
0010
0100
1000
0100
0010
0100
1000
0100
0010
0001
0010
0100
0010
,
0001
0010
0100
1000
0001
0100
0001
0010
0001
0100
0001
1000
0100
0010
0100
0001
,
1000
0010
0100
1000
0100
1000
0100
0010
0001
0100
0010
0100
1000
0001
0010
0100
,
1000
0010
0100
0001
0100
0010
0100
1000
0100
0010
0100
0001
0010
0001
0010
0001
,
1000
0100
0010
0001
0010
0100
0010
0001
0010
0001
1000
0100
1000
0010
1000
0100
,
0001
0010
0100
0010
0001
0100
0001
0100
0010
1000
0010
1000
0100
0001
0100
0001
,
0010
0000
0000
1000
0000
0000
0010
0000
0000
1000
0000
0000
0010
0000
0000
0100
0000
0000
1000
0000
0000
0100
0000
0000
0010
0000
0000
0001
0000
0000
1010
0000
0000
0000
0000
0000
0100
0000
0000
0000
0010
0000
0000
0000
0001
0000
0000
0000
,
1010
0000
0000
0000
0100
0000
0000
0000
0010
0000
0000
0000
0001
0000
0000
1000
0000
0000
0001
0000
0000
1000
0000
0000
0101
0000
0000
0000
0010
0000
0000
0000
1000
0000
0000
0000
0101
0000
0000
0000
0010
0000
0000
0000
0100
0000
0000
0000
,
0010
0001
0010
1001
0100
0010
1000
0100
1000
0011
0100
0010
,
0001
0010
0001
1100
0010
1000
0100
0010
0100
1010
0100
0010
,
0001
1000
0010
0101
0010
0100
0001
1000
0100
0011
1000
0010
,
0100
0001
1000
0110
0001
1000
0100
0010
0100
1001
0010
1000
,
0001
0100
1000
0011
0100
1000
0100
0010
1000
0011
0100
0001
,
1000
0100
0001
1010
0001
1000
0100
0010
1000
0110
1000
0001
,
0010
0000
0100
0000
0010
0000
1001
0000
0100
0000
0010
0000
1001
0000
0000
0000
0000
0000
0000
0000
0000
1000
0000
0000
,
0011
0000
0010
0000
0100
0000
1000
0000
0110
1000
0001
0010
0100
0010
0001
1000
,
0100
0010
0001
0010
0100
1000
0100
0001
0100
0010
0001
0010
0100
1000
0100
0010
,
0100
0001
0010
0100
0010
1000
0100
0010
0001
1000
0100
0010
0001
0100
0010
1000
,
0001
0100
0010
0001
0010
0100
1000
0001
0100
0001
1000
0001
0100
0010
0100
0001
,
0100
1000
0100
0010
0001
1000
0100
1000
0001
1000
0010
1000
0100
0001
0010
0100
,
1000
0001
0010
0100
1000
0001
0010
0100
0010
0001
1000
0100
0010
0100
0010
0001
,
1000
0100
0001
0010
0100
0010
1000
0001
1000
0001
0100
0010
0100
0001
0100
0010
,
1000
0010
1000
0100
0001
0100
0001
0010
1000
0001
1000
0001
0010
0100
1000
0100
,
0010
0001
0100
0010
1000
0001
0100
0010
0001
0010
0100
1000
0100
0001
1000
0001
,
0100
0001
0010
0001
0010
0100
0010
1000
0010
0100
0001
0010
1000
0100
0010
0001
,
0010
0100
1000
0010
0100
0001
0010
0100
1000
0100
0010
0100
0001
0010
0100
1000
,
0100
0001
0010
1000
0100
0010
0001
0010
0100
0001
1000
0100
0010
0001
1000
0001
,
0100
0010
1000
0010
1000
0100
0001
0100
0001
0010
1000
0010
1000
0100
0001
0010
,
0100
1000
0100
0010
0001
1000
0100
0010
0001
0010
0100
0010
1000
0100
0010
0100
,
0001
0100
0010
0100
1000
0100
0010
0100
1001
0010
0001
0010
1000
0100
1000
0100
,
0011
0100
0010
0100
1000
0001
1000
0001
0010
1000
0010
1000
0100
0010
0100
0001
,
1100
0010
0100
0010
0001
0010
0100
1000
0101
0000
0010
0000
1000
0000
0100
0000
,
0011
1000
0001
0100
1000
0100
0010
0001
,
0100
0010
0100
1000
0010
0100
1001
0100
,
0001
1000
0011
0100
1000
0101
0010
0001
,
1010
0100
0010
1000
0001
0100
0010
0100
,
1000
0100
0001
0010
0100
0010
1000
0010
,
0101
1000
0100
0010
0001
0010
0100
1000
0100
1000
0001
0010
0100
1000
0100
0010
,
0100
1000
0100
0010
0001
0010
0100
0010
0001
0010
0100
1000
0001
0100
0001
0010
,
0001
0100
0001
1000
0100
0010
0100
0001
1000
0100
0010
0001
0100
1000
0100
0010
,
0001
0100
0010
0100
1000
0001
0010
0100
1000
0010
0100
0001
0100
0010
0100
1000
,
0100
0010
0100
0001
0010
0001
0010
0001
1000
0100
0010
0001
0010
0100
0010
0001
,
0010
0001
1000
0100
1000
0010
1000
0100
0001
0010
0100
0010
0001
0100
0001
0100
,
0010
1000
0010
1000
0100
0001
0100
0001
0010
1000
0010
1000
0010
0100
1000
0100
,
0010
0001
0010
0100
0010
0001
0100
1000
0100
0010
0001
0010
0100
0010
1000
0100
,
0011
1000
0100
0010
0001
0010
0100
1000
0100
1000
0001
0010
0100
1000
0100
0010
,
0100
1000
0100
0010
0001
0010
0100
0010
0001
0010
0100
1000
0001
0100
0001
0010
,
0001
0100
0001
1000
0100
0010
0100
0001
1000
0010
0100
0001
0010
1000
0100
0010
,
0001
0100
0010
0100
1000
0001
0010
0100
1000
0010
0100
0001
0100
0010
0100
1000
,
0100
0010
0100
0001
0010
0001
0010
0001
1000
0100
0010
0001
0010
0100
0010
0001
,
0010
0001
1000
0100
1000
0010
1000
0100
0001
0010
0100
0010
0001
0100
0001
0100
,
0010
1000
0010
1000
0100
0001
0100
0001
0010
1000
0010
1000
0010
0100
1000
0100
,
0010
0000
0000
0001
0100
0000
0000
0000
1000
0000
0000
0000
0011
0000
0000
0000
1100
0000
0000
0000
0011
0000
0000
0000
1100
0000
0000
0000
0000
0000
0011
0000
0000
0000
0000
0000
0001
0000
0000
0100
0000
0000
0010
0000
0000
1000
0000
0000
,
0001
0010
1000
0101
0010
0100
0010
0001
0010
1001
0100
0010
,
1000
0100
1000
0011
0100
0010
0001
0010
0001
1100
0010
1000
,
0100
0010
0100
1010
0100
0010
0001
1000
0010
0101
0010
0100
,
0001
1000
0100
0011
1000
0010
0100
0001
1000
0110
0001
1000
,
0100
0010
0100
1001
0010
1000
0001
0100
1000
0011
0100
1000
,
0100
0010
1000
0011
0100
0001
1000
0100
0001
1010
0001
1000
,
0100
0010
1000
0100
1000
0001
0010
0100
0010
1000
0100
0010
,
1001
0000
0000
0000
0001
0010
0100
1000
0001
0010
0100
1000
0001
0010
0100
1000
,
0101
1000
0100
0010
0001
0010
0100
1000
0100
1000
0001
0010
0100
1000
0100
0010
,
0100
1000
0100
0010
0001
0010
0100
0010
0001
0010
0100
1000
0001
0100
0001
0010
,
0001
0100
0001
1000
0100
0010
0100
1000
0001
0010
0100
0010
0001
1000
0100
0010
,
0001
0100
0010
0100
1000
0001
0010
0100
1000
0010
0100
0001
0100
0010
0100
1000
,
0100
0010
0100
0001
0010
0001
0010
0001
1000
0100
0010
0001
0010
0100
0010
0001
,
0010
0001
1000
0100
1000
0010
1000
0100
0001
0010
0100
0010
0001
0100
0001
0100
,
0010
1000
0010
1000
0100
0001
0100
0001
0010
1000
0010
1000
0010
0100
1000
0100
,
0010
0001
0010
0100
0010
0001
0100
1000
0100
0010
0001
0010
0100
0010
1000
0100
,
0011
1000
0100
0010
0001
0010
0100
1000
0100
1000
0001
0010
0100
1000
0100
0010
,
0100
1000
0100
0010
0001
0010
0100
0010
0001
0010
0100
1000
0001
0100
0001
0010
,
0001
0100
0001
1000
0100
0010
0100
0001
0010
0100
1000
0100
0010
1000
0100
0010
,
0001
0100
0010
0100
1000
0001
0010
0100
1000
0010
0100
0001
0100
0010
0100
1000
,
0100
0010
0100
0001
0010
0001
0010
0001
1000
0100
0010
0001
0010
0100
0010
0001
,
0010
0001
1000
0100
1000
0010
1000
0100
0001
0010
0100
0010
0001
0100
0001
0100
,
0010
1000
0010
1000
0100
0001
0100
0001
0010
1000
0010
1000
0010
0100
1000
0100
,
0010
0001
0010
0100
0010
0100
0010
0100
0011
1000
0001
1000
0011
0000
0110
0000
,
1100
0010
1000
0001
0110
1000
0001
0100
,
0010
1000
0001
0100
0010
0001
1000
0001
,
0100
0010
1100
0010
1000
0010
0101
0010
,
0100
1001
0010
1000
0101
0010
1000
0001
,
0100
0010
1000
0010
0100
0001
0100
1000
,
0001
0010
0100
0001
1010
0000
0200
0000
,
0320
0000
0032
2003
3002
0003
0200
2300
,
0000
0000
0000
0000
0000
3000
0200
0000
,
0320
0000
0032
0203
0302
0000
0023
2030
,
0000
3020
0230
0000
,
0302
2003
3020
0230
0302
0000
0000
0000
2003
0000
0000
0000
3020
0000
0000
0000
,
0032
0000
0000
0000
0203
0000
0000
0000
2300
3020
2030
3020
2030
3020
2030
3000
,
0200
0000
0000
0000
0000
0000
0000
0000
0302
0000
2003
0000
3200
0320
2030
3002
,
0203
0000
0310
2000
,
3200
0000
0302
0023
0032
0000
0203
2300
,
0000
0000
0000
0000
0000
0000
0000
0000
0000
0000
0000
3000
0020
0000
0000
0000
,
0230
0000
0302
0000
0203
0000
0320
2030
,
0000
3000
0200
0000
0302
0000
0000
0000
0023
2030
3200
0300
0002
0000
2003
0000
,
3200
0000
0320
0000
0032
0003
0200
0000
0320
0000
2030
0000
3200
0000
0302
0000
,
0023
0230
2300
3020
0032
0000
0000
0000
,
0203
0000
0000
0000
0000
0000
0000
0000
0302
0023
2030
3200
0302
0023
0230
0000
,
0000
0000
0000
0302
0000
0000
0000
0000
0000
0000
0000
0000
0000
0000
0000
0003
0000
0000
0000
0000
0000
0000
0000
0000
1001
0000
0000
0000
0100
0000
0000
0000
0001
0000
0000
0000
0110
0000
0000
0000
1000
0000
0000
0000
0001
0000
0000
0000
,
0100
0010
1000
0101
0010
1000
0001
0100
0010
1100
0001
1000
,
0100
0010
1000
0101
0010
0100
0001
0010
0100
1010
0001
0100
,
0010
1000
0001
1100
0010
1000
0100
0001
0010
0101
1000
0010
,
0100
0001
1000
0110
0001
0100
1000
0010
0100
0011
1000
0010
,
0100
0001
0100
1010
0001
1000
0010
0100
0010
1001
0100
0010
,
0001
1000
0100
0011
0100
1000
0011
0110
1000
0100
0010
0001
,
1000
0000
0100
0000
0010
0000
0001
0000
1000
0000
0100
0000
0011
0000
0000
0000
0000
0000
0000
0000
0000
0100
0000
0000
,
0001
0010
0100
1000
0002
0000
0000
0000
,
0000
0000
0000
0003
0001
0000
0000
0000
0100
0000
0000
0000
0000
0000
0000
0000
,
0010
0000
0000
1000
0001
0000
0000
0001
,
0100
0010
2000
0000
0000
0000
3000
1000
,
0001
0010
0100
1000
0020
0000
0000
0000
,
0000
0000
0000
0030
0010
0000
0000
0000
0100
0000
0000
0000
0000
0000
0000
0000
,
0001
0000
0000
0010
2000
0000
0000
0000
,
0000
0000
0000
0000
0000
0000
3000
1000
,
0010
0100
0010
0001
0200
0000
0000
0000
,
0000
0000
0000
0300
0100
0000
0000
0000
1000
0000
0000
0000
0000
0000
0000
0000
,
0001
0000
0000
0010
0100
0000
0000
1000
,
0010
0100
0002
0000
0000
0000
0003
0001
,
1000
0010
0100
0001
0020
0000
0000
0000
,
0000
0000
0000
0030
0010
0000
0000
0000
0100
0000
0000
0000
0000
0000
0000
0000
,
0001
0000
0000
0100
0220
0000
0000
0000
,
0000
0000
0000
0330
,
0000
0000
0000
0000
,
0000
0000
0000
0000
0000
0000
0000
0011
,
1100
0000
0000
0000
0101
0000
0000
0000
1001
0100
0001
0010
0100
0010
0001
1000
,
0100
0010
0001
0010
0100
1000
0100
0001
0100
0010
0001
0010
0100
1000
0100
0010
,
0100
0001
0010
0100
0010
1000
0100
0010
0001
1000
0100
0010
0001
0100
0010
1000
,
0001
0100
0010
0001
0010
0100
1000
0001
0100
0001
1000
0001
0100
0010
0100
0001
,
0100
1000
0100
0010
0001
1000
0100
1000
0001
1000
0010
1000
0100
0001
0010
0100
,
1000
0001
0010
0100
1000
0001
0010
0100
0010
0001
1000
0100
0010
0100
0010
0001
,
1000
0100
0001
0010
0100
0010
1000
0001
1000
0001
0100
0010
0100
0001
0100
0010
,
1000
0010
1000
0100
0001
0100
0001
0010
1000
0001
1000
0001
0010
0100
1000
0100
,
0010
0001
0100
0010
1000
0001
0100
0010
0001
0010
0100
1000
0100
0001
1000
0001
,
0100
0001
0010
0001
0010
0100
0010
1000
0010
0100
0001
0010
1000
0100
0010
0001
,
0010
0100
1000
0010
0100
0001
0010
0100
1000
0100
0010
0100
0001
0010
0100
1000
,
0100
0001
0010
1000
0100
0010
0001
0010
0100
0001
1000
0100
0010
0001
1000
0001
,
0100
0010
1000
0010
1000
0100
0001
0100
0001
0010
1000
0010
1000
0100
0001
0010
,
0100
1000
0100
0010
0001
1000
0100
0010
0001
0010
0100
0010
1000
0100
0010
0100
,
0001
0100
0010
0100
1000
0100
0010
0100
1001
0010
0001
0010
1000
0100
1000
0100
,
0011
0100
0010
0100
1000
0001
1000
0001
0010
1000
0010
1000
0100
0010
0100
0001
,
1010
0000
0000
0000
1001
0010
0100
0010
0101
1000
0100
0010
0001
0010
0100
1000
,
0100
1000
0001
0010
0100
1000
0100
0010
0100
1000
0100
0010
0001
0010
0100
0010
,
0001
0010
0100
1000
0001
0100
0001
0010
0001
0100
0001
1000
0100
0010
0100
0001
,
1000
0100
0010
0100
1000
0010
0100
0010
0001
0100
0010
0100
1000
0001
0010
0100
,
1000
0010
0100
0001
0100
0010
0100
1000
0100
0010
0100
0001
0010
0001
0010
0001
,
1000
0100
0010
0001
0010
0100
0010
0001
0010
0001
1000
0100
1000
0010
1000
0100
,
0001
0010
0100
0010
0001
0100
0001
0100
0010
1000
0010
1000
0100
0001
0100
0001
,
0010
1000
0010
1000
0010
0100
1000
0100
0010
0001
0010
0100
0010
0001
0100
1000
,
0100
0010
0001
0010
0100
0010
1000
0100
0011
1000
0100
0010
0001
0010
0100
1000
,
0100
1000
0001
0010
0100
1000
0100
0010
0100
1000
0100
0010
0001
0010
0100
0010
,
0001
0010
0100
1000
0001
0100
0001
0010
0001
0100
0001
1000
0100
0010
0100
0001
,
1000
0100
0010
0001
0010
1000
0100
0010
0001
0100
0010
0100
1000
0001
0010
0100
,
1000
0010
0100
0001
0100
0010
0100
1000
0100
0010
0100
0001
0010
0001
0010
0001
,
1000
0100
0010
0001
0010
0100
0010
0001
0010
0001
1000
0100
1000
0010
1000
0100
,
0001
0010
0100
0010
0001
0100
0001
0100
1001
0010
0100
0010
0001
0010
0100
1000
,
0100
1000
0001
0010
0100
1000
0100
0010
0100
1000
0100
0010
0001
0010
0100
0010
,
0001
0010
0100
1000
0001
0100
0001
0010
0001
0100
0001
1000
0100
0010
0100
0001
,
1000
0010
0100
0001
0010
1000
0100
0010
0001
0100
0010
0100
1000
0001
0010
0100
,
1000
0010
0100
0001
0100
0010
0100
1000
0100
0010
0100
0001
0010
0001
0010
0001
,
1000
0100
0010
0001
0010
0100
0010
0001
0010
0001
1000
0100
1000
0010
1000
0100
,
0001
0010
0100
0010
0001
0100
0001
0100
0010
1000
0010
1000
0100
0010
0100
0010
,
0001
1000
0001
1000
0001
0100
1000
0100
0010
0001
1000
0100
0010
0001
0100
1000
,
0100
0010
0001
0010
0001
0100
1000
0100
1001
0010
0100
0010
0001
0010
0100
1000
,
0100
1000
0001
0010
0100
1000
0100
0010
0100
1000
0100
0010
0001
0010
0100
0010
,
0001
0010
0100
1000
0001
0100
0001
0010
0001
0100
0001
1000
0100
0010
0100
0001
,
1000
0010
0100
1000
0010
1000
0100
0010
0001
0100
0010
0100
1000
0001
0010
0100
,
1000
0010
0100
0001
0100
0010
0100
1000
0100
0010
0100
0001
0010
0001
0010
0001
,
1000
0100
0010
0001
0010
0100
0010
0001
0010
0001
1000
0100
1000
0010
1000
0100
,
0001
0010
0100
0010
0001
0100
0001
0100
0010
1000
0010
1000
0100
0001
0100
0001
,
0010
1000
0010
1000
0010
0100
1000
0100
0010
0001
1000
0100
0010
0001
0010
0100
,
1000
0100
0010
0001
0110
0000
0110
0000
1001
0000
0010
0000
1000
0000
0100
0000
,
0010
0100
0001
1000
0010
0100
0001
0100
,
1000
0001
1010
0110
0101
0010
1000
0010
,
0100
0001
1000
0010
0100
0001
1000
0100
,
1010
0001
1000
0100
0011
0100
1000
0001
,
0010
0100
0001
1000
0101
0010
0100
1000
,
0001
0010
0100
1000
0011
0100
0001
1000
,
0110
0001
1000
0100
0011
0100
0010
1000
,
0001
0100
0010
0100
1000
0001
0010
0100
,
1001
0110
1001
0110
2002
0000
0000
0000
,
0000
3003
0000
0000
0000
0000
0000
0000
;

//---------------dance-single - Challenge----------------
#NOTES:
     dance-single:
     Challenge:
     Challenge:
     13:
     1.000,1.000,1.000,0.352,1.000,2726.000,707.000,104.000,0.000,15.000:

2002
0000
0000
0000
,
0000
0000
0000
0000
,
0000
0000
0000
0000
,
3003
0000
0000
1100
0011
1010
0101
1100
,
1002
0000
0000
0000
0000
0000
0000
0000
0000
0000
0000
0003
0101
0000
0000
0000
,
1100
0000
0000
0000
0110
0000
0000
1010
,
0011
0000
0000
0011
1100
0110
2001
0000
,
0000
0000
3000
1010
0101
0011
1100
1010
,
0120
0000
0000
0000
0000
0000
0000
0000
0000
0000
0000
0030
0011
0000
0000
0000
,
0110
0000
0000
0000
1001
0000
0000
0011
,
2100
0000
0000
0000
,
0000
0000
3000
1001
1010
0110
1001
0011
,
1200
0000
0000
0000
0000
0000
0000
0000
0000
0000
0000
0300
1100
0000
0000
0000
,
1010
0000
0000
0000
1001
0000
0000
0011
,
0101
0000
0000
1100
0110
0101
1002
0000
,
0000
0000
0003
0011
1001
1010
0110
0101
,
1020
0000
0000
0000
0000
0000
0000
0000
0000
0000
0000
0030
0110
0000
0000
0000
,
0101
0000
0000
0000
1001
0000
0000
0110
,
0220
0000
0000
0000
,
0000
0000
0000
0000
0330
0000
1100
0010
0101
0000
0011
0000
1001
0000
0110
0000
,
1100
0010
0001
0010
0100
0010
0001
1000
0100
0010
0001
0010
0101
1000
0100
0001
,
1100
0010
0001
0010
1000
0010
0100
0010
0101
1000
0010
0100
0010
1000
0101
0010
,
1001
0010
0100
0010
1000
0100
0011
1000
0011
0100
1010
0001
1010
0100
1000
0001
,
0100
0001
1000
0001
1000
0010
1100
0001
0110
1000
0101
0010
0101
0010
1100
0010
,
1001
0100
0010
1000
0100
0010
1000
0100
1000
0001
0010
0100
1010
0001
0010
0100
,
0011
0100
1000
0100
0010
0100
0010
0001
1010
0100
0001
0010
1000
0010
1001
0010
,
1100
0001
1000
0100
0010
0001
0100
0010
1000
0010
1000
0100
0001
0100
0001
0010
,
1000
0001
1000
0001
1000
0100
1010
0001
0110
0001
1100
0010
1001
0010
0101
0010
,
1001
0010
0100
1000
0010
0001
1000
0001
0100
0001
0010
0001
1010
0100
0010
1000
,
0011
0100
0001
0010
1000
0100
0010
0001
1010
0100
1000
0010
0100
0001
1010
0100
,
1001
0100
0010
1000
0100
0001
0110
0001
1100
0001
0110
1000
0011
1000
0001
0010
,
0100
0001
1000
0100
0001
0100
1010
0001
1100
0010
1001
0010
1001
0100
0011
0100
,
1001
0010
1000
0010
1000
0100
0001
0010
0100
1000
0100
0010
0101
1000
0100
0010
,
1001
0010
0100
0001
0010
0100
0010
1000
0011
0100
0010
0001
1100
0011
1100
0011
,
1100
0010
0001
0010
1000
0100
1000
0100
0011
0100
0010
0100
1000
0001
1000
0001
,
0010
1000
0010
1000
0100
0010
0100
0001
0100
0000
0011
0000
1100
0000
0011
0000
,
1001
0100
0010
0001
0100
0001
1000
0010
,
0100
0000
0001
0000
0010
0000
0100
0000
1000
0000
0011
0100
1001
0000
0011
0000
,
0100
0010
0001
0100
0010
1000
0010
0100
,
0001
0010
0100
1010
0101
0010
1000
0100
,
0001
1000
0001
0100
1000
0010
0100
0001
,
0010
0000
0001
0000
0100
0000
1000
0000
0101
1000
0110
1000
0001
0010
1100
0010
,
0001
0010
1001
0100
0010
0001
1010
0001
0100
0010
1100
0010
0001
1000
0101
0010
,
0001
0010
1100
0010
1000
0001
1010
0001
0100
0010
1001
0100
0010
0001
1100
0001
,
1000
0010
0101
1000
0010
1000
0011
1000
0100
0001
1010
0100
1000
0001
0110
1000
,
0001
0010
0101
1000
0100
0010
1100
0010
0001
1000
0110
0001
1000
0001
0110
0001
,
1000
0100
0011
1000
0100
1000
0101
1000
0010
0001
1100
0010
0001
0100
1001
0100
,
0010
1000
0101
0010
1000
0001
1010
0001
0100
0010
1001
0100
0010
0001
1100
0010
,
1000
0010
0101
1000
0010
1000
0011
1000
0100
0001
1010
0100
1000
0001
0110
1000
,
0001
0010
1001
0010
0100
0010
1100
0001
0110
1000
0011
0100
1000
0001
0110
0001
,
1000
0100
0011
1000
0100
1000
0101
1000
0010
0001
1100
0010
0001
0100
1001
0100
,
0010
1000
0101
0010
1000
0001
1010
0001
0100
0010
1001
0100
0010
0001
1100
0010
,
1000
0010
0101
1000
0010
1000
0011
1000
0100
0001
1010
0100
1000
0001
0110
1000
,
0001
0010
1001
0010
0100
0010
0101
1000
0010
1000
0110
0001
1000
0001
0110
0001
,
1000
0100
0011
1000
0100
1000
0101
1000
0010
0001
1100
0010
0001
0100
1001
0100
,
0010
1000
0101
0010
1000
0001
1010
0001
0100
0010
1001
0100
0010
0001
1100
0010
,
1000
0000
0000
0010
0000
0000
0101
0000
0000
1000
0000
0000
0010
0000
0000
1000
0000
0000
0011
0000
0000
0100
0000
0000
1001
0000
0000
0000
0100
0000
0000
0000
0010
0000
0000
0000
0001
0000
0000
0000
0010
0000
0000
0000
0100
0000
0000
0000
,
1001
0000
0000
0000
0000
0000
0110
0000
0000
0000
0000
0000
0011
0000
0000
1100
0000
0000
0011
0000
0000
1100
0000
0000
0001
0000
0000
0000
0010
0000
0000
0000
1000
0000
0000
0000
0101
0000
0000
0000
0010
0000
0000
0000
0100
0000
0000
0000
,
0010
0001
0010
1001
0100
0010
1000
0100
1000
0011
0100
0010
,
0001
0010
0001
1100
0010
1000
0100
0010
0100
1010
0100
0010
,
0001
1000
0010
0101
0010
0100
0001
1000
0100
0011
1000
0010
,
0100
0001
1000
0110
0001
1000
0100
0010
0100
1001
0010
1000
,
0001
0100
1000
0011
0100
1000
0100
0010
1000
0011
0100
0001
,
1000
0100
0001
1010
0001
1000
0100
0010
1000
0110
1000
0001
,
0010
0000
0100
0000
0010
0000
1001
0000
0100
0000
0010
0000
1001
0000
0000
0000
0000
0000
0000
0000
0000
1100
0000
0000
,
0101
0000
0011
0100
1001
0000
0110
0000
1100
0010
0001
0010
0100
0010
0001
1000
,
0100
0010
0001
0010
0101
1000
0100
0001
1100
0010
0001
0010
1000
0010
0100
0010
,
0101
1000
0010
0100
0010
1000
0101
0010
1001
0010
0100
0010
1000
0100
0011
1000
,
0011
0100
1010
0001
1010
0100
1000
0001
0100
0001
1000
0001
1000
0010
1100
0001
,
0110
1000
0101
0010
0101
0010
1100
0010
1001
0100
0010
1000
0100
0010
1000
0100
,
1000
0001
0010
0100
1010
0001
0010
0100
0011
0100
1000
0100
0010
0100
0010
0001
,
1010
0100
0001
0010
1000
0010
1001
0010
1100
0001
1000
0100
0010
0001
0100
0010
,
1000
0010
1000
0100
0001
0100
0001
0010
1000
0001
1000
0001
1000
0100
1010
0001
,
0110
0001
1100
0010
1001
0010
0101
0010
1001
0010
0100
1000
0010
0001
1000
0001
,
0100
0001
0010
0001
1010
0100
0010
1000
0011
0100
0001
0010
1000
0100
0010
0001
,
1010
0100
1000
0010
0100
0001
1010
0100
1001
0100
0010
1000
0100
0001
0110
0001
,
1100
0001
0110
1000
0011
1000
0001
0010
0100
0001
1000
0100
0001
0100
1010
0001
,
1100
0010
1001
0010
1001
0100
0011
0100
1001
0010
1000
0010
1000
0100
0001
0010
,
0100
1000
0100
0010
0101
1000
0100
0010
1001
0010
0100
0001
0010
0100
0010
1000
,
0011
0100
0010
0001
0010
0100
1010
0000
1001
0010
0001
0010
1000
0100
1000
0100
,
0011
0100
0010
0100
1000
0001
1000
0001
0010
1000
0010
1000
0100
0010
0100
0001
,
1100
0010
0001
0010
0100
1000
0100
0010
1001
0000
0100
0000
0010
0000
0001
0000
,
1100
0001
1000
0010
0100
0001
0010
0100
,
1000
0000
0011
0000
1001
0100
0010
0001
0010
0100
0010
0001
1010
0000
0100
0000
,
0010
1000
0011
0100
0001
1010
0100
0010
,
0101
0010
1000
0100
0001
1000
0001
0100
,
1000
0010
0100
0001
0010
0001
0100
1000
,
0101
1000
0110
1000
0001
0010
1100
0010
0001
0010
1001
0100
0010
0001
1010
0100
,
0001
0010
1100
0010
0001
1000
0101
0010
0001
0010
1100
0010
1000
0001
1010
0001
,
0100
0010
1001
0100
0010
0001
1100
0001
1000
0010
0101
1000
0010
1000
0011
1000
,
0100
0001
1010
0100
1000
0001
0110
1000
0001
0010
0101
1000
0100
0010
1100
0010
,
0001
1000
0110
0001
1000
0001
0110
0001
1000
0100
0011
1000
0100
1000
0101
1000
,
0010
0001
1100
0010
0001
0100
1001
0100
0010
1000
0101
0010
1000
0001
1010
0001
,
0100
0010
1001
0100
0010
0001
1100
0010
1000
0010
0101
1000
0010
1000
0011
1000
,
0100
0001
1010
0100
1000
0001
0110
1000
0001
0010
1001
0010
0100
0010
1100
0001
,
0110
1000
0011
0100
1000
0001
0110
0001
1000
0100
0011
1000
0100
1000
0101
1000
,
0010
0001
1100
0010
0001
0100
1001
0100
0010
1000
0101
0010
1000
0001
1010
0001
,
0100
0010
1001
0100
0010
0001
1100
0010
1000
0010
0101
1000
0010
1000
0011
1000
,
0100
0001
1010
0100
1000
0001
0110
1000
0001
0010
1001
0010
0100
0010
0101
1000
,
0010
1000
0110
0001
1000
0001
0110
0001
1000
0100
0011
1000
0100
1000
0101
1000
,
0010
0001
1100
0010
0001
0100
1001
0100
0010
1000
0101
0010
1000
0001
1010
0001
,
0100
0010
1001
0100
0010
0001
1100
0010
1000
0010
0101
1000
0010
1000
0011
0100
,
1001
0000
0000
0000
0100
0000
0000
0000
0010
0000
0000
0000
1001
0000
0000
0110
0000
0000
1001
0000
0000
0110
0000
0000
1001
0000
0000
0000
0100
0000
0000
0000
0010
0000
0000
0000
0100
0000
0000
0000
1000
0000
0000
0000
0100
0000
0000
0000
,
0001
0010
1000
0101
0010
0100
0010
0001
0010
1001
0100
0010
,
1000
0100
1000
0011
0100
0010
0001
0010
0001
1100
0010
1000
,
0100
0010
0100
1010
0100
0010
0001
1000
0010
0101
0010
0100
,
0001
1000
0100
0011
1000
0010
0100
0001
1000
0110
0001
1000
,
0100
0010
0100
1001
0010
1000
0001
0100
1000
0011
0100
1000
,
0100
0010
1000
0011
0100
0001
1000
0100
0001
1010
0001
1000
,
0100
0010
1000
0010
1000
0001
1010
0100
0010
1000
0100
0010
,
1001
0000
0000
0000
0001
0010
0100
1000
0001
0010
0100
1000
0001
0010
0100
1000
,
0101
1000
0110
1000
0001
0010
1100
0010
0001
0010
1001
0100
0010
0001
1010
0100
,
0001
0010
1100
0010
0001
1000
0101
0010
0001
0010
1100
0010
1000
0001
1010
0001
,
0100
0010
1001
0100
0010
0001
1100
0001
1000
0010
0101
1000
0010
1000
0011
1000
,
0100
0001
1010
0100
1000
0001
0110
1000
0001
0010
0101
1000
0100
0010
1100
0010
,
0001
1000
0110
0001
1000
0001
0110
0001
1000
0100
0011
1000
0100
1000
0101
1000
,
0010
0001
1100
0010
0001
0100
1001
0100
0010
1000
0101
0010
1000
0001
1010
0001
,
0100
0010
1001
0100
0010
0001
1100
0010
1000
0010
0101
1000
0010
1000
0011
1000
,
0100
0001
1010
0100
1000
0001
0110
1000
0001
0010
1001
0010
0100
0010
1100
0001
,
0110
1000
0011
0100
1000
0001
0110
0001
1000
0100
0011
1000
0100
1000
0101
1000
,
0010
0001
1100
0010
0001
0100
1001
0100
0010
1000
0101
0010
1000
0001
1010
0001
,
0100
0010
1001
0100
0010
0001
1100
0010
1000
0010
0101
1000
0010
1000
0011
1000
,
0100
0001
1010
0100
1000
0001
0110
1000
0001
0010
1001
0010
0100
0010
0101
1000
,
0010
1000
0110
0001
1000
0001
0110
0001
1000
0100
0011
1000
0100
1000
0101
1000
,
0110
0001
1100
0010
0001
0100
1001
0100
0010
1000
0101
0010
1000
0001
1010
0001
,
0100
0010
1001
0100
0010
0001
1100
0010
1000
0010
0101
1000
0010
1000
0011
0100
,
1000
0100
0011
0100
1000
0100
0011
0100
1000
0100
0011
1000
0110
0000
0101
0000
,
1001
0010
1000
0001
0110
1000
0001
0100
,
0010
0000
1000
0000
0001
0000
0100
0000
0010
0000
0001
0000
1000
0100
0010
0001
,
0100
0010
0001
0010
1100
0000
0010
0000
1000
0000
0010
0000
0101
0000
0010
0000
,
0100
1001
0010
1000
0101
0010
1000
0001
,
0100
0010
1000
0010
0100
0001
0100
1000
,
0001
0010
0100
0001
1010
0000
0200
1000
,
0320
1000
0032
2013
3002
0013
0200
2301
,
0000
0010
0000
0100
0000
3001
0200
1000
,
0320
0100
0032
1203
0302
0100
0023
2031
,
0000
0100
3020
0001
0230
1000
0000
0010
,
0302
2003
3020
0230
0302
0000
0010
0000
2003
0000
0100
0000
3020
0000
1000
0000
,
0032
0000
0010
0000
0203
0000
0001
0000
2300
3020
2030
3020
2030
3020
2030
3000
,
0200
0000
0001
0000
0000
0000
1000
0000
0302
0000
2013
0000
3200
0320
2030
3002
,
0203
0010
0000
1000
0310
0001
2000
0010
,
3200
1000
0302
1023
0032
1000
0203
2310
,
0000
0000
0001
0000
0000
0000
0100
0000
0000
0000
0100
3000
0020
0000
1000
0000
,
0230
0010
0302
1000
0203
0001
0320
2031
,
0000
3000
0210
0000
0302
0000
1000
0000
0023
2030
3200
0300
0002
0000
2013
0000
,
3200
0000
1320
0000
0032
0003
1200
0000
0320
0000
2031
0000
3200
0000
1302
0000
,
0023
0231
2300
3120
0032
0100
0000
1000
,
0203
0000
0001
0000
0000
0000
1000
0000
0302
0023
2030
3200
0302
0023
1230
0000
,
0000
0000
0000
0302
0000
0000
0010
0000
0000
0000
0000
0000
0000
0000
0000
0003
0000
0000
0000
0000
0000
0000
0000
0000
1001
0000
0000
0000
0100
0000
0000
0000
0001
0000
0000
0000
0110
0000
0000
0000
1000
0000
0000
0000
0001
0000
0000
0000
,
0100
0010
1000
0101
0010
1000
0001
0100
0010
1100
0001
1000
,
0100
0010
1000
0101
0010
0100
0001
0010
0100
1010
0001
0100
,
0010
1000
0001
1100
0010
1000
0100
0001
0010
0101
1000
0010
,
0100
0001
1000
0110
0001
0100
1000
0010
0100
0011
1000
0010
,
0100
0001
0100
1010
0001
1000
0010
0100
0010
1001
0100
0010
,
0001
1000
0100
0011
0100
1000
0011
0110
1000
0100
0010
0001
,
1000
0000
0100
0000
0010
0000
0001
0000
1000
0000
0100
0000
0011
0000
0000
0000
0000
0000
0000
0000
0000
1100
0000
0000
,
0011
1010
0101
1100
1002
0000
0000
0000
,
0000
0000
0000
0003
0101
0000
0000
0000
1100
0000
0000
0000
0000
0000
0000
0000
,
0110
0000
0000
1010
0011
0000
0000
0011
,
1100
0110
2001
0000
0000
0000
3000
1010
,
0101
0011
1100
1010
0120
0000
0000
0000
,
0000
0000
0000
0030
0011
0000
0000
0000
0110
0000
0000
0000
0000
0000
0000
0000
,
1001
0000
0000
0011
2100
0000
0000
0000
,
0000
0000
0000
0000
0000
0000
3000
1001
,
1010
0110
1001
0011
1200
0000
0000
0000
,
0000
0000
0000
0300
1100
0000
0000
0000
1010
0000
0000
0000
0000
0000
0000
0000
,
1001
0000
0000
0011
0101
0000
0000
1100
,
0110
0101
1002
0000
0000
0000
0003
0011
,
1001
1010
0110
0101
1020
0000
0000
0000
,
0000
0000
0000
0030
0110
0000
0000
0000
0101
0000
0000
0000
0000
0000
0000
0000
,
1001
0000
0000
0110
0220
0000
0000
0000
,
0000
0000
0000
0330
,
0000
0000
0000
0000
,
0000
0000
0000
0000
0000
0000
0000
1100
,
0101
0000
0011
0000
1001
0000
0110
0000
1100
0010
0001
0010
0100
0010
0001
1000
,
0100
0010
0001
0010
0101
1000
0100
0001
1100
0010
0001
0010
1000
0010
0100
0010
,
0101
1000
0010
0100
0010
1000
0101
0010
1001
0010
0100
0010
1000
0100
0011
1000
,
0011
0100
1010
0001
1010
0100
1000
0001
0100
0001
1000
0001
1000
0010
1100
0001
,
0110
1000
0101
0010
0101
0010
1100
0010
1001
0100
0010
1000
0100
0010
1000
0100
,
1000
0001
0010
0100
1010
0001
0010
0100
0011
0100
1000
0100
0010
0100
0010
0001
,
1010
0100
0001
0010
1000
0010
1001
0010
1100
0001
1000
0100
0010
0001
0100
0010
,
1000
0010
1000
0100
0001
0100
0001
0010
1000
0001
1000
0001
1000
0100
1010
0001
,
0110
0001
1100
0010
1001
0010
0101
0010
1001
0010
0100
1000
0010
0001
1000
0001
,
0100
0001
0010
0001
1010
0100
0010
1000
0011
0100
0001
0010
1000
0100
0010
0001
,
1010
0100
1000
0010
0100
0001
1010
0100
1001
0100
0010
1000
0100
0001
0110
0001
,
1100
0001
0110
1000
0011
1000
0001
0010
0100
0001
1000
0100
0001
0100
1010
0001
,
1100
0010
1001
0010
1001
0100
0011
0100
1001
0010
1000
0010
1000
0100
0001
0010
,
0100
1000
0100
0010
0101
1000
0100
0010
1001
0010
0100
0001
0010
0100
0010
1000
,
0011
0100
0010
0001
1100
0010
0100
0010
1001
0010
0001
0010
1000
0100
1001
0100
,
0011
0100
0010
0100
1010
0001
0000
0001
0110
1000
0010
1000
0100
0010
0100
0001
,
1010
0000
0000
0000
1100
0011
1100
0011
1100
0001
0110
1000
0001
0010
1100
0010
,
0001
0010
1001
0100
0010
0001
1010
0001
0100
0010
1100
0010
0001
1000
0101
0010
,
0001
0010
1100
0010
1000
0001
1010
0001
0100
0010
1001
0100
0010
0001
1100
0001
,
1000
0010
0101
1000
0010
1000
0011
1000
0100
0001
1010
0100
1000
0001
0110
1000
,
0001
0010
0101
1000
0100
0010
1100
0010
0001
1000
0110
0001
1000
0001
0110
0001
,
1000
0100
0011
1000
0100
1000
0101
1000
0010
0001
1100
0010
0001
0100
1001
0100
,
0010
1000
0101
0010
1000
0001
1010
0001
0100
0010
1001
0100
0010
0001
1100
0010
,
1000
0010
0101
1000
0010
1000
0011
1000
0100
0001
1010
0100
1000
0001
0110
1000
,
0001
0010
1001
0010
0100
0010
1100
0001
0110
1000
0011
0100
1000
0001
0110
0001
,
1000
0100
0011
1000
0100
1000
0101
1000
0010
0001
1100
0010
0001
0100
1001
0100
,
0010
1000
0101
0010
1000
0001
1010
0001
0100
0010
1001
0100
0010
0001
1100
0010
,
1000
0010
0101
1000
0010
1000
0011
1000
0100
0001
1010
0100
1000
0001
0110
1000
,
0001
0010
1001
0010
0100
0010
0101
1000
0010
1000
0110
0001
1000
0001
0110
0001
,
1000
0100
0011
1000
0100
1000
0101
1000
0010
0001
1100
0010
0001
0100
1001
0100
,
0010
1000
0101
0010
1000
0001
1100
0010
0101
1000
0110
1000
0001
0010
1100
0010
,
0001
0010
1001
0100
0010
0001
1010
0001
0100
0010
1100
0010
0001
1000
0101
0010
,
0001
0010
1100
0010
1000
0001
1010
0001
0100
0010
1001
0100
0010
0001
1100
0001
,
1000
0010
0101
1000
0010
1000
0011
1000
0100
0001
1010
0100
1000
0001
0110
1000
,
0001
0010
0101
1000
0100
0010
1100
0010
0001
1000
0110
0001
1000
0001
0110
0001
,
1000
0100
0011
1000
0100
1000
0101
1000
0010
0001
1100
0010
0001
0100
1001
0100
,
0010
1000
0101
0010
1000
0001
1010
0001
0100
0010
1001
0100
0010
0001
1100
0010
,
1000
0010
0101
1000
0010
1000
0011
1000
0100
0001
1010
0100
1000
0001
0110
1000
,
0001
0010
1001
0010
0100
0010
1100
0001
0110
1000
0011
0100
1000
0001
0110
0001
,
1000
0100
0011
1000
0100
1000
0101
1000
0010
0001
1100
0010
0001
0100
1001
0100
,
0010
1000
0101
0010
1000
0001
1010
0001
0100
0010
1001
0100
0010
0001
1100
0010
,
1000
0010
0101
1000
0010
1000
0011
1000
0100
0001
1010
0100
1000
0001
0110
1000
,
0001
0010
1001
0010
0100
0010
0101
1000
0010
1000
0110
0001
1000
0001
0110
0001
,
1000
0100
0011
1000
0100
1000
0101
1000
0100
0001
1100
0010
0001
0100
1001
0100
,
0010
1000
0101
0010
1000
0001
1010
0001
0100
0010
1001
0100
0010
0001
1100
0010
,
1000
0010
0101
1000
0010
1000
0011
0100
1000
0100
0011
0100
1000
0100
0011
0100
,
1000
0100
0011
1000
0011
0000
0110
0000
1001
0000
0010
0000
1000
0000
0100
0000
,
0010
0100
0001
1000
0010
0100
0001
0100
,
1000
0001
1010
0110
0101
0010
1000
0010
,
0100
0001
1000
0010
0100
0001
1000
0100
,
1010
0100
0010
0100
1000
0100
0010
0001
0110
0000
0100
0000
1000
0000
0001
0000
,
0010
0100
0001
1000
0101
0010
0100
1000
,
0001
0010
0100
1000
0011
0100
0001
1000
,
0110
0001
1000
0100
0011
0100
0010
1000
,
0001
0100
0010
0100
1000
0001
0010
0100
,
1001
0110
1001
0110
2002
0000
0000
0000
,
0000
3003
0000
0000
0000
0000
0000
0000
;

//---------------dance-single - Edit----------------
#NOTES:
     dance-single:
     Edit:
     Edit:
     15:
     1.000,1.000,1.000,0.851,1.000,2866.000,859.000,251.000,0.000,172.000:





2002
0000
0000
0000
,
0000
0000
0000
0000
,
0000
0000
0000
0000
,
3003
0000
0000
1100
0011
0101
0110
1010
,
2200
0000
0000
0000
0000
0000
0000
0000
0000
0000
0000
3300
1100
0000
0000
0000
,
0101
0000
0000
0000
1001
0000
0000
0110
,
0011
0000
0000
0101
0110
1010
2002
0000
,
0000
0000
0000
0000
0000
3003
1001
0000
0110
0000
1010
0000
1100
0000
0101
0000
,
0022
0000
0000
0000
0000
0000
0000
0000
0000
0000
0000
0033
0011
0000
0000
0000
,
1010
0000
0000
0000
0110
0000
0000
0101
,
2020
0000
0000
0000
,
0000
0000
0000
0000
0000
3030
1010
0000
0110
0000
1100
0000
0110
0000
0011
0000
,
0220
0000
0000
0000
0000
0000
0000
0000
0000
0000
0000
0330
0110
0000
0000
0000
,
1010
0000
0000
0000
0101
0000
0000
0110
,
1100
0000
0000
0011
1010
0110
2002
0000
,
0000
0000
0000
0000
0000
3003
1001
0000
0011
0000
1010
0000
1100
0000
0110
0000
,
0202
0000
0000
0000
0000
0000
0000
0000
0000
0000
0000
0303
0101
0000
0000
0000
,
1001
0000
0000
0000
0110
0000
0000
1001
,
2202
0000
0000
0000
,
0000
0000
0000
3303
0000
0000
0110
1000
0111
0000
1010
0000
1101
0000
0011
0000
,
1101
0010
0100
1000
0011
1000
0100
1000
0001
0100
0010
0001
1110
0001
0010
1000
,
0101
1000
0100
1000
0011
1000
0100
0001
0110
0001
0100
0001
1010
0001
0110
1000
,
0011
0100
0010
0001
1100
0001
1010
0001
0110
1000
0101
0010
1101
0010
0100
1000
,
0100
0010
0001
0010
0101
0010
1100
0001
0110
1000
0011
1000
0111
1000
0101
1000
,
0110
0001
0010
0001
1100
0010
0100
1000
0100
0010
0100
0001
1110
0001
1000
0010
,
0101
1000
0100
1000
0011
0100
0010
1000
0110
0001
0010
1000
0101
0010
1100
0001
,
1010
0001
0010
1000
0101
1000
0100
0010
0100
1000
0001
0100
1010
0100
0010
0001
,
0010
0100
1000
0001
0110
1000
0011
1000
0110
0001
1100
0010
1101
0010
1001
0100
,
1011
0100
0010
0001
0110
1000
0100
0010
0100
0001
0010
0100
1011
0100
0010
0001
,
1010
0100
0010
0001
1100
0010
0100
0001
1010
0100
0010
1000
0101
1000
0011
0100
,
1001
0010
0100
0001
1010
0100
0011
1000
0110
1000
0101
0010
1101
0010
0100
0010
,
0001
0010
0100
1000
0110
0001
1010
0001
1100
0010
0101
0010
1101
0010
1001
0100
,
1010
0100
0010
0001
1100
0001
0010
0100
1000
0100
0010
0001
1110
0001
0010
0100
,
0011
0100
0010
0100
1001
0010
0100
1000
0110
0001
0010
1000
0100
0010
0010
0010
,
0011
1000
0100
0010
0001
0010
0100
1000
0011
1000
0100
0010
0001
1000
0100
0010
,
0001
0010
0100
0010
1000
0010
0100
0010
0001
0010
1100
0000
1100
0000
1100
0000
,
1011
2000
3020
0032
2003
3020
0032
2003
,
3020
0230
2300
3002
0023
2131
3211
0321
,
0230
0302
2003
3200
0320
0032
0023
2030
,
3002
0000
0203
0000
0320
0000
2030
0001
3210
0000
0302
0000
0023
0000
0230
0000
,
0320
2030
3200
0302
2003
3200
0320
0230
,
0320
0000
0032
0000
2003
0000
3002
0000
1113
0001
0110
1000
0100
0010
0101
0010
,
0100
1000
0110
1000
0001
0100
1001
0010
0001
0100
1010
0100
0010
0001
0110
0001
,
0010
1000
0101
0010
1000
0100
0011
0100
1000
0001
0110
1000
0001
0010
1100
0001
,
0010
0100
1010
0001
0010
0100
1001
0100
0010
0001
0110
1000
0100
0010
0101
1000
,
0100
0010
1001
0010
0100
0010
1100
0010
0001
1000
0110
0001
0010
0100
1010
0100
,
0010
0001
1100
0010
0001
1000
0101
0010
0100
1000
0011
0100
1000
0001
1010
0100
,
0010
0001
1010
0100
0010
0001
0110
1000
0001
0010
0101
1000
0100
0001
1010
0100
,
0001
0010
1100
0001
0010
0100
0011
1000
0100
0001
0110
1000
0001
0010
1001
0100
,
0010
0001
0110
1000
0100
0001
1100
0010
1101
0010
0001
0010
1000
0100
0011
0100
,
0001
1000
0101
0010
0001
0100
1010
0001
0100
0010
0101
1000
0100
0010
1001
0010
,
0100
0010
1100
0001
0010
0100
1010
0100
0010
0001
0110
1000
0001
0010
1100
0010
,
0001
0100
1010
0100
0001
0010
0101
1000
0010
1000
0011
1000
0100
1000
0011
1000
,
0100
0001
0110
1000
0010
0100
0011
1000
0010
0100
1001
0010
0001
0100
0011
1000
,
0100
0001
1010
0100
0010
0001
1010
0100
0010
0001
1010
0100
0010
0001
1010
0100
,
0010
0001
1010
0100
1000
0010
0101
0010
1000
0010
0101
0010
1000
0010
0101
0010
,
1000
0000
0000
0100
0000
0000
1001
0000
0000
0010
0000
0000
1000
0000
0000
0100
0000
0000
1010
0000
0000
0001
0000
0000
0110
0000
0000
0000
1000
0000
0000
0000
0100
0000
0000
0000
0010
0000
0000
0000
0001
0000
0000
0000
0100
0000
0000
0000
,
0011
0000
0000
0000
0100
0000
0000
0000
0000
0001
0000
0000
0001
0000
0000
0001
0000
0000
0001
0000
0000
0001
0000
0000
0111
0000
0000
0000
1000
0000
0000
0000
0100
0000
0000
0000
1011
0000
0000
0000
0100
0000
0000
0000
0010
0000
0000
0000
,
0001
0010
0001
1110
0001
1000
0100
0001
0010
1101
0010
0001
,
1000
0010
0100
1011
0100
0001
0010
1000
0001
1110
0001
1000
,
0002
0010
0100
1110
0013
0001
0010
1000
0100
1011
0100
0010
,
0001
0010
1000
0111
1000
0001
0010
0001
0010
1101
0010
0100
,
1000
0100
1000
0111
1000
0010
0100
0010
0100
1011
0100
0001
,
1000
0001
1000
0111
1000
0100
0001
0100
0010
1101
0010
0100
,
0001
0000
0000
0000
1000
0000
0000
0000
0100
0000
0000
0000
1011
0000
0000
0000
0100
0000
0000
0000
0010
0000
0000
0000
1101
0000
0000
0000
0000
0000
0000
0000
0000
0000
0000
0000
0000
0000
0000
0000
0000
0000
0110
0000
0000
1000
0000
0000
,
0111
0000
1010
0000
1101
0000
0011
0000
1101
0010
0100
1000
0011
1000
0100
1000
,
0001
0100
0010
0001
1110
0001
0010
1000
0101
1000
0100
1000
0011
1000
0100
0001
,
0110
0001
0100
0001
1010
0001
0110
1000
0011
0100
0010
0001
1100
0001
1010
0001
,
0110
1000
0101
0010
1101
0010
0100
1000
0100
0010
0001
0010
0101
0010
1100
0001
,
0110
1000
0011
1000
0111
1000
0101
1000
0110
0001
0010
0001
1100
0010
0100
1000
,
0100
0010
0100
0001
1110
0001
1000
0010
0101
1000
0100
1000
0011
0100
0010
1000
,
0110
0001
0010
1000
0101
0010
1100
0001
1010
0001
0010
1000
0101
1000
0100
0010
,
0100
1000
0001
0100
1010
0100
0010
0001
0010
0100
1000
0001
0110
1000
0011
1000
,
0111
0001
0011
0001
1101
0001
0011
0001
1011
0100
0010
0001
0110
1000
0100
0010
,
0100
0001
0010
0100
1011
0100
0010
0001
1010
0100
0010
0001
1100
0010
0100
0001
,
1010
0100
0010
1000
0101
1000
0011
0100
1001
0010
0100
0001
1010
0100
0011
1000
,
0110
1000
0101
0010
1101
0010
0100
0010
0001
0010
0100
1000
0110
0001
1010
0001
,
1100
0010
0101
0010
1101
0010
1001
0100
1010
0100
0010
0001
1100
0001
0010
0100
,
1000
0100
0010
0001
1110
0001
0010
0100
0011
0100
0010
0100
1001
0010
0100
1000
,
0110
0001
0010
1000
0010
0100
1010
0100
0011
1000
0100
0010
0001
0010
0100
1000
,
0011
1000
0100
0010
0001
1000
0100
0010
0001
0010
0100
0010
1000
0010
0100
0010
,
0101
0010
0000
0010
0100
1000
0100
0010
1101
0000
2000
0000
3020
0000
0032
0000
,
2113
3020
0032
2003
3020
0230
2300
3002
,
0023
0000
2030
0000
3200
0010
2301
0010
3200
0010
0302
0010
2103
0000
3200
0000
,
0320
0032
0123
2030
3002
1203
0320
2030
,
3210
0302
0023
0230
0320
2030
3200
0302
,
2003
3200
0320
0230
0320
0032
2003
3002
,
1113
0001
0110
1000
0100
0010
0101
0010
0100
1000
0110
1000
0001
0100
1001
0010
,
0001
0100
1010
0100
0010
0001
0110
0001
0010
1000
0101
0010
1000
0100
0011
0100
,
1000
0001
0110
1000
0001
0010
1100
0001
0010
0100
1010
0001
0010
0100
1001
0100
,
0010
0001
0110
1000
0100
0010
0101
1000
0100
0010
1001
0010
0100
0010
1100
0010
,
0001
1000
0110
0001
0010
0100
1010
0100
0010
0001
1100
0010
0001
1000
0101
0010
,
0100
1000
0011
0100
1000
0001
1010
0100
0010
0001
1010
0100
0010
0001
0110
1000
,
0001
0010
0101
1000
0100
0001
1010
0100
0001
0010
1100
0001
0010
0100
0011
1000
,
0100
0001
0110
1000
0001
0010
1001
0100
0010
0001
0110
1000
0100
0001
1100
0010
,
1101
0010
0001
0010
1000
0100
0011
0100
0001
1000
0101
0010
0001
0100
1010
0001
,
0100
0010
0101
1000
0100
0010
1001
0010
0100
0010
1100
0001
0010
0100
1010
0100
,
0010
0001
0110
1000
0001
0010
1100
0010
0001
0100
1010
0100
0001
0010
0101
1000
,
0010
1000
0011
1000
0100
1000
0011
1000
0100
0001
0110
1000
0010
0100
0011
1000
,
0010
0100
1001
0010
0001
0100
0011
1000
0100
0001
1010
0100
0010
0001
1010
0100
,
0010
0001
1010
0100
0010
0001
1010
0100
0010
0001
1010
0100
1000
0010
0101
0010
,
1000
0010
0101
0010
1000
0010
0101
0010
1000
0100
1001
0010
1000
0100
1010
0001
,
0110
0000
0000
0000
1000
0000
0000
0000
0100
0000
0000
0000
0011
0000
0000
0001
0000
0000
0001
0000
0000
0001
0000
0000
0011
0000
0000
0000
0100
0000
0000
0000
1000
0000
0000
0000
0100
0000
0000
0000
0001
0000
0000
0000
1000
0000
0000
0000
,
0111
1000
0100
1011
0100
0010
0001
0010
0001
1110
0001
1000
,
0100
0001
0010
1101
0010
0001
1000
0010
0100
1011
0100
0001
,
0010
1000
0001
1110
0001
0100
2000
0010
0001
0111
3010
0001
,
0010
1000
0100
1011
0100
0010
0001
0010
1000
0111
1000
0001
,
0010
0001
0010
1101
0010
0100
1000
0100
1000
0111
1000
0010
,
0100
0010
0100
1011
0100
0001
1000
0001
1000
0111
1000
0100
,
0001
0100
0010
0001
0010
0100
1011
0100
1000
0010
0100
0001
,
1110
0000
0000
0000
0100
0100
0100
0100
0110
0010
0010
0010
0011
0001
0001
0001
,
1110
0001
0110
1000
0100
0010
0101
0010
0100
1000
0110
1000
0001
0100
1001
0010
,
0001
0100
1010
0100
0010
0001
0110
0001
0010
1000
0101
0010
1000
0100
0011
0100
,
1000
0001
0110
1000
0001
0010
1100
0001
0010
0100
1010
0001
0010
0100
1001
0100
,
0010
0001
0110
1000
0100
0010
0101
1000
0100
0010
1001
0010
0100
0010
1100
0010
,
0001
1000
0110
0001
0010
0100
1010
0100
0010
0001
1100
0010
0001
1000
0101
0010
,
0100
1000
0011
0100
1000
0001
1010
0100
0010
0001
1010
0100
0010
0001
0110
1000
,
0001
0010
0101
1000
0100
0001
1010
0100
0001
0010
1100
0001
0010
0100
0011
1000
,
0100
0001
0110
1000
0001
0010
1001
0100
0010
0001
0110
1000
0100
0001
1100
0010
,
1101
0010
0001
0010
1000
0100
0011
0100
0001
1000
0101
0010
0001
0100
1010
0001
,
0100
0010
0101
1000
0100
0010
1001
0010
0100
0010
1100
0001
0010
0100
1010
0100
,
0010
0001
0110
1000
0001
0010
1100
0010
0001
0100
1010
0100
0001
0010
0101
1000
,
0010
1000
0011
1000
0100
1000
0011
1000
0100
0001
0110
1000
0010
0100
0011
1000
,
0010
0100
1001
0010
0001
0100
0011
1000
0100
0001
1010
0100
0010
0001
1010
0100
,
1010
0001
1010
0100
0010
0001
1010
0100
0010
0001
1010
0100
1000
0010
0101
0010
,
1000
0010
0101
0010
1000
0010
0101
0010
1000
0100
1001
0010
1000
0100
1010
0001
,
0100
0010
1001
0100
0010
0001
0110
1000
0100
0001
1010
0100
0011
0000
0011
0000
,
1011
2000
3020
0032
2113
3020
0032
2003
,
3020
0000
0230
0000
2300
0000
3002
0000
0023
0000
2030
0000
3200
0010
2301
0010
,
3200
0010
0302
0010
2103
0000
3200
0000
0320
0000
0032
0000
0123
0000
2030
0000
,
3002
1203
0320
2030
3210
0302
0023
0230
,
0320
2030
3200
0302
2003
3200
0320
0230
,
0320
0000
0032
0000
2003
0000
3002
0000
1113
0001
0110
1000
0011
1000
0101
0010
,
1100
0010
1100
0010
1001
0010
1100
0001
0110
1000
0110
1000
0011
0100
1001
0010
,
0100
1000
0101
1000
0100
0010
1001
0010
0100
1000
0110
0001
1100
0010
0101
0010
,
1001
0010
0101
1000
0101
0010
1100
0010
1001
0100
0011
1000
0110
0001
1010
0100
,
0010
0001
1100
0001
0110
1000
0101
0010
1100
0010
0101
0010
0100
1000
0110
1000
,
0011
0110
1100
0110
0011
0100
1010
0001
0110
1000
0110
0001
0100
0010
1001
0010
,
0101
0010
0101
1000
0110
0001
1010
0001
0110
0001
1010
0001
1100
0001
0110
1000
,
0010
1100
0011
0100
0010
0001
0110
1000
0011
0100
1010
0100
0011
1100
0101
0010
,
1100
0001
0110
0001
0010
0100
0011
0100
1011
0100
0011
1000
0100
0001
1010
0100
,
0011
1000
0110
0001
1010
0100
0011
1000
0110
0001
1100
0001
1010
0001
1100
0010
,
0100
1000
0011
0100
1000
0010
0101
0010
0100
1000
0110
0001
1010
0001
1100
0010
,
1001
0100
1010
0100
1001
0100
0011
1000
0110
1000
0101
0010
1001
0010
1100
0001
,
0010
1000
0101
1000
0110
0001
1100
0001
1010
0101
1010
0101
1010
0001
1100
0010
,
0101
1000
0011
0100
1010
0100
1001
0010
1100
0001
0110
0001
1010
0100
1001
0010
,
1100
0001
1010
0001
0110
1000
0011
0100
1010
0001
1100
0010
0001
0100
1010
0001
,
1100
0010
0101
1000
0010
0001
0110
0000
1100
0011
1100
0001
0110
1000
0011
0100
,
1010
0000
0100
0011
1000
0000
0100
0000
0010
0000
1000
0000
0111
0000
1000
0000
0100
0000
1011
0000
0100
0000
0010
0000
,
0001
0010
0001
1110
0001
1000
0100
0001
0010
1101
0010
0001
,
1000
0010
0100
1011
0100
0001
0010
1000
0001
1110
0001
1000
,
0002
0010
0100
1110
0013
0001
0010
1000
0100
1011
0100
0010
,
0001
0010
1000
0111
1000
0001
0010
0001
0010
1101
0010
0100
,
1000
0100
1000
0111
1000
0010
0100
0010
0100
1011
0100
0001
,
1000
0001
1000
0111
1000
0100
1101
1011
0100
0010
0001
0010
,
0100
0000
1000
0000
0100
0000
1000
0000
0100
0000
0010
0000
1101
0000
0000
0000
0000
0000
0000
0000
0000
1100
0000
0000
,
0011
0101
0110
1010
2200
0000
0000
0000
,
0000
0000
0000
3300
1100
0000
0000
0000
0101
0000
0000
0000
0000
0000
0000
0000
,
1001
0000
0000
0110
0011
0000
0000
0101
,
0110
0000
1010
0000
2002
0000
0000
0000
0000
0000
0000
0000
0000
3003
1001
0000
,
0110
1010
1100
0101
0022
0000
0000
0000
,
0000
0000
0000
0033
0011
0000
0000
0000
1010
0000
0000
0000
0000
0000
0000
0000
,
0110
0000
0000
0101
2020
0000
0000
0000
,
0000
0000
0000
0000
0000
0000
0000
0000
0000
0000
0000
0000
0000
3030
1010
0000
,
0110
1100
0110
0011
0220
0000
0000
0000
,
0000
0000
0000
0330
0110
0000
0000
0000
1010
0000
0000
0000
0000
0000
0000
0000
,
0101
0000
0000
0110
1100
0000
0000
0011
,
1010
0000
0110
0000
2002
0000
0000
0000
0000
0000
0000
0000
0000
3003
1001
0000
,
0011
1010
1100
0110
0202
0000
0000
0000
,
0000
0000
0000
0303
0101
0000
0000
0000
1001
0000
0000
0000
0000
0000
0000
0000
,
0110
0000
0000
1001
2202
0000
0000
0000
,
0000
0000
0000
0000
,
0000
0000
0000
0000
0000
3303
0000
0000
,
0000
0000
0000
0000
0000
0000
0000
0000
0000
0000
0000
0000
0000
0000
0011
0100
,
1011
0000
1001
0000
1101
0000
0011
0000
1111
0010
0100
1000
0111
1000
0100
1000
,
0010
0100
0010
0001
1110
0001
0010
1000
0101
1000
0100
1000
0111
1000
0100
0001
,
1010
0001
0100
0001
1110
0001
0110
1000
0011
0100
0010
0001
1110
0001
1010
0001
,
0110
1000
0101
0010
1101
0010
0100
1000
0100
0010
0001
0010
1101
0010
1100
0001
,
0110
1000
0011
1000
0111
1000
0101
1000
0110
0001
0010
0001
1110
0001
0100
1000
,
0100
0010
0100
0001
1110
0001
1000
0010
0101
1000
0100
1000
0111
1000
0010
1000
,
0110
0001
1000
0010
1101
0010
1100
0001
1010
0001
0010
1000
0111
1000
0100
0010
,
0100
1000
0001
0100
1011
0100
0010
0001
0010
0100
1000
0001
1110
0001
0110
1000
,
0110
0001
1100
0010
1101
0010
1001
0100
1011
0100
0010
1000
0111
1000
0100
0010
,
0100
0001
0010
0100
1011
0100
0010
0001
1010
0100
0010
0001
1110
0001
0100
0001
,
1010
0100
0010
1000
0111
1000
0011
0100
1001
0010
0100
0001
1110
0001
1010
0001
,
0110
1000
0101
0010
1101
0010
0100
0010
0001
0010
0100
0001
1110
0001
1010
0001
,
1100
0010
0101
0010
1101
0010
1001
0100
1010
0100
0010
0100
1011
0100
0010
0100
,
1000
0100
0010
0001
1110
0001
0010
0100
0011
0100
0010
0100
1011
0100
0010
1000
,
0110
0001
1000
0010
1101
0010
0100
1000
0111
1000
0100
0010
0001
0010
1100
0001
,
1110
0001
1000
0010
0101
1000
0100
0010
1001
0010
0100
0010
1000
0010
0100
0010
,
1101
0010
0001
0100
1011
0001
0001
0001
1101
0010
0101
1000
0100
0010
0101
0010
,
0100
1000
0110
1000
0001
0100
1001
0010
0001
0100
1010
0100
0010
0001
0110
0001
,
0010
1000
0101
0010
1000
0100
0011
0100
1000
0001
0110
1000
0001
0010
1100
0001
,
0010
0100
1010
0001
0010
0100
1001
0100
0010
0001
0110
1000
0100
0010
0101
1000
,
0100
0010
1001
0010
0100
0010
1100
0010
0001
1000
0110
0001
0010
0100
1010
0100
,
0010
0001
1100
0010
0001
1000
0101
0010
0100
1000
0011
0100
1000
0001
1010
0100
,
0010
0001
1010
0100
0010
0001
0110
1000
0001
0010
0101
1000
0100
0001
1010
0100
,
0001
0010
1100
0001
0010
0100
0011
1000
0100
0001
0110
1000
0001
0010
1001
0100
,
0010
0001
0110
1000
0100
0001
1100
0010
1101
0010
0001
0010
1000
0100
0011
0100
,
0001
1000
0101
0010
0001
0100
1010
0001
0100
0010
0101
1000
0100
0010
1001
0010
,
0100
0010
1100
0001
0010
0100
1010
0100
0010
0001
0110
1000
0001
0010
1100
0010
,
0001
0100
1010
0100
0001
0010
0101
1000
0010
1000
0011
1000
0100
1000
0011
1000
,
0100
0001
0110
1000
0010
0100
0011
1000
0010
0100
1001
0010
0001
0100
0011
1000
,
0100
0001
1010
0100
0010
0001
1010
0100
1010
0001
1010
0100
0010
0001
1010
0100
,
0010
0001
1010
0100
1000
0010
0101
0010
1101
0010
0101
1000
0100
0010
0101
0010
,
0100
1000
0110
1000
0001
0100
1001
0010
0001
0100
1010
0100
0010
0001
0110
0001
,
0010
1000
0101
0010
1000
0100
0011
0100
1000
0001
0110
1000
0001
0010
1100
0001
,
0010
0100
1010
0001
0010
0100
1001
0100
0010
0001
0110
1000
0100
0010
0101
1000
,
0100
0010
1001
0010
0100
0010
1100
0010
0001
1000
0110
0001
0010
0100
1010
0100
,
0010
0001
1100
0010
0001
1000
0101
0010
0100
1000
0011
0100
1000
0001
1010
0100
,
0010
0001
1010
0100
0010
0001
0110
1000
0001
0010
0101
1000
0100
0001
1010
0100
,
0001
0010
1100
0001
0010
0100
0011
1000
0100
0001
0110
1000
0001
0010
1001
0100
,
0010
0001
0110
1000
0100
0001
1100
0010
1101
0010
0001
0010
1000
0100
0011
0100
,
0001
1000
0101
0010
0001
0100
1010
0001
0100
0010
0101
1000
0100
0010
1001
0010
,
0100
0010
1100
0001
0010
0100
1010
0100
0010
0001
0110
1000
0001
0010
1100
0010
,
0001
0100
1010
0100
0001
0010
0101
1000
0010
1000
0011
1000
0100
1000
0011
1000
,
0100
0001
0110
1000
0010
0100
0011
1000
0010
0100
1001
0010
0001
0100
0011
1000
,
0100
0001
1010
0100
0010
0001
1010
0100
1010
0001
1010
0100
0010
0001
1010
0100
,
0010
0001
1010
0100
1000
0010
0101
0010
1000
0010
0101
0010
1000
0010
0101
0010
,
1000
0100
1001
0010
1000
0100
1010
0001
0100
0010
1001
0100
0010
0001
0110
1000
,
0100
0001
1010
0100
0011
0000
0011
0000
1101
0000
0020
0000
1132
0000
0203
0000
,
2300
3002
0203
0320
2030
3200
0302
0023
,
0230
0000
2300
0010
3102
1000
0123
0000
0231
0000
2300
0000
3002
0000
0203
0000
,
0320
2030
3002
0203
0320
0032
0203
0320
,
2130
0010
3102
0010
2103
0010
3200
0010
2301
0000
3002
0000
0023
0000
1230
0000
,
1302
0023
2130
3012
1203
0321
2131
3210
,
1302
0123
1230
2301
3211
2300
3002
0023
,
1132
0203
0320
2030
3112
0203
0320
0230
,
2300
3002
0203
0320
0230
2300
3002
0203
,
2322
3033
2022
3033
2220
3330
2220
3330
2222
0000
0000
0000
0000
0000
0000
0000
,
0000
3333
0000
0000
;
