#TITLE:You;
#SUBTITLE:;
#ARTIST:Imil;
#TITLETRANSLIT:;
#SUBTITLETRANSLIT:;
#ARTISTTRANSLIT:;
#CREDIT:Tyler;
#BANNER:You bn.png;
#BACKGROUND:You bg.png;
#LYRICSPATH:;
#CDTITLE:;
#MUSIC:You.ogg;
#OFFSET:-0.025;
#SAMPLESTART:67.230;
#SAMPLELENGTH:11.000;
#SELECTABLE:YES;
#DISPLAYBPM:175.000;
#BPMS:0.000=175.000,66.000=10.300,66.063=175.000;
#STOPS:;
#BGCHANGES:;
// cache tags:
#FIRSTBEAT:4.000;
#LASTBEAT:356.000;
#SONGFILENAME:Songs/SPEEEDCOOOORE 2/You - [Tyler]/You.sm;
#HASMUSIC:1;
#HASBANNER:1;
#MUSICLENGTH:124.839;
// end cache tags

//---------------dance-single - T. Moore----------------
#NOTES:
     dance-single:
     T. Moore:
     Challenge:
     13:
     1.000,1.000,0.777,0.409,1.000,819.000,97.000,51.000,14.000,0.000:
0000
0000
0000
0000
,
1001
1000
0020
1000
,
0000
0100
0000
0130
,
0000
0001
2000
3004
,
1003
0000
0001
0000
0001
0000
0100
0000
0001
0000
0100
0000
0010
0000
1000
0001
,
0400
0000
0320
1000
,
0000
0100
0000
0130
,
0000
0001
2000
3400
,
0310
0000
0001
0000
0001
0000
1000
0000
0001
0000
0100
0000
0010
0000
1000
0001
,
0010
0110
1100
1001
,
0101
0000
1010
0000
1100
0000
0011
0011
,
1001
0101
1010
0110
,
2002
3003
2200
3300
0022
0033
2002
3003
,
0110
1010
0101
1001
,
1100
0000
0000
0000
0011
0000
0000
0000
1010
0000
0000
0110
0000
0000
0101
0000
,
1001
1100
0011
0110
,
10M1
0000
0000
0000
0000
0000
0000
0000
M00M
0000
0000
0000
0001
1000
0100
0010
,
0001
0010
0100
1000
0001
0100
0010
1000
0001
0010
0100
1000
0002
0003
4400
0000
,
3320
0030
4400
0000
3302
0003
0000
0000
1000
0000
1000
0000
0001
0100
0010
1000
,
0001
1000
0010
0100
0001
1000
0100
1000
0001
0010
0100
1000
0001
0000
0001
0000
,
0101
0000
0100
0000
0110
0000
0010
0000
2010
0000
3000
0000
0001
1000
0010
0100
,
0001
1000
0100
1000
0001
0100
0010
1000
0100
1000
0001
0100
0010
1000
0010
1000
,
0001
0000
0000
0010
0000
0000
0001
0000
0000
0010
0000
0000
0100
0000
1000
0000
0100
0000
1000
0000
0000
0001
0000
0000
0100
0000
0001
0000
0100
0000
0001
0000
0000
0100
0000
0000
0010
0000
0000
1000
0000
0000
0001
0000
0000
1000
0000
0000
,
0010
0100
0001
1000
0100
0010
0001
0010
0100
1000
0001
0010
0400
0000
0000
0000
,
0000
0000
0000
0300
2002
0000
3M03
0000
M00M
0000
0000
0000
1000
0100
0010
0001
,
1000
0000
0000
0001
0000
0000
0010
0000
0000
0100
0000
0000
1000
0000
0000
0001
0000
0000
0100
0000
0000
0010
0000
0000
1000
0000
0000
0001
0000
0000
1000
0000
0100
0000
1000
0000
0100
0000
0000
0010
0000
0000
0001
0000
0000
0010
0000
0000
,
0100
0000
0000
1000
0000
0000
0001
0000
0000
0100
0000
0000
0010
0000
0000
1000
0000
0000
0001
0000
0000
1000
0000
0000
0100
0000
0000
0010
0000
0000
0001
0000
0100
0000
0001
0000
0100
0000
0000
0001
0000
0000
1000
0000
0000
0100
0000
0000
,
1000
0010
0100
0001
0010
0001
1000
0001
0100
0010
1000
0001
0010
0000
0100
0000
,
0110
0000
0000
0000
0000
0000
0010
0000
0000
0000
0000
0000
0012
0000
0000
0000
0000
0000
0003
0000
0000
0000
0000
0000
1000
0000
0001
0000
1000
0000
0001
0000
1000
0000
0001
0000
1000
0000
0000
0010
0000
0000
0100
0000
0000
0001
0000
0000
,
1000
0100
1000
0001
0100
0010
1000
0100
0010
0100
1000
0001
0100
0001
1000
0100
,
0010
0001
1000
0001
0010
0100
1000
0010
0200
0000
0300
0000
0001
0100
0010
1000
,
0100
1000
0001
0010
0100
1000
0100
0010
0001
1000
0001
0100
0020
0000
0030
0000
,
1000
1000
0001
1000
0001
1000
2200
3300
,
0000
0000
1000
0000
0100
0000
0000
0010
0000
0000
0001
0000
0000
0000
0100
0000
,
0000
0001
0100
0010
1000
0000
0000
0100
,
0000
0000
1000
0000
0100
0000
0000
0010
0000
0000
0001
0000
0000
0000
1000
0000
,
0000
0001
1000
0010
0100
0000
0000
0001
,
0000
0000
0100
0000
0001
0000
0000
0010
0000
0000
0100
0000
0000
0000
1000
0000
,
0000
0100
1000
0010
0100
0000
0000
0001
,
0000
0000
0100
0000
0001
0000
0000
0010
0000
0000
0100
0000
0000
0000
1000
0000
,
0000
0000
0000
0000
0100
0000
0000
0000
1000
0000
0000
0000
0001
0000
0000
0000
0400
0000
0000
0000
0000
0300
0000
0000
M101
0000
0000
0000
0000
0000
0000
0000
,
1010
0000
1000
0010
0100
0000
0001
0000
1000
0000
0001
1000
0100
0000
0010
0000
,
0011
0000
0001
0000
0000
0000
0001
0000
1000
0010
0100
0001
1000
0000
0000
0000
,
0011
0000
0001
1000
0100
0000
0010
0000
0001
1000
0001
0100
0010
0000
1000
0000
,
1001
0000
0001
0000
0000
0000
0001
0000
0010
0000
0010
0100
1000
0000
0001
0000
,
0101
0000
0100
0001
1000
0000
0100
0000
0010
0001
0010
0100
1000
0000
0001
0000
,
0101
0000
1000
0000
0000
0000
1000
0000
0100
0010
0100
1000
0001
0000
0100
0000
,
1010
0000
1000
0001
0010
0000
0100
0000
1000
0001
0100
0001
2000
0000
0000
0000
,
0000
0000
0000
0000
0000
0000
0000
0000
0000
0000
0000
0000
3001
0100
0010
1000
,
0001
1000
0010
0100
0001
1000
0100
0010
0001
1000
0010
0100
0001
0100
0001
1000
,
0010
0000
0000
1000
0000
0000
0010
0000
0000
1000
0000
0000
0100
0000
0000
0010
0000
0000
0001
0000
0000
0100
0000
0000
0001
0000
0000
1000
0000
0000
0001
0000
0100
0000
0010
0000
1000
0000
0000
0001
0000
0000
1000
0000
0000
0100
0000
0000
,
0010
0001
0010
0001
1000
0010
0100
0001
1000
0001
0100
0010
2000
3000
0044
0000
,
0233
0300
0044
0000
2033
3000
0044
0003
2032
0000
3003
0000
0001
1000
0010
0100
,
0001
0100
0010
1000
0100
0010
0001
1000
0010
1000
0001
0010
0001
0010
0100
1000
,
0100
1000
0010
0100
0001
0010
0100
0010
0002
0003
0002
0003
1000
0010
0100
0001
,
1000
0000
0000
0001
0000
0000
0100
0000
0000
0010
0000
0000
1000
0000
0000
0100
0000
0000
0010
0000
0000
0001
0000
0000
0100
0000
0000
0001
0000
0000
0010
0000
0000
0100
0000
0000
2000
0000
3000
0000
0000
0000
2000
0000
3000
0000
0000
0000
,
2000
0000
3000
0000
0000
0000
2000
0000
3000
0000
0000
0000
2002
0000
0000
0000
0000
0000
3003
0000
0000
0000
0000
0000
0001
0000
0000
0000
0000
0000
0001
0000
0000
0000
0000
0000
1000
0000
0000
0010
0000
0000
0100
0000
0000
0001
0000
0000
,
1000
0001
0100
0001
0100
0010
1000
0001
0010
0100
1000
0100
1000
0010
0100
0010
,
0100
0001
0010
0100
1000
0001
0100
0001
1000
0100
0010
0001
1000
0100
0010
0001
,
1000
0010
0100
0001
1000
0100
0010
0001
0100
0010
1000
0010
0400
0000
0000
0000
,
0000
0000
0000
0000
0000
0000
0000
0000
0000
0000
0000
0000
0301
1000
0100
1000
,
0010
1000
0100
0010
0100
1000
0010
0100
0001
1000
0100
1000
0100
0010
0001
0100
,
0010
1000
0001
0100
0001
1000
0100
0010
0001
0100
0001
0100
0010
0100
0001
1000
,
0001
0010
0100
1000
0001
0100
0010
1000
0001
0010
0100
0010
0002
0000
0003
0000
,
0000
0000
0000
4000
,
3001
0100
0010
1000
0100
1000
0010
0100
0001
0010
0100
0010
0001
0100
0010
1000
,
0001
0000
0000
1000
0000
0000
0010
0000
0000
0100
0000
0000
0001
0000
0000
0000
0000
0000
4000
0000
0000
0000
0000
0000
3001
0000
0100
0000
0001
0000
0100
0000
0001
0000
0100
0000
0001
0000
0000
1000
0000
0000
0001
0000
0000
1000
0000
0000
,
0010
0100
0001
1000
0001
0010
0100
1000
0010
0100
0001
0010
0100
1000
0001
1000
,
0100
0010
0001
0010
0200
0000
0300
0000
2000
0000
3000
0000
0004
0000
0000
0000
,
1003
0010
0100
0001
0010
0001
0100
0010
1000
0100
0010
0100
1000
0001
0100
0001
,
1000
0100
0010
0001
1000
0001
0010
0100
2000
0000
3000
0000
0001
0010
0100
1000
,
0001
1000
0100
0010
0001
0100
0010
1000
0010
0100
0001
0010
0100
1000
0001
1000
,
0010
0100
0010
1000
0002
0000
0203
0000
0340
0000
0000
0000
1030
0001
1000
0010
,
0100
0001
1000
0001
1000
0100
0010
0001
0200
0000
0300
0000
0001
0010
0100
1000
,
0001
0000
0000
1000
0000
0000
0100
0000
0000
1000
0000
0000
0100
0000
0000
0010
0000
0000
0001
0000
0000
1000
0000
0000
0001
0000
0000
0100
0000
0000
0001
0000
1000
0000
0001
0000
1000
0000
0000
0010
0000
0000
0100
0000
0000
0001
0000
0000
,
1000
0001
0100
0001
0100
0010
1000
0100
0010
0001
0100
0001
0010
0100
1000
0100
,
0010
0001
1000
0001
2000
0000
3040
0000
0130
0000
0100
0000
0001
0100
0010
1000
,
0100
1000
0010
0100
0001
0010
0100
1000
0100
0010
0001
0100
0010
1000
0001
1000
,
0010
0000
0000
0100
0000
0000
0001
0000
0000
0100
0000
0000
0001
0000
0000
0010
0000
0000
0100
0000
0000
0010
0000
0000
0002
0000
0000
0000
0000
0000
0003
0000
0000
0000
0000
0000
1000
0000
0100
0000
1000
0000
0100
0000
0000
0000
0000
0000
,
0010
0001
0010
0001
0000
0000
4040
0000
3030
0000
0000
0000
0404
0000
0303
0000
0000
0000
2002
0000
0000
3003
0000
0000
,
M00M
00M0
00M0
0M00
000M
M000
1001
0000
,
1100
0011
0110
1001
,
0101
0000
1010
0000
1100
0110
0011
0000
,
0101
1010
1001
1100
,
0011
0000
0000
0000
0000
0000
0000
0000
0000
0000
0000
0000
0000
0000
0000
0000
0101
0000
0000
0000
0000
0000
0000
0000
0000
0000
0000
0000
0000
0000
0000
0000
1010
0000
0000
0000
0000
0000
0000
0000
4000
0000
0000
0000
0000
0000
0000
3000
0101
0000
0000
0000
0000
0000
0000
0000
0000
0000
0000
0000
0000
0000
0000
0000
,
1100
0011
1001
1010
,
0101
0000
0000
0000
0110
0000
0000
1010
0000
0000
1001
0000
1001
0000
0000
0000
,
1100
0000
0000
0000
0011
0000
0000
0000
0110
0000
0100
1000
0001
0000
0001
0000
,
0101
0000
0000
0000
0000
0000
0000
0000
0100
0000
0000
0000
0000
0000
0000
0000
0110
0000
0000
0000
0000
0000
0000
0000
2000
0000
0000
0000
0000
0000
0000
0000
3004
0000
0000
0000
0000
0000
0000
0000
0000
0000
0000
0000
0000
0000
0000
0003
2200
0000
0000
0000
0000
0000
0000
0000
0000
0000
0000
0000
0000
0000
0000
0000
,
3300
0000
0000
0000
;

//---------------dance-single - Rynker----------------
#NOTES:
     dance-single:
     Rynker:
     Hard:
     10:
     0.837,0.927,0.336,0.224,0.473,656.000,42.000,28.000,14.000,0.000:
0000
0000
0000
0000
,
1001
0001
2000
0001
,
0000
0001
0000
3001
,
0000
0001
0020
0031
,
0010
0000
0010
0000
0001
0000
0100
0000
0001
0000
0100
0000
0010
0000
1000
0001
,
0100
0001
0100
0001
0020
0000
0001
0000
,
0000
0001
0000
0031
,
0000
0001
2000
3001
,
0010
0000
0001
0000
0001
0000
1000
0000
0001
0000
0100
0000
0010
0000
1000
0001
,
1000
0000
0000
0000
0001
0000
0000
1000
0100
0000
0000
0010
0000
0000
0001
0000
,
1000
0000
0010
0000
0100
0000
0001
0001
,
1000
0000
0001
0000
0000
0000
0010
0000
0100
0000
0000
1000
0000
0000
0001
0000
,
2000
3000
2000
3000
0002
0003
0002
0003
,
1000
0000
0010
0000
0000
0000
0100
0000
0001
0000
0000
0001
0000
0000
0001
0000
,
1000
0000
0000
0000
0010
0000
0000
0000
1010
0000
0000
0110
0000
0000
0101
0000
,
0001
0000
1000
0000
0100
0000
0000
0000
0010
0000
0000
0001
0000
0000
1000
0000
,
10M1
0000
0000
0000
M00M
0000
0001
0100
,
0010
0000
1000
0000
0100
0000
0010
0000
0100
0000
1000
0000
0001
0000
0100
0001
,
1000
0000
0010
1000
0001
0000
0000
0000
1000
0000
1000
0000
0001
0000
0100
0000
,
0010
1000
0100
0010
0100
1000
0001
0001
,
0001
0001
0010
0010
0200
0000
1300
0001
,
0100
0010
0100
0001
0010
0100
1000
0001
,
0100
0000
0010
0000
0100
0001
1000
0000
0010
1000
0001
0000
0010
0000
0100
0000
,
1000
0001
0100
0001
0010
0100
0020
0000
,
0000
0000
0030
0000
2002
0000
3003
0000
0000
0000
0000
0000
1000
0001
1000
0000
,
0001
0000
0100
0001
0100
0000
0001
0000
0010
0000
0100
1000
0001
1000
0001
0000
,
0010
0000
0001
1000
0001
0000
0010
0000
0100
0000
1000
0000
0010
1000
0001
0000
,
0100
0000
0010
1000
0001
0000
0100
0000
0001
0000
1000
0100
1000
0100
0010
0000
,
0010
0000
0001
0010
0200
0000
0300
0000
1000
0001
1000
0001
1000
0000
0010
0000
,
0100
0000
0001
1000
0100
0000
0010
0000
0001
0000
1000
0000
0001
0100
0010
0000
,
0100
0000
0010
1000
0001
0000
1000
0000
0100
0000
0010
0000
0001
0010
0100
1000
,
0001
1000
0001
0010
0100
1000
0100
0010
0001
1000
0001
0100
0020
0000
0030
0000
,
1000
1000
0001
1000
0001
1000
2200
3300
,
0000
0000
1000
0000
0100
0000
0000
0010
0000
0000
0001
0000
0000
0000
0100
0000
,
0000
0001
0100
0010
1000
0000
0000
0100
,
0000
0000
1000
0000
0100
0000
0000
0010
0000
0000
0001
0000
0000
0000
1000
0000
,
0000
0001
1000
0010
0100
0000
0000
0001
,
0000
0000
1000
0000
0001
0000
0000
0010
0000
0000
0100
0000
0000
0000
1000
0000
,
0000
0100
1000
0010
0100
0000
0000
0001
,
0000
0000
0100
0000
0001
0000
0000
0010
0000
0000
0100
0000
0000
0000
1000
0000
,
0000
0000
0100
0000
1000
0000
0001
0000
0100
0001
1000
0001
1000
0000
0000
0000
,
1010
0000
0010
0000
0100
0000
0001
0000
0000
0000
0001
1000
0100
0000
1000
0000
,
0100
0000
1000
0000
0000
0000
0010
0000
0100
0000
0001
1000
0001
0000
0000
0000
,
0010
0000
0100
1000
0100
0000
0010
0000
0001
0000
1000
0000
0001
1000
0001
0000
,
1000
0000
1000
0000
0000
0000
0001
0000
1000
0000
0001
1000
0001
0000
0100
0000
,
0010
0000
0100
0001
1000
0000
0001
0000
0010
0100
0010
0100
1000
0000
0001
0000
,
1001
0000
1000
0000
0000
0000
1000
0000
0100
0010
0100
1000
0001
0000
0100
0000
,
0110
0000
0010
0000
1000
0000
0001
0000
0010
0100
0010
0100
1000
0000
000M
0000
,
0000
0000
0000
00M0
0000
0M00
0000
M000
0000
0000
0000
0000
0001
0000
0100
0000
,
0010
0000
1000
0010
1000
0000
0001
0000
0100
0000
0001
0010
0001
0000
0010
0000
,
0100
0000
1000
0000
0001
0100
0001
0100
0001
0000
1000
0000
0010
0000
0100
0000
,
0010
0000
1000
0010
0100
0000
0001
0000
0010
0000
0100
1000
0100
0000
0040
0030
,
0001
0000
4000
3000
0001
0000
0400
0300
0010
0000
0000
0000
1000
0000
0010
0000
,
0100
0000
0001
0010
0001
0000
1000
0000
0100
0000
0010
0100
1000
0000
0001
0000
,
0100
0000
0001
1000
0001
1000
0001
0100
0010
0000
1000
0000
0010
0000
0100
0000
,
0001
0000
1000
0100
1000
0000
0100
0000
0010
0000
0001
0000
0100
0000
0010
0000
,
0100
0010
0200
0000
0301
0001
1000
0100
,
0010
0000
0100
1000
0001
0000
0100
0000
0001
0000
1000
0100
1000
0000
0100
0000
,
0010
0000
0001
1000
0010
0100
0010
0100
0001
0000
1000
0000
0001
0010
0100
0000
,
1000
0000
0001
0100
0010
0000
0100
0000
0001
1000
0001
1000
0100
0000
0010
0000
,
0000
0001
0010
0100
1000
0000
0001
0100
,
0010
0000
1000
0010
0100
0000
0001
0000
0010
0000
0100
1000
0100
0000
0010
0000
,
0001
0000
1000
0000
0001
0100
0010
1000
0010
0000
0100
0000
0010
0000
1000
0000
,
0001
0000
0010
0001
0010
0000
0100
0000
1000
0000
0001
0010
0100
0000
1000
0000
,
0000
0000
0001
0000
0100
0000
0010
0000
1000
0000
0000
0000
0001
0100
0001
0100
,
0001
0000
0100
0000
0010
0000
1000
0000
0001
0000
0010
0100
1000
0000
0100
0000
,
0010
0000
0001
1000
0001
0000
4000
0000
3001
0100
0010
1000
0001
0000
1000
0000
,
0100
0000
0010
0100
1000
0000
0001
0000
0100
0000
0010
1000
0010
0000
0100
0000
,
0001
1000
0001
1000
0002
0000
0000
0000
0023
0000
0000
0000
0031
1000
0001
1000
,
0010
0000
0100
0000
0001
0000
1000
0000
0100
0000
0010
0100
1000
0001
1000
0000
,
0001
0000
0100
0001
0100
0000
0010
0000
0200
0000
0000
0300
0001
1000
0100
0000
,
0010
0000
0100
1000
0001
0000
0100
0000
0010
0000
0100
0000
0001
0010
0100
1000
,
0001
0000
0010
0000
0100
0000
1000
0000
0010
1000
0010
1000
0010
0000
0100
0000
,
0001
0000
0010
0001
1000
0000
0001
0000
0100
0000
0010
0100
0010
0100
0001
0000
,
1000
0000
0100
0000
0010
0000
0001
0000
0100
0000
0010
1000
0100
0000
0010
0000
,
0001
0100
0010
0100
0001
1000
0100
0010
,
0001
0100
0010
0020
0130
0100
0001
0010
,
0100
1000
0001
0100
0010
0100
0010
1000
,
0100
0000
0010
0000
0001
0010
0100
0010
0002
0000
0003
0000
0010
0001
1000
0000
,
0010
1000
0001
0000
2000
0000
3000
0000
0020
0000
0030
0000
2002
0000
3003
0000
,
M00M
00M0
00M0
0M00
000M
M000
1001
0000
,
1100
0011
0110
1001
,
0101
0000
1010
0000
1100
0110
0011
0000
,
0101
1010
1001
1100
,
0011
0000
0000
0000
0000
0000
0000
0000
0000
0000
0000
0000
0000
0000
0000
0000
0101
0000
0000
0000
0000
0000
0000
0000
0000
0000
0000
0000
0000
0000
0000
0000
1010
0000
0000
0000
0000
0000
0000
0000
4000
0000
0000
0000
0000
0000
0000
3000
0101
0000
0000
0000
0000
0000
0000
0000
0000
0000
0000
0000
0000
0000
0000
0000
,
1100
0011
1001
1010
,
0101
0000
0000
0000
0110
0000
0000
1010
0000
0000
1001
0000
1001
0000
0000
0000
,
1100
0000
0000
0000
0011
0000
0000
0000
0010
0000
0001
1000
0010
0000
0100
0000
,
0001
1000
0010
0100
0004
0003
0220
0000
,
0330
0000
0000
0000
;
