#TITLE:Loaded Futurefile ~First Appearance~;
#SUBTITLE:EXoduz Violation;
#ARTIST:Anc;
#TITLETRANSLIT:;
#SUBTITLETRANSLIT:;
#ARTISTTRANSLIT:;
#CREDIT:Aoreo;
#BANNER:../Banner.png;
#BACKGROUND:../Background.png;
#LYRICSPATH:;
#CDTITLE:;
#MUSIC:13 anc - loaded futurefile.ogg;
#OFFSET:0.617;
#SAMPLESTART:83.260;
#SAMPLELENGTH:7.160;
#SELECTABLE:YES;
#DISPLAYBPM:268.700;
#BPMS:0.000=130.000,4.000=134.000,9.000=133.000,16.000=143.500,18.000=133.000,33.000=124.545,56.000=268.644;
#STOPS:;
#BGCHANGES:;
// cache tags:
#FIRSTBEAT:2.000;
#LASTBEAT:576.000;
#SONGFILENAME:Songs/EXoduz Violation/Loaded Futurefile/Loaded Futurefile.sm;
#HASMUSIC:1;
#HASBANNER:1;
#MUSICLENGTH:142.677;
// end cache tags

//---------------dance-single - J. Nero----------------
#NOTES:
     dance-single:
     J. Nero:
     Challenge:
     14:
     1.000,1.000,0.392,1.000,1.000,1320.000,56.000,333.000,0.000,9.000:

0000
0000
0000
0000
2000
3002
0203
0320
,
2030
0000
0200
0000
0020
0000
0002
3333
,
0002
0000
2000
3003
0200
0320
2030
3002
,
2003
0000
0200
0000
0020
0000
0002
3333
,
0002
0000
0000
0000
0000
0000
1003
0100
1000
0100
1000
0100
2000
0000
0000
3002
0000
0000
0203
0000
0000
0320
0000
0000
,
2030
0000
0020
0000
0200
0000
0002
3333
,
0020
0000
2030
0000
3002
2003
3020
0230
,
0302
0000
2000
0000
0020
0000
0200
0003
,
3332
0000
0000
0000
0000
0000
1003
0001
1000
0001
1000
0001
1000
0001
1000
0001
1000
0001
1000
0001
1000
0001
1000
0001
,
1000
0001
1000
0001
1000
0001
1000
0001
1000
0001
1000
0001
1000
0001
1000
0001
1000
0001
1000
0001
1000
0001
1000
0001
,
1000
0001
1000
0001
1000
0001
1000
0001
1000
0001
1000
0001
1000
0001
1000
0001
1000
0001
1000
0001
1000
0001
1000
0002
,
2000
0000
0000
0000
,
0000
0000
0000
0000
,
0000
0000
0000
0000
0000
0000
0000
3003
,
2001
3001
0200
0000
0302
0000
2003
0000
,
3020
0230
0302
0023
,
0230
2300
3002
0000
2003
0000
3020
0000
,
0230
0320
0230
0302
,
0023
0230
2300
0000
3020
0000
0230
0302
,
0003
0002
1003
0100
1000
0000
1001
0000
,
2002
3003
2200
3300
0220
0330
2020
3030
,
0202
0303
0022
0033
0220
0330
2200
3300
,
2020
3030
2200
3300
0220
0330
0022
0033
,
0202
0303
2002
3003
0220
0330
2020
3030
,
0202
0303
0022
0033
2020
3030
0202
0303
,
2002
3003
0220
0330
2002
3003
0220
0330
,
0000
0000
0000
0000
,
0000
0000
0000
0000
,
0000
0000
0000
0000
,
0000
0000
0000
0000
,
0000
0000
0000
0000
,
1000
0001
0100
0010
1000
0100
0010
0001
1000
0010
0100
0001
,
0010
0100
1000
0010
0100
0001
1000
0010
1000
0010
0100
0001
,
0010
0100
1000
0010
0100
0010
0100
0001
0100
0001
1000
0010
,
0100
0001
0010
0100
1000
0001
0010
0001
1000
0010
0100
0001
,
1000
0010
0100
0001
0010
0100
1000
0001
0010
0100
1000
0010
,
0100
0001
1000
0010
1000
0010
0100
0001
0010
0100
1000
0100
,
1000
0001
0010
0100
1000
0001
0010
0100
1000
0010
1000
0010
,
1000
0001
0100
0001
0100
0010
1000
0010
1000
0001
0010
0100
,
0010
0001
1000
0100
0010
0001
0010
0100
1000
0010
0100
0001
,
1000
0100
0010
0100
1000
0001
0010
0001
1000
0100
0010
0100
,
2000
0000
0000
0000
0000
0000
3000
0000
1002
0000
0003
0000
0100
0001
0100
0001
,
0100
0001
0100
0001
0100
0001
0100
0001
0100
0001
0100
0001
0100
0001
0100
0001
,
0100
0001
1000
0010
0100
0001
0010
0100
1000
0100
1000
0010
,
0100
0001
1000
0100
0010
0100
1000
0001
0010
0100
1000
0100
,
0010
0001
1000
0010
0100
0001
1000
0001
1000
0100
0010
0001
,
0010
0100
1000
0010
0100
0001
1000
0001
1000
0100
0010
0100
,
1000
0001
0010
0100
0010
0001
1000
0010
0100
0001
0010
0100
,
0010
0001
1000
0100
0010
0100
1000
0010
0100
0001
1000
0001
,
1000
0100
0010
0001
0010
0100
1000
0010
0100
0001
1000
0001
,
1000
0100
0010
0100
1000
0001
0010
0100
0010
0001
1000
0010
,
0100
0001
1000
0001
1000
0100
0010
0001
0010
0100
1000
0001
,
0010
0100
0010
0001
0010
0100
1000
0001
1000
0001
1000
0010
,
0100
0001
1000
0001
1000
0100
0010
0001
0010
0100
1000
0010
,
0100
0001
1000
0100
0010
0001
0010
0100
1000
0010
0100
0001
,
0100
0001
1000
0010
1000
0010
1000
0010
0100
0001
0010
0100
,
1000
0100
0010
0001
1000
0010
0100
0001
1000
0001
1000
0100
,
0010
0001
0010
0100
1000
0100
0010
0000
0000
0000
0000
0000
,
2002
0000
0000
0000
0000
0000
3003
0000
2002
0000
3003
0000
1000
0001
1000
0000
,
0001
1000
0001
0000
0100
0010
0100
0000
0010
0100
0010
0000
1000
0010
1000
0000
,
0010
1000
0010
0000
0100
0001
0100
0000
0001
0100
0001
0000
1000
0010
1000
0000
,
0010
1000
0010
0000
0100
0010
0100
0000
0010
0100
0010
0000
1000
0001
1000
0000
,
0001
1000
0001
0000
0100
1000
0100
0000
1000
0100
1000
0000
0010
0100
0010
0000
,
0100
0010
0100
0000
0001
0100
0001
0000
0100
0001
0100
0000
0010
1000
0010
0000
,
1000
0010
1000
0000
0010
0100
0010
0000
0100
0001
0100
0000
0001
0100
0001
0000
,
1000
0010
1000
0000
0100
0010
0100
0000
0001
0010
0001
0000
1000
0100
1000
0000
,
0010
0100
0010
0000
0100
0010
0100
0000
0001
1000
0001
0000
1000
0000
0001
0000
,
0100
0010
0100
0000
0001
0100
0001
0000
1000
0010
1000
0000
0100
0010
0100
0000
,
0001
0100
0001
0000
0100
0001
0100
0000
0010
1000
0010
0000
1000
0010
1000
0000
,
0010
0100
0010
0000
0100
0001
0100
0000
0001
0100
0001
0000
1000
0001
1000
0000
,
0001
1000
0001
0000
1000
0010
1000
0000
0001
0100
0001
0000
1000
0010
1000
0000
,
0010
0100
0010
0000
0100
0010
0100
0000
0001
0100
0001
0000
1000
0010
1000
0000
,
0001
0100
0001
0000
0100
0010
0100
0000
0010
1000
0010
0000
0100
0001
0100
0000
,
0001
1000
0001
0000
1000
0001
1000
0000
0001
1000
0001
0000
1000
0001
1000
0000
,
0010
0100
0010
0000
0100
0001
0100
0000
0001
0100
0001
0000
1000
0010
1000
0000
,
0001
0100
0001
0000
1000
0100
1000
0000
0001
0010
0001
0000
1000
0010
1000
0000
,
0010
1000
0010
0000
0100
0010
0100
0000
0001
0100
0001
0000
1000
0010
1000
0000
,
0001
1000
0001
0000
1000
0001
1000
0000
0100
0010
0100
0000
0010
0100
0010
0000
,
1000
0001
1000
0000
0001
1000
0001
0000
0100
0010
0100
0000
0001
0100
0001
0000
,
2000
3200
0320
0032
2003
0000
3020
0000
,
0230
0302
0023
0230
,
2300
3002
0203
0320
2030
0000
3200
0000
,
0320
0032
2003
3020
,
0230
0302
0023
0230
2300
0000
3020
0000
,
0230
0302
2003
3020
,
0130
0110
0010
0011
0001
0101
0010
1010
,
1000
1100
0100
1100
1000
1010
0100
0101
,
0001
1000
0001
1000
0010
0100
0001
0010
0100
1000
0100
0010
,
0001
1000
0010
1000
0010
0100
0001
1000
0100
0010
0001
1000
,
0010
0100
0001
0010
0100
1000
0010
0100
0001
1000
0010
1000
,
0010
0100
0001
0010
0100
1000
0001
0010
0100
1000
0010
0100
,
0001
1000
0001
1000
0001
1000
0100
0010
0001
1000
0010
0100
,
0001
1000
0001
1000
0100
0010
0001
1000
0100
0010
0001
1000
,
0010
1000
0010
0100
0001
0010
0100
1000
0001
0010
0100
1000
,
0010
0100
0001
1000
0010
1000
0010
0100
0001
0010
0100
1000
,
0001
0010
0100
1000
0010
0100
0001
1000
0001
1000
0010
0100
,
0001
0010
0100
0010
0001
1000
0100
0010
0001
0010
0100
1000
,
0001
0010
0100
0010
0001
1000
0010
0100
0001
1000
0001
1000
,
0100
1000
0010
0100
0001
0100
0001
0010
0001
1000
0010
0100
,
0002
1003
0010
0100
0001
0010
0100
1000
0010
0100
0010
0100
,
0001
1000
0010
1000
0010
0100
0001
1000
0001
1000
0100
1000
,
0010
1000
0001
1000
0100
0010
0001
0010
0100
1000
0010
0100
,
0001
0010
0001
1000
0001
0100
0001
0010
0001
1000
0010
1000
,
0010
0100
0001
0010
0100
1000
0001
1000
0010
0100
0001
0010
,
0100
1000
0001
0010
0100
1000
0010
0100
0001
1000
0010
1000
,
0010
0100
0001
0010
0100
1000
0100
1000
0010
0100
0001
1000
,
0001
1000
0010
0100
0001
0010
0100
1000
0001
0010
0100
1000
,
0010
0100
0001
1000
0010
1000
0010
0100
0001
0100
0001
1000
,
0010
0100
0001
0010
0100
1000
0100
0010
0001
1000
0100
0010
,
0001
0010
0100
1000
0010
0100
0001
1000
0001
1000
0100
0010
,
0001
0010
0001
1000
0010
1000
0010
0100
0001
1000
0001
1000
,
0100
0010
0001
0010
0100
1000
0010
0100
0001
0100
0001
1000
,
0010
0100
0001
0010
0100
1000
0001
0010
0100
1000
0010
0100
,
0001
1000
0010
1000
0010
0100
0001
0010
0100
1000
0001
0010
,
0100
1000
0010
0100
0001
1000
0010
1000
0010
0100
0001
1000
,
0002
2003
3020
0230
0302
0023
0230
2300
3020
0230
0302
2003
,
3020
0230
0302
0023
0032
0023
0032
0023
0032
2003
3020
2030
,
3020
0230
0302
0203
0302
2003
3002
2003
3002
2003
3020
2030
,
3020
0230
0302
2003
3200
0320
0032
2003
3020
2030
3002
2003
,
3002
2003
3002
2003
3200
2300
3200
2300
3020
0230
0302
0203
,
0302
2003
3020
2030
3020
2030
3020
0230
0302
0023
0230
2300
,
3020
0230
0302
2003
3020
0230
0302
0023
0230
2300
3002
0023
,
0230
2300
3020
0230
0302
2003
3020
2030
3020
0230
0302
0203
,
0302
0023
0230
2300
3002
2003
3002
2003
3020
0230
0302
2003
,
3020
0230
0302
0023
0230
2300
3002
0023
0230
2300
3020
0230
,
0302
2003
3020
2030
3020
0230
0302
0023
0230
2300
3020
0230
,
0302
2003
3020
0230
0302
0023
0032
0203
0302
0203
0302
0203
,
0302
0003
2020
3030
,
0220
0330
0202
0303
,
2020
3030
2002
3003
,
0022
0033
0220
0330
,
0100
0001
1000
0010
0100
0001
1000
0001
1000
0001
1000
0010
,
0100
0001
0100
0001
1000
0010
0100
0001
0010
0100
1000
0100
,
1000
0001
0010
0100
1000
0100
0010
0001
1000
0010
0100
0001
,
1000
0001
1000
0100
0010
0001
1000
0010
0100
0001
1000
0010
,
0200
0300
0220
0330
2020
3030
0220
0330
,
0202
0303
0022
0033
2200
0000
0000
3300
,
2002
3003
0022
0033
2020
3030
0220
0330
,
0202
0000
0000
0303
2020
0000
0000
0000
,
0000
0000
0000
0000
,
0000
0000
0000
0000
,
0000
0000
0000
0000
,
0000
0000
0000
0000
,
0000
0000
0000
0000
,
3030
0000
0000
0000
;
