#TITLE:Vertex Epsilon;
#SUBTITLE:;
#ARTIST:CardboardBox;
#TITLETRANSLIT:;
#SUBTITLETRANSLIT:;
#ARTISTTRANSLIT:;
#CREDIT:Arvin;
#BANNER:../Banner.png;
#BACKGROUND:../bg.png;
#LYRICSPATH:;
#CDTITLE:;
#MUSIC:Vertex Epsilon.ogg;
#OFFSET:0.005;
#SAMPLESTART:59.287;
#SAMPLELENGTH:15.000;
#SELECTABLE:YES;
#BPMS:0.000=162.000;
#STOPS:;
#BGCHANGES:;
// cache tags:
#FIRSTBEAT:16.000;
#LASTBEAT:455.750;
#SONGFILENAME:Songs/Tachyon Epsilon/Vertex Epsilon - [The BoxX]/Vertex Epsilon.sm;
#HASMUSIC:1;
#HASBANNER:1;
#MUSICLENGTH:170.165;
// end cache tags

//---------------dance-single - TheBoxX----------------
#NOTES:
     dance-single:
     TheBoxX:
     Medium:
     18:
     1.000,1.000,0.053,0.470,1.000,1720.000,9.000,80.000,0.000,1.000:


















0000
0000
0000
0000
,
0000
0000
0000
0000
,
0000
0000
0000
0000
,
0000
0000
0000
0000
,
0001
0010
0100
1000
0000
0001
0100
0010
1000
0001
0100
0001
1000
0100
0010
0001
,
1000
0010
0100
0001
0000
1000
0100
0010
0001
1000
0010
1000
0001
0010
0100
1000
,
0001
0100
0010
1000
0000
0001
0010
0100
1000
0001
0100
0001
1000
0010
0100
0001
,
1000
0100
0010
0001
0000
1000
0010
0100
0001
1000
0010
1000
0010
0100
0001
1000
,
0001
0010
0100
1000
0000
0001
0100
0010
1000
0001
0100
0001
1000
0100
0010
0001
,
1000
0010
0100
0001
0000
1000
0100
0010
0001
1000
0010
1000
0001
0010
0100
1000
,
0001
0100
0010
1000
0000
0001
0010
0100
1000
0001
0100
0001
1000
0010
0100
0001
,
1000
0100
0010
0001
0000
1000
0010
0100
0001
1000
0010
1000
0010
0100
0001
1000
,
0001
0010
0100
1000
0000
0001
0100
0010
1000
0001
0100
0001
1000
0100
0010
0001
,
1000
0010
0100
0001
0000
1000
0100
0010
0001
1000
0010
1000
0001
0010
0100
1000
,
0001
0100
0010
1000
0000
0001
0010
0100
1000
0001
0100
0001
1000
0010
0100
0001
,
1000
0100
0010
0001
0000
1000
0010
0100
0001
1000
0010
1000
0010
0100
0001
0010
,
0100
0000
0000
1000
0000
0000
0001
0000
0100
0000
0000
0001
0000
0000
0010
0000
,
0100
0000
0000
0010
0000
0000
0100
0000
1000
0000
0000
0000
0000
0000
0000
0000
,
0001
0000
0000
0100
0000
0000
0010
0000
1000
0000
0000
0010
0000
0000
0100
0000
,
0001
0000
0000
0010
0000
0000
0100
0000
1000
0000
0000
0000
0000
0000
0000
0000
,
0001
0000
0000
1000
0000
0000
0010
0000
0100
0000
0000
0010
0000
0000
1000
0000
,
1000
0000
0000
0010
0000
0000
0100
0000
0001
0000
0000
0000
0000
0000
0000
0000
,
1000
0000
0000
0100
0000
0000
1000
0000
0001
0000
0000
0010
0000
0000
0100
0000
,
0100
0000
0000
0010
0000
0000
0001
0000
1000
0000
0000
0000
1000
0010
1000
0010
,
1020
0000
0000
0230
0000
0000
0302
0000
2003
0000
0000
3002
0000
0000
0023
0000
,
0230
0000
0000
0320
0000
0000
0230
0000
2300
0000
0000
0000
0000
0000
0000
0000
,
3002
0000
0000
0203
0000
0000
0302
0000
2003
0000
0000
3020
0000
0000
2030
0000
,
3002
0000
0000
0023
0000
0000
0230
0000
2300
0000
0000
0000
3001
0100
0001
0100
,
0210
0000
0000
0302
0000
0000
2003
0000
3200
0000
0000
2300
0000
0000
3001
0000
,
0002
0000
0000
0023
0000
0000
0230
0000
2300
0000
0000
0000
3100
0010
0100
0010
,
0120
0000
0000
0032
0000
0000
2003
0000
3020
0000
0000
0230
0000
0000
0301
0000
,
0002
0000
0000
2003
0000
0000
3200
0000
0320
0000
0000
0000
0031
1000
0001
1000
,
0010
0100
0010
1000
0001
1000
0100
1000
0001
0100
0001
1000
0010
1000
0001
0010
,
0100
1000
0100
0010
0001
0010
0100
0010
0001
1000
0001
0100
0001
1000
0001
0100
,
0010
1000
0010
0100
0010
0100
0001
1000
0001
0100
0001
1000
0010
1000
0001
0010
,
0100
1000
0100
0010
0100
0010
0001
1000
0001
0100
0010
0100
0001
0100
0010
0100
,
0001
0010
0100
1000
0001
1000
0010
1000
0001
0010
0001
1000
0100
1000
0001
0100
,
0010
1000
0010
0100
0001
0100
0010
0100
0001
1000
0001
0010
0001
1000
0001
0010
,
0100
1000
0100
0010
0100
0010
0001
1000
0001
0010
0001
1000
0100
1000
0001
0100
,
0010
1000
0010
0100
0010
0100
0001
1000
0100
0010
0001
0010
0100
0010
0001
0010
,
0200
0000
0320
0032
2003
0000
3002
0203
,
0320
0000
0230
0320
2030
0000
0000
0000
,
3002
0000
0023
0032
2003
0000
3200
2300
,
3002
0000
0203
0320
2030
0000
0000
0000
,
3002
0000
0000
0000
0023
0000
0230
0000
2300
0000
0000
0000
3020
0000
0230
0300
,
0200
0000
0302
2003
3200
0000
0000
0000
,
0320
0000
0000
0000
0032
0000
0023
0000
0230
0000
0000
0000
2300
0000
3002
0003
,
0002
0000
0203
0320
0230
0000
0000
0000
,
1301
0000
0000
0000
1001
0000
0000
0000
1001
0000
0000
0000
0001
0100
0001
0100
,
0001
0100
0001
1000
0001
1000
0100
0010
0100
1000
0100
0010
0100
1000
0001
1000
0001
0100
0010
0100
0001
1000
0001
0100
,
0010
0100
0001
1000
0001
1000
0100
0010
0100
1000
0100
1000
0001
0010
0001
1000
0001
1000
0010
0100
0001
1000
0001
1000
,
0100
0010
0001
1000
0001
1000
0010
0100
0010
1000
0010
0100
0001
1000
0001
1000
0001
0010
0100
0010
0001
1000
0001
0010
,
0100
0010
0001
1000
0001
1000
0010
0100
0010
1000
0010
1000
0001
0100
0001
1000
0001
1000
0100
0010
0001
1000
0001
1000
,
0010
0100
0001
1000
0001
1000
0100
0010
0100
1000
0100
0010
0100
1000
0001
1000
0001
0100
0010
0100
0001
1000
0001
0100
,
0010
0100
0001
1000
0001
1000
0100
0010
0100
1000
0100
1000
0001
0010
0001
1000
0001
1000
0010
0100
0001
1000
0001
1000
,
0100
0010
0001
1000
0001
1000
0010
0100
0010
1000
0010
0100
0001
1000
0001
1000
0001
0010
0100
0010
0001
1000
0001
0010
,
0100
0010
0001
1000
0001
1000
0010
0100
0010
1000
0010
1000
0001
0100
0001
1000
0001
1000
0100
0010
0001
1000
0001
1000
,
0010
0100
0001
1000
0001
1000
0100
0010
0100
1000
0100
0010
0100
1000
0001
1000
0001
0100
0010
0100
0001
1000
0001
0100
,
0010
0100
0001
1000
0001
1000
0100
0010
0100
1000
0100
1000
0001
0010
0001
1000
0001
1000
0010
0100
0001
1000
0001
1000
,
0100
0010
0001
1000
0001
1000
0010
0100
0010
1000
0010
0100
0001
1000
0001
1000
0001
0010
0100
0010
0001
1000
0001
0010
,
0100
0010
0001
1000
0001
1000
0010
0100
0010
1000
0010
1000
0001
0100
0001
1000
0001
1000
0100
0010
0001
1000
0001
1000
,
0010
0100
0001
1000
0001
1000
0100
0010
0100
1000
0100
0010
0100
1000
0001
1000
0001
0100
0010
0100
0001
1000
0001
0100
,
0010
0100
0001
1000
0001
1000
0100
0010
0100
1000
0100
1000
0001
0010
0001
1000
0001
1000
0010
0100
0001
1000
0001
1000
,
0100
0010
0001
1000
0001
1000
0010
0100
0010
1000
0010
0100
0001
1000
0001
1000
0001
0010
0100
0010
0001
1000
0001
0010
,
0100
0000
0010
0000
0001
0000
1000
0000
0001
0000
1000
0000
0010
0000
0100
0000
0010
0000
1000
0000
0010
0000
1000
0000
0001
0000
0100
0000
0001
0000
1000
0000
0001
0000
0100
0000
0001
0000
0000
1000
0000
0000
0001
0000
0000
1000
0000
0000
,
0010
0100
0010
1000
0001
1000
0100
1000
0001
0100
0001
1000
0010
1000
0001
0010
,
0100
1000
0100
0010
0001
0010
0100
0010
0001
1000
0001
0100
0001
1000
0001
0100
,
0010
1000
0010
0100
0010
0100
0001
1000
0001
0100
0001
1000
0010
1000
0001
0010
,
0100
1000
0100
0010
0100
0010
0001
1000
0001
0100
0010
0100
0001
0100
0010
0100
,
0001
0010
0100
1000
0001
1000
0010
1000
0001
0010
0001
1000
0100
1000
0001
0100
,
0010
1000
0010
0100
0001
0100
0010
0100
0001
1000
0001
0010
0001
1000
0001
0010
,
0100
1000
0100
0010
0100
0010
0001
1000
0001
0010
0001
1000
0100
1000
0001
0100
,
0010
1000
0010
0100
0010
0100
0001
1000
0100
0010
0001
0010
0100
0010
0100
1000
,
0001
0100
0010
1000
0001
1000
0100
1000
0001
0100
0001
1000
0010
1000
0001
0010
,
0100
1000
0100
0010
0001
0010
0100
0010
0001
1000
0001
0100
0001
1000
0001
0100
,
0010
1000
0010
0100
0010
0100
0001
1000
0001
0100
0001
1000
0010
1000
0001
0010
,
0100
1000
0100
0010
0100
0010
0001
1000
0001
0100
0010
0100
0001
0100
0010
0100
,
0001
0010
0100
1000
0001
1000
0010
1000
0001
0010
0001
1000
0100
1000
0001
0100
,
0010
1000
0010
0100
0001
0100
0010
0100
0001
1000
0001
0010
0001
1000
0001
0010
,
0100
1000
0100
0010
0100
0010
0001
1000
0001
0010
0001
1000
0100
1000
0001
0100
,
0010
1000
0010
0100
0010
0100
0001
1000
0100
0010
0001
0010
0100
0010
0001
1000
,
1001
0000
0000
0000
0000
0000
0000
0000
2002
3003
0000
0000
0000
0000
0000
0000
1001
0000
0000
0000
0000
0000
0000
0000
1000
0000
0001
0000
1000
0000
0001
0000
,
1000
0010
1000
0001
1000
0001
0010
0100
0010
0001
0010
0100
0010
0001
1000
0001
1000
0010
0100
0010
1000
0001
1000
0010
,
0100
0010
1000
0001
1000
0001
0010
0100
0010
0001
0010
0001
1000
0100
1000
0001
1000
0001
0100
0010
1000
0001
1000
0001
,
0010
0100
1000
0001
1000
0001
0100
0010
0100
0001
0100
0010
1000
0001
1000
0001
1000
0100
0010
0100
1000
0001
1000
0100
,
0010
0100
1000
0001
1000
0001
0100
0010
0100
0001
0100
0001
1000
0010
1000
0001
1000
0001
0010
0100
1000
0001
1000
0001
,
0100
0010
1000
0001
1000
0001
0010
0100
0010
0001
0010
0100
0010
0001
1000
0001
1000
0010
0100
0010
1000
0001
1000
0010
,
0100
0010
1000
0001
1000
0001
0010
0100
0010
0001
0010
0001
1000
0100
1000
0001
1000
0001
0100
0010
1000
0001
1000
0001
,
0010
0100
1000
0001
1000
0001
0100
0010
0100
0001
0100
0010
1000
0001
1000
0001
1000
0100
0010
0100
1000
0001
1000
0100
,
0010
0100
1000
0001
1000
0001
0100
0010
0100
0001
0100
0001
1000
0010
1000
0001
1000
0001
0010
0100
1000
0001
1000
0001
,
0100
0010
1000
0001
1000
0001
0010
0100
0010
0001
0010
0100
0010
0001
1000
0001
1000
0010
0100
0010
1000
0001
1000
0010
,
0100
0010
1000
0001
1000
0001
0010
0100
0010
0001
0010
0001
1000
0100
1000
0001
1000
0001
0100
0010
1000
0001
1000
0001
,
0010
0100
1000
0001
1000
0001
0100
0010
0100
0001
0100
0010
1000
0001
1000
0001
1000
0100
0010
0100
1000
0001
1000
0100
,
0010
0100
1000
0001
1000
0001
0100
0010
0100
0001
0100
0001
1000
0010
1000
0001
1000
0001
0010
0100
1000
0001
1000
0001
,
0100
0010
1000
0001
1000
0001
0010
0100
0010
0001
0010
0100
0010
0001
1000
0001
1000
0010
0100
0010
1000
0001
1000
0010
,
0100
0010
1000
0001
1000
0001
0010
0100
0010
0001
0010
0001
1000
0100
1000
0001
1000
0001
0100
0010
1000
0001
1000
0001
,
0010
0100
1000
0001
1000
0001
0100
0010
0100
0001
0100
0010
1000
0001
1000
0001
1000
0100
0010
0100
1000
0001
1000
0100
,
0010
0100
1000
0001
1000
0001
0100
0010
0100
0001
0100
0001
1000
0010
1000
0001
1000
0001
0010
0100
1000
0100
0010
0001
,
1000
0100
0010
0001
0000
1000
0010
0100
0001
1000
0010
1000
0001
0010
0100
1000
,
0001
0100
0010
1000
0000
0001
0010
0100
1000
0001
0100
0001
1000
0100
0010
0001
,
1000
0010
0100
0001
0000
1000
0100
0010
0001
1000
0010
1000
0001
0100
0010
1000
,
0001
0010
0100
1000
0000
0001
0100
0010
1000
0001
0100
0001
0100
0010
1000
0001
,
1000
0100
0010
0001
0000
1000
0010
0100
0001
1000
0010
1000
0001
0010
0100
1000
,
0001
0100
0010
1000
0000
0001
0010
0100
1000
0001
0100
0001
1000
0100
0010
0001
,
1000
0010
0100
0001
0000
1000
0100
0010
0001
1000
0010
1000
0001
0100
0010
1000
,
0001
0010
0100
1000
0000
0001
0100
0010
1000
0001
0100
0001
0100
0010
1000
0001
,
1000
0100
0010
0001
0000
1000
0010
0100
0001
1000
0010
1000
0001
0010
0100
1000
,
0001
0100
0010
1000
0000
0001
0010
0100
1000
0001
0100
0001
1000
0100
0010
0001
,
1000
0010
0100
0001
0000
1000
0100
0010
0001
1000
0010
1000
0001
0100
0010
1000
,
0001
0010
0100
1000
0000
0001
0100
0010
1000
0001
0100
0001
0100
0010
1000
0001
,
1000
0100
0010
0001
0000
1000
0010
0100
0001
1000
0010
1000
0001
0010
0100
1000
,
0001
0100
0010
1000
0000
0001
0010
0100
1000
0001
0100
0001
1000
0100
0010
0001
,
1000
0010
0100
0001
0000
1000
0100
0010
0001
1000
0010
1000
0001
0100
0010
1000
,
0001
0010
0100
1000
0000
0001
0100
0010
1000
0001
0100
0001
0100
0010
1000
0001
;

//---------------dance-single - Mad Matt----------------
#NOTES:
     dance-single:
     Mad Matt:
     Hard:
     19:
     1.000,1.000,0.047,0.235,1.000,1882.000,8.000,40.000,0.000,0.000:












0000
0000
0000
0000
,
0000
0000
0000
0000
,
0000
0000
0000
0000
,
0000
0000
0000
0000
,
0001
0010
0100
1000
0000
0001
0100
0010
1000
0001
0100
0001
1000
0100
0010
0001
,
1000
0010
0100
0001
0000
1000
0100
0010
0001
1000
0010
1000
0001
0010
0100
1000
,
0001
0100
0010
1000
0000
0001
0010
0100
1000
0001
0100
0001
1000
0010
0100
0001
,
1000
0100
0010
0001
0000
1000
0010
0100
0001
1000
0010
1000
0010
0100
0001
1000
,
0001
0010
0100
1000
0001
1000
0010
0100
0001
1000
0010
1000
0001
0010
0100
1000
,
0001
0100
0010
1000
0001
1000
0100
0010
0001
1000
0010
1000
0001
0010
0100
1000
,
0001
0100
0010
1000
0001
1000
0100
0010
0001
1000
0010
1000
0001
0100
0010
1000
,
0001
0010
0100
1000
0001
1000
0010
0100
0001
1000
0010
1000
0010
0100
0001
1000
,
0001
0010
0100
1000
0001
1000
0010
0100
0001
1000
0010
1000
0001
0010
0100
1000
,
0001
0100
0010
1000
0001
1000
0100
0010
0001
1000
0010
1000
0001
0010
0100
1000
,
0001
0100
0010
1000
0001
1000
0100
0010
0001
1000
0010
1000
0001
0100
0010
1000
,
0001
0010
0100
1000
0001
1000
0010
0100
0001
1000
0010
1000
0010
0100
0001
0010
,
0100
0000
0000
1000
0000
0000
0001
0000
0100
0000
0000
0001
0000
0000
0010
0000
,
0100
0000
0000
0010
0000
0000
0100
0000
1000
0000
0000
0000
0000
0000
0000
0000
,
0001
0000
0000
0100
0000
0000
0010
0000
1000
0000
0000
0010
0000
0000
0100
0000
,
0001
0000
0000
0010
0000
0000
0100
0000
1000
0000
0000
0000
0000
0000
0000
0000
,
0001
0000
0000
1000
0000
0000
0010
0000
0100
0000
0000
0010
0000
0000
1000
0000
,
1000
0000
0000
0010
0000
0000
0100
0000
0001
0000
0000
0000
0000
0000
0000
0000
,
1000
0000
0000
0100
0000
0000
1000
0000
0001
0000
0000
0010
0000
0000
0100
0000
,
0100
0000
0000
0010
0000
0000
0001
0000
1000
0000
0000
0000
1000
0010
1000
0010
,
1020
0000
0000
0230
0000
0000
0302
0000
2003
0000
0000
3002
0000
0000
0023
0000
,
0230
0000
0000
0320
0000
0000
0230
0000
2300
0000
0000
0000
0000
0000
0000
0000
,
3002
0000
0000
0203
0000
0000
0302
0000
2003
0000
0000
3020
0000
0000
2030
0000
,
3002
0000
0000
0023
0000
0000
0230
0000
2300
0000
0000
0000
3001
0100
0001
0100
,
0210
0000
0000
0302
0000
0000
2003
0000
3200
0000
0000
2300
0000
0000
3001
0000
,
0002
0000
0000
0023
0000
0000
0230
0000
2300
0000
0000
0000
3100
0010
0100
0010
,
0120
0000
0000
0032
0000
0000
2003
0000
3020
0000
0000
0230
0000
0000
0301
0000
,
0002
0000
0000
2003
0000
0000
3200
0000
0320
0000
0000
0000
0031
1000
0001
1000
,
0010
0100
0010
1000
0001
1000
0100
1000
0001
0100
0001
1000
0010
1000
0001
0010
,
0100
1000
0100
0010
0001
0010
0100
0010
0001
1000
0001
0100
0001
1000
0001
0100
,
0010
1000
0010
0100
0010
0100
0001
1000
0001
0100
0001
1000
0010
1000
0001
0010
,
0100
1000
0100
0010
0100
0010
0001
1000
0001
0100
0010
0100
0001
0100
0010
0100
,
0001
0010
0100
1000
0001
1000
0010
1000
0001
0010
0001
1000
0100
1000
0001
0100
,
0010
1000
0010
0100
0001
0100
0010
0100
0001
1000
0001
0010
0001
1000
0001
0010
,
0100
1000
0100
0010
0100
0010
0001
1000
0001
0010
0001
1000
0100
1000
0001
0100
,
0010
1000
0010
0100
0010
0100
0001
1000
0100
0010
0001
0010
0100
1000
0001
0100
,
0010
1000
0001
0010
0100
0010
0001
1000
0001
0100
0010
0100
0001
1000
0010
1000
0001
0100
0010
1000
0001
1000
0100
1000
,
0001
0010
0100
0010
0001
1000
0100
0010
0100
1000
0001
1000
0010
1000
0001
0100
0010
1000
0001
1000
0100
1000
0001
0010
,
0100
1000
0001
1000
0010
1000
0001
0100
0001
1000
0010
0100
0001
1000
0001
0010
0100
1000
0001
0010
0100
0010
0001
1000
,
0001
0100
0001
1000
0010
0100
0001
1000
0001
0100
0010
1000
0001
1000
0100
0010
0100
1000
0001
1000
0010
0100
0010
1000
,
0001
0010
0100
0010
0001
1000
0001
0100
0010
0100
0001
1000
0010
1000
0001
0100
0010
1000
0001
1000
0100
1000
0001
0010
,
0100
0010
0001
1000
0100
0010
0100
1000
0001
1000
0010
1000
0001
0100
0010
1000
0001
1000
0100
1000
0001
0010
0100
1000
,
0001
1000
0010
1000
0001
0100
0001
1000
0010
0100
0001
1000
0001
0010
0100
1000
0001
0010
0100
0010
0001
1000
0001
0100
,
0001
1000
0010
0100
0001
1000
0001
0100
0010
1000
0001
1000
0100
0010
0100
1000
0001
1000
0010
0100
0001
1000
0100
1000
,
0001
0000
0000
0000
1001
0000
0000
0000
1001
0000
0000
0000
0001
0100
0001
0100
,
0001
1000
0001
0010
0100
0010
0001
1000
0001
0100
0010
0100
0001
1000
0010
1000
0001
0100
0010
1000
0001
1000
0100
1000
,
0001
0010
0100
0010
0001
1000
0100
0010
0100
1000
0001
1000
0010
1000
0001
0100
0010
1000
0001
1000
0100
1000
0001
0010
,
0100
1000
0001
1000
0010
1000
0001
0100
0001
1000
0010
0100
0001
1000
0001
0010
0100
1000
0001
0010
0100
0010
0001
1000
,
0001
0100
0001
1000
0010
0100
0001
1000
0001
0100
0010
1000
0001
1000
0100
0010
0100
1000
0001
1000
0010
0100
0010
1000
,
0001
0010
0100
0010
0001
1000
0001
0100
0010
0100
0001
1000
0010
1000
0001
0100
0010
1000
0001
1000
0100
1000
0001
0010
,
0100
0010
0001
1000
0100
0010
0100
1000
0001
1000
0010
1000
0001
0100
0010
1000
0001
1000
0100
1000
0001
0010
0100
1000
,
0001
1000
0010
1000
0001
0100
0001
1000
0010
0100
0001
1000
0001
0010
0100
1000
0001
0010
0100
0010
0001
1000
0001
0100
,
0001
1000
0010
0100
0001
1000
0001
0100
0010
1000
0001
1000
0100
0010
0100
1000
0001
1000
0010
0100
0001
0100
0010
1000
,
0001
1000
0100
0010
0100
1000
0001
1000
0010
0100
0010
1000
0001
0100
0001
1000
0010
0100
0001
1000
0001
0010
0001
1000
,
0100
0010
0100
1000
0001
0010
0100
0010
0001
1000
0001
0100
0001
1000
0010
0100
0001
1000
0001
0010
0001
1000
0100
0010
,
0001
1000
0001
0100
0001
1000
0010
1000
0001
0100
0010
1000
0001
1000
0100
0010
0001
1000
0100
0010
0100
1000
0001
1000
,
0010
1000
0001
0100
0010
1000
0001
1000
0010
0100
0001
1000
0001
0010
0100
0010
0001
1000
0001
0100
0010
0100
0001
1000
,
0100
0010
0100
1000
0001
1000
0010
0100
0010
1000
0001
0100
0001
1000
0010
0100
0001
1000
0001
0010
0001
1000
0100
0010
,
0100
1000
0001
0010
0100
0010
0001
1000
0001
0100
0001
1000
0010
0100
0001
1000
0001
0010
0001
1000
0100
0010
0001
1000
,
0001
0100
0001
1000
0010
1000
0001
0100
0010
1000
0001
1000
0100
0010
0001
1000
0100
0010
0100
1000
0001
1000
0010
1000
,
0001
0100
0010
1000
0001
1000
0010
0100
0001
1000
0001
0010
0100
0010
0001
1000
0001
0100
0010
1000
0010
0100
0001
1000
,
0010
0100
0010
1000
0001
1000
0100
1000
0001
0100
0001
1000
0010
1000
0001
0010
,
0100
1000
0100
0010
0001
0010
0100
0010
0001
1000
0001
0100
0001
1000
0001
0100
,
0010
1000
0010
0100
0010
0100
0001
1000
0001
0100
0001
1000
0010
1000
0001
0010
,
0100
1000
0100
0010
0100
0010
0001
1000
0001
0100
0010
0100
0001
0100
0010
0100
,
0001
0010
0100
1000
0001
1000
0010
1000
0001
0010
0001
1000
0100
1000
0001
0100
,
0010
1000
0010
0100
0001
0100
0010
0100
0001
1000
0001
0010
0001
1000
0001
0010
,
0100
1000
0100
0010
0100
0010
0001
1000
0001
0010
0001
1000
0100
1000
0001
0100
,
0010
1000
0010
0100
0010
0100
0001
1000
0100
0010
0001
0010
0100
0010
0100
1000
,
0001
0100
0010
1000
0001
1000
0100
1000
0001
0100
0001
1000
0010
1000
0001
0010
,
0100
1000
0100
0010
0001
0010
0100
0010
0001
1000
0001
0100
0001
1000
0001
0100
,
0010
1000
0010
0100
0010
0100
0001
1000
0001
0100
0001
1000
0010
1000
0001
0010
,
0100
1000
0100
0010
0100
0010
0001
1000
0001
0100
0010
0100
0001
0100
0010
0100
,
0001
0010
0100
1000
0001
1000
0010
1000
0001
0010
0001
1000
0100
1000
0001
0100
,
0010
1000
0010
0100
0001
0100
0010
0100
0001
1000
0001
0010
0001
1000
0001
0010
,
0100
1000
0100
0010
0100
0010
0001
1000
0001
0010
0001
1000
0100
1000
0001
0100
,
0010
1000
0010
0100
0010
0100
0001
1000
0100
0010
0001
0010
0100
0010
0001
1000
,
1001
0000
0000
0000
0000
0000
0000
0000
2002
3003
0000
0000
0000
0000
0000
0000
1001
0000
0000
0000
0000
0000
0000
0000
1000
0000
0001
0000
1000
0000
0001
0000
,
1000
0001
1000
0100
0010
0100
1000
0001
1000
0010
0100
0010
1000
0001
0100
0001
1000
0010
0100
0001
1000
0001
0010
0001
,
1000
0100
0010
0100
1000
0001
0010
0100
0010
0001
1000
0001
0100
0001
1000
0010
0100
0001
1000
0001
0010
0001
1000
0100
,
0010
0001
1000
0001
0100
0001
1000
0010
1000
0001
0100
0010
1000
0001
1000
0100
0010
0001
1000
0100
0010
0100
1000
0001
,
1000
0010
1000
0001
0100
0010
1000
0001
1000
0010
0100
0001
1000
0001
0010
0100
0010
0001
1000
0001
0100
0010
0100
0001
,
1000
0100
0010
0100
1000
0001
1000
0010
0100
0010
1000
0001
0100
0001
1000
0010
0100
0001
1000
0001
0010
0001
1000
0100
,
0010
0100
1000
0001
0010
0100
0010
0001
1000
0001
0100
0001
1000
0010
0100
0001
1000
0001
0010
0001
1000
0100
0010
0001
,
1000
0001
0100
0001
1000
0010
1000
0001
0100
0010
1000
0001
1000
0100
0010
0001
1000
0100
0010
0100
1000
0001
1000
0010
,
1000
0001
0100
0010
1000
0001
1000
0010
0100
0001
1000
0001
0010
0100
0010
0001
1000
0001
0100
0010
1000
0010
0100
0001
,
1000
0001
0010
0100
0010
0001
1000
0001
0100
0010
0100
0001
1000
0010
1000
0001
0100
0010
1000
0001
1000
0100
1000
0001
,
0010
0100
0010
0001
1000
0100
0010
0100
1000
0001
1000
0010
1000
0001
0100
0010
1000
0001
1000
0100
1000
0001
0010
0100
,
1000
0001
1000
0010
1000
0001
0100
0001
1000
0010
0100
0001
1000
0001
0010
0100
1000
0001
0010
0100
0010
0001
1000
0001
,
0100
0001
1000
0010
0100
0001
1000
0001
0100
0010
1000
0001
1000
0100
0010
0100
1000
0001
1000
0010
0100
0010
1000
0001
,
0010
0100
0010
0001
1000
0001
0100
0010
0100
0001
1000
0010
1000
0001
0100
0010
1000
0001
1000
0100
1000
0001
0010
0100
,
0010
0001
1000
0100
0010
0100
1000
0001
1000
0010
1000
0001
0100
0010
1000
0001
1000
0100
1000
0001
0010
0100
1000
0001
,
1000
0010
1000
0001
0100
0001
1000
0010
0100
0001
1000
0001
0010
0100
1000
0001
0010
0100
0010
0001
1000
0001
0100
0001
,
1000
0010
0100
0001
1000
0001
0100
0010
1000
0001
1000
0100
0010
0100
1000
0001
1000
0010
0100
0001
0100
0010
1000
0001
,
1000
0100
0010
0001
0000
1000
0010
0100
0001
1000
0010
1000
0001
0010
0100
1000
,
0001
0100
0010
1000
0000
0001
0010
0100
1000
0001
0100
0001
1000
0100
0010
0001
,
1000
0010
0100
0001
0000
1000
0100
0010
0001
1000
0010
1000
0001
0100
0010
1000
,
0001
0010
0100
1000
0000
0001
0100
0010
1000
0001
0100
0001
0100
0010
1000
0001
,
1000
0100
0010
0001
0000
1000
0010
0100
0001
1000
0010
1000
0001
0010
0100
1000
,
0001
0100
0010
1000
0000
0001
0010
0100
1000
0001
0100
0001
1000
0100
0010
0001
,
1000
0010
0100
0001
0000
1000
0100
0010
0001
1000
0010
1000
0001
0100
0010
1000
,
0001
0010
0100
1000
0000
0001
0100
0010
1000
0001
0100
0001
0100
0010
1000
0001
,
1000
0100
0010
0001
0000
1000
0010
0100
0001
1000
0010
1000
0001
0010
0100
1000
,
0001
0100
0010
1000
0000
0001
0010
0100
1000
0001
0100
0001
1000
0100
0010
0001
,
1000
0010
0100
0001
0000
1000
0100
0010
0001
1000
0010
1000
0001
0100
0010
1000
,
0001
0010
0100
1000
0000
0001
0100
0010
1000
0001
0100
0001
0100
0010
1000
0001
,
1000
0100
0010
0001
0000
1000
0010
0100
0001
1000
0010
1000
0001
0010
0100
1000
,
0001
0100
0010
1000
0000
0001
0010
0100
1000
0001
0100
0001
1000
0100
0010
0001
,
1000
0010
0100
0001
0000
1000
0100
0010
0001
1000
0010
1000
0001
0100
0010
1000
,
0001
0010
0100
1000
0000
0001
0100
0010
1000
0001
0100
0001
0100
0010
1000
0001
;

//---------------dance-single - Mad Matt----------------
#NOTES:
     dance-single:
     Mad Matt:
     Challenge:
     20:
     1.000,1.000,0.047,0.235,1.000,1882.000,8.000,40.000,0.000,0.000:

0000
0000
0000
0000
,
0000
0000
0000
0000
,
0000
0000
0000
0000
,
0000
0000
0000
0000
,
0001
0010
0100
1000
0000
0001
0100
0010
1000
0001
0100
0001
1000
0100
0010
0001
,
1000
0010
0100
0001
0000
1000
0100
0010
0001
1000
0010
1000
0001
0010
0100
1000
,
0001
0100
0010
1000
0000
0001
0010
0100
1000
0001
0100
0001
1000
0010
0100
0001
,
1000
0100
0010
0001
0000
1000
0010
0100
0001
1000
0010
1000
0010
0100
0001
1000
,
0001
0010
0100
1000
0001
1000
0010
0100
0001
1000
0010
1000
0001
0010
0100
1000
,
0001
0100
0010
1000
0001
1000
0100
0010
0001
1000
0010
1000
0001
0010
0100
1000
,
0001
0100
0010
1000
0001
1000
0100
0010
0001
1000
0010
1000
0001
0100
0010
1000
,
0001
0010
0100
1000
0001
1000
0010
0100
0001
1000
0010
1000
0010
0100
0001
1000
,
0001
0010
0100
1000
0001
1000
0010
0100
0001
1000
0010
1000
0001
0010
0100
1000
,
0001
0100
0010
1000
0001
1000
0100
0010
0001
1000
0010
1000
0001
0010
0100
1000
,
0001
0100
0010
1000
0001
1000
0100
0010
0001
1000
0010
1000
0001
0100
0010
1000
,
0001
0010
0100
1000
0001
1000
0010
0100
0001
1000
0010
1000
0010
0100
0001
0010
,
0100
0000
0000
1000
0000
0000
0001
0000
0100
0000
0000
0001
0000
0000
0010
0000
,
0100
0000
0000
0010
0000
0000
0100
0000
1000
0000
0000
0000
0000
0000
0000
0000
,
0001
0000
0000
0100
0000
0000
0010
0000
1000
0000
0000
0010
0000
0000
0100
0000
,
0001
0000
0000
0010
0000
0000
0100
0000
1000
0000
0000
0000
0000
0000
0000
0000
,
0001
0000
0000
1000
0000
0000
0010
0000
0100
0000
0000
0010
0000
0000
1000
0000
,
1000
0000
0000
0010
0000
0000
0100
0000
0001
0000
0000
0000
0000
0000
0000
0000
,
1000
0000
0000
0100
0000
0000
1000
0000
0001
0000
0000
0010
0000
0000
0100
0000
,
0100
0000
0000
0010
0000
0000
0001
0000
1000
0000
0000
0000
1000
0010
1000
0010
,
1020
0000
0000
0230
0000
0000
0302
0000
2003
0000
0000
3002
0000
0000
0023
0000
,
0230
0000
0000
0320
0000
0000
0230
0000
2300
0000
0000
0000
0000
0000
0000
0000
,
3002
0000
0000
0203
0000
0000
0302
0000
2003
0000
0000
3020
0000
0000
2030
0000
,
3002
0000
0000
0023
0000
0000
0230
0000
2300
0000
0000
0000
3001
0100
0001
0100
,
0210
0000
0000
0302
0000
0000
2003
0000
3200
0000
0000
2300
0000
0000
3001
0000
,
0002
0000
0000
0023
0000
0000
0230
0000
2300
0000
0000
0000
3100
0010
0100
0010
,
0120
0000
0000
0032
0000
0000
2003
0000
3020
0000
0000
0230
0000
0000
0301
0000
,
0002
0000
0000
2003
0000
0000
3200
0000
0320
0000
0000
0000
0031
1000
0001
1000
,
0010
0100
0010
1000
0001
1000
0100
1000
0001
0100
0001
1000
0010
1000
0001
0010
,
0100
1000
0100
0010
0001
0010
0100
0010
0001
1000
0001
0100
0001
1000
0001
0100
,
0010
1000
0010
0100
0010
0100
0001
1000
0001
0100
0001
1000
0010
1000
0001
0010
,
0100
1000
0100
0010
0100
0010
0001
1000
0001
0100
0010
0100
0001
0100
0010
0100
,
0001
0010
0100
1000
0001
1000
0010
1000
0001
0010
0001
1000
0100
1000
0001
0100
,
0010
1000
0010
0100
0001
0100
0010
0100
0001
1000
0001
0010
0001
1000
0001
0010
,
0100
1000
0100
0010
0100
0010
0001
1000
0001
0010
0001
1000
0100
1000
0001
0100
,
0010
1000
0010
0100
0010
0100
0001
1000
0100
0010
0001
0010
0100
1000
0001
0100
,
0010
1000
0100
1000
0001
0100
0010
1000
0100
0010
0001
0100
0010
1000
0001
0100
0010
1000
0001
0010
0100
1000
0010
0100
,
0001
1000
0100
1000
0001
0100
0001
0010
0100
1000
0010
0100
0001
1000
0001
0010
0001
0100
0001
1000
0010
0100
0001
1000
,
0100
1000
0010
0100
0001
1000
0001
0010
0100
1000
0010
0100
0001
1000
0100
1000
0001
0100
0010
1000
0100
0010
0001
0100
,
0010
1000
0001
1000
0100
1000
0010
0100
0001
0010
0100
1000
0010
0100
0001
1000
0001
0010
0001
1000
0010
1000
0100
1000
,
0001
0010
0100
1000
0001
1000
0010
0100
0001
0010
0100
1000
0010
0100
0001
1000
0010
0100
0001
1000
0100
0010
0001
0100
,
0010
1000
0001
0010
0001
1000
0010
1000
0100
0010
0001
0100
0010
1000
0001
1000
0100
1000
0010
1000
0001
0100
0010
1000
,
0001
0010
0001
0100
0010
1000
0001
1000
0100
0010
0001
0100
0010
1000
0001
0010
0001
1000
0010
0100
0001
0010
0100
1000
,
0010
0100
0001
1000
0001
0010
0001
0100
0010
1000
0100
0010
0001
0100
0010
1000
0001
1000
0100
1000
0001
0100
0010
1000
,
0001
0000
0000
0000
1001
0000
0000
0000
1001
0000
0000
0000
0001
0100
0001
0100
,
0010
1000
0100
1000
0001
0100
0010
1000
0100
0010
0001
0100
0010
1000
0001
0100
0010
1000
0001
0010
0100
1000
0010
0100
,
0001
1000
0100
1000
0001
0100
0001
0010
0100
1000
0010
0100
0001
1000
0001
0010
0001
0100
0001
1000
0010
0100
0001
1000
,
0100
1000
0010
0100
0001
1000
0001
0010
0100
1000
0010
0100
0001
1000
0100
1000
0001
0100
0010
1000
0100
0010
0001
0100
,
0010
1000
0001
1000
0100
1000
0010
0100
0001
0010
0100
1000
0010
0100
0001
1000
0001
0010
0001
1000
0010
1000
0100
1000
,
0001
0010
0100
1000
0001
1000
0010
0100
0001
0010
0100
1000
0010
0100
0001
1000
0010
0100
0001
1000
0100
0010
0001
0100
,
0010
1000
0001
0010
0001
1000
0010
1000
0100
0010
0001
0100
0010
1000
0001
1000
0100
1000
0010
1000
0001
0100
0010
1000
,
0001
0010
0001
0100
0010
1000
0001
1000
0100
0010
0001
0100
0010
1000
0001
0010
0001
1000
0010
0100
0001
0010
0100
1000
,
0010
0100
0001
1000
0001
0010
0001
0100
0010
1000
0100
0010
0001
0100
0010
1000
0001
1000
0100
1000
0001
0100
0010
1000
,
0001
0010
0001
1000
0010
0100
0001
0010
0100
1000
0010
0100
0001
1000
0010
0100
0001
1000
0100
0010
0001
0100
0010
1000
,
0001
0010
0001
1000
0010
1000
0100
0010
0001
0100
0010
1000
0001
1000
0100
1000
0010
1000
0001
0100
0010
1000
0001
0010
,
0001
0100
0010
1000
0001
1000
0100
0010
0001
0100
0010
1000
0001
0010
0001
1000
0010
0100
0001
0010
0100
1000
0010
0100
,
0001
1000
0001
0010
0001
0100
0010
1000
0100
0010
0001
0100
0010
1000
0001
1000
0100
1000
0001
0100
0001
0010
0001
1000
,
0100
0010
0001
1000
0001
0100
0010
1000
0100
0010
0001
0100
0010
1000
0100
1000
0001
0100
0001
0010
0100
1000
0010
0100
,
0001
1000
0100
1000
0001
0100
0001
0010
0100
1000
0010
0100
0001
1000
0001
0010
0001
0100
0001
1000
0010
0100
0001
1000
,
0100
1000
0010
0100
0001
1000
0001
0010
0100
1000
0010
0100
0001
1000
0100
1000
0001
0100
0010
1000
0100
0010
0001
0100
,
0010
1000
0001
1000
0100
1000
0010
0100
0001
0010
0100
1000
0010
0100
0001
1000
0001
0010
0001
1000
0010
0100
0001
1000
,
0010
0100
0010
1000
0001
1000
0100
1000
0001
0100
0001
1000
0010
1000
0001
0010
,
0100
1000
0100
0010
0001
0010
0100
0010
0001
1000
0001
0100
0001
1000
0001
0100
,
0010
1000
0010
0100
0010
0100
0001
1000
0001
0100
0001
1000
0010
1000
0001
0010
,
0100
1000
0100
0010
0100
0010
0001
1000
0001
0100
0010
0100
0001
0100
0010
0100
,
0001
0010
0100
1000
0001
1000
0010
1000
0001
0010
0001
1000
0100
1000
0001
0100
,
0010
1000
0010
0100
0001
0100
0010
0100
0001
1000
0001
0010
0001
1000
0001
0010
,
0100
1000
0100
0010
0100
0010
0001
1000
0001
0010
0001
1000
0100
1000
0001
0100
,
0010
1000
0010
0100
0010
0100
0001
1000
0100
0010
0001
0010
0100
0010
0100
1000
,
0001
0100
0010
1000
0001
1000
0100
1000
0001
0100
0001
1000
0010
1000
0001
0010
,
0100
1000
0100
0010
0001
0010
0100
0010
0001
1000
0001
0100
0001
1000
0001
0100
,
0010
1000
0010
0100
0010
0100
0001
1000
0001
0100
0001
1000
0010
1000
0001
0010
,
0100
1000
0100
0010
0100
0010
0001
1000
0001
0100
0010
0100
0001
0100
0010
0100
,
0001
0010
0100
1000
0001
1000
0010
1000
0001
0010
0001
1000
0100
1000
0001
0100
,
0010
1000
0010
0100
0001
0100
0010
0100
0001
1000
0001
0010
0001
1000
0001
0010
,
0100
1000
0100
0010
0100
0010
0001
1000
0001
0010
0001
1000
0100
1000
0001
0100
,
0010
1000
0010
0100
0010
0100
0001
1000
0100
0010
0001
0010
0100
0010
0001
1000
,
1001
0000
0000
0000
0000
0000
0000
0000
2002
3003
0000
0000
0000
0000
0000
0000
1001
0000
0000
0000
0000
0000
0000
0000
1000
0000
0001
0000
1000
0000
0001
0000
,
0100
0001
0010
0001
1000
0010
0100
0001
0010
0100
1000
0010
0100
0001
1000
0010
0100
0001
1000
0100
0010
0001
0100
0010
,
1000
0001
0010
0001
1000
0010
1000
0100
0010
0001
0100
0010
1000
0001
1000
0100
1000
0010
1000
0001
0100
0010
1000
0001
,
0010
0001
0100
0010
1000
0001
1000
0100
0010
0001
0100
0010
1000
0001
0010
0001
1000
0010
0100
0001
0010
0100
1000
0010
,
0100
0001
1000
0001
0010
0001
0100
0010
1000
0100
0010
0001
0100
0010
1000
0001
1000
0100
1000
0001
0100
0001
0010
0001
,
1000
0100
0010
0001
1000
0001
0100
0010
1000
0100
0010
0001
0100
0010
1000
0001
0100
0010
1000
0001
0010
0100
1000
0010
,
0100
0001
1000
0100
1000
0001
0100
0001
0010
0100
1000
0010
0100
0001
1000
0001
0010
0001
0100
0001
1000
0010
0100
0001
,
1000
0100
1000
0010
0100
0001
1000
0001
0010
0100
1000
0010
0100
0001
1000
0100
1000
0001
0100
0010
1000
0100
0010
0001
,
0100
0010
1000
0001
1000
0100
1000
0010
0100
0001
0010
0100
1000
0010
0100
0001
1000
0001
0010
0001
1000
0010
0100
0001
,
1000
0100
1000
0001
0100
0010
1000
0100
0010
0001
0100
0010
1000
0001
0100
0010
1000
0001
0010
0100
1000
0010
0100
0001
,
1000
0100
1000
0001
0100
0001
0010
0100
1000
0010
0100
0001
1000
0001
0010
0001
0100
0001
1000
0010
0100
0001
1000
0100
,
1000
0010
0100
0001
1000
0001
0010
0100
1000
0010
0100
0001
1000
0100
1000
0001
0100
0010
1000
0100
0010
0001
0100
0010
,
1000
0001
1000
0100
1000
0010
0100
0001
0010
0100
1000
0010
0100
0001
1000
0001
0010
0001
1000
0010
1000
0100
1000
0001
,
0010
0100
1000
0001
1000
0010
0100
0001
0010
0100
1000
0010
0100
0001
0010
0001
1000
0010
1000
0100
0010
0001
0100
0010
,
1000
0001
0010
0001
1000
0010
1000
0100
0010
0001
0100
0010
1000
0001
1000
0100
1000
0010
1000
0001
0100
0010
1000
0001
,
0010
0001
0100
0010
1000
0001
1000
0100
0010
0001
0100
0010
1000
0001
0010
0001
1000
0010
0100
0001
0010
0100
1000
0010
,
0100
0001
1000
0001
0010
0001
0100
0010
1000
0100
0010
0001
0100
0010
1000
0001
1000
0100
1000
0001
0100
0010
1000
0001
,
1000
0100
0010
0001
0000
1000
0010
0100
0001
1000
0010
1000
0001
0010
0100
1000
,
0001
0100
0010
1000
0000
0001
0010
0100
1000
0001
0100
0001
1000
0100
0010
0001
,
1000
0010
0100
0001
0000
1000
0100
0010
0001
1000
0010
1000
0001
0100
0010
1000
,
0001
0010
0100
1000
0000
0001
0100
0010
1000
0001
0100
0001
0100
0010
1000
0001
,
1000
0100
0010
0001
0000
1000
0010
0100
0001
1000
0010
1000
0001
0010
0100
1000
,
0001
0100
0010
1000
0000
0001
0010
0100
1000
0001
0100
0001
1000
0100
0010
0001
,
1000
0010
0100
0001
0000
1000
0100
0010
0001
1000
0010
1000
0001
0100
0010
1000
,
0001
0010
0100
1000
0000
0001
0100
0010
1000
0001
0100
0001
0100
0010
1000
0001
,
1000
0100
0010
0001
0000
1000
0010
0100
0001
1000
0010
1000
0001
0010
0100
1000
,
0001
0100
0010
1000
0000
0001
0010
0100
1000
0001
0100
0001
1000
0100
0010
0001
,
1000
0010
0100
0001
0000
1000
0100
0010
0001
1000
0010
1000
0001
0100
0010
1000
,
0001
0010
0100
1000
0000
0001
0100
0010
1000
0001
0100
0001
0100
0010
1000
0001
,
1000
0100
0010
0001
0000
1000
0010
0100
0001
1000
0010
1000
0001
0010
0100
1000
,
0001
0100
0010
1000
0000
0001
0010
0100
1000
0001
0100
0001
1000
0100
0010
0001
,
1000
0010
0100
0001
0000
1000
0100
0010
0001
1000
0010
1000
0001
0100
0010
1000
,
0001
0010
0100
1000
0000
0001
0100
0010
1000
0001
0100
0001
0100
0010
1000
0001
;

//---------------dance-single - Mad Matt----------------
#NOTES:
     dance-single:
     Mad Matt:
     Beginner:
     14:
     1.000,1.000,0.053,0.588,1.000,1482.000,9.000,100.000,0.000,1.000:



0000
0000
0000
0000
,
0000
0000
0000
0000
,
0000
0000
0000
0000
,
0000
0000
0000
0000
,
0001
0010
0100
1000
0000
0001
0100
0010
1000
0001
0100
0001
1000
0100
0010
0001
,
1000
0010
0100
0001
0000
1000
0100
0010
0001
1000
0010
1000
0001
0010
0100
1000
,
0001
0100
0010
1000
0000
0001
0010
0100
1000
0001
0100
0001
1000
0010
0100
0001
,
1000
0100
0010
0001
0000
1000
0010
0100
0001
1000
0010
1000
0010
0100
0001
1000
,
0001
0010
0100
1000
0000
0001
0100
0010
1000
0001
0100
0001
1000
0100
0010
0001
,
1000
0010
0100
0001
0000
1000
0100
0010
0001
1000
0010
1000
0001
0010
0100
1000
,
0001
0100
0010
1000
0000
0001
0010
0100
1000
0001
0100
0001
1000
0010
0100
0001
,
1000
0100
0010
0001
0000
1000
0010
0100
0001
1000
0010
1000
0010
0100
0001
1000
,
0001
0010
0100
1000
0000
0001
0100
0010
1000
0001
0100
0001
1000
0100
0010
0001
,
1000
0010
0100
0001
0000
1000
0100
0010
0001
1000
0010
1000
0001
0010
0100
1000
,
0001
0100
0010
1000
0000
0001
0010
0100
1000
0001
0100
0001
1000
0010
0100
0001
,
1000
0100
0010
0001
0000
1000
0010
0100
0001
1000
0010
1000
0010
0100
0001
0010
,
0100
0000
0000
1000
0000
0000
0001
0000
0100
0000
0000
0001
0000
0000
0010
0000
,
0100
0000
0000
0010
0000
0000
0100
0000
1000
0000
0000
0000
0000
0000
0000
0000
,
0001
0000
0000
0100
0000
0000
0010
0000
1000
0000
0000
0010
0000
0000
0100
0000
,
0001
0000
0000
0010
0000
0000
0100
0000
1000
0000
0000
0000
0000
0000
0000
0000
,
0001
0000
0000
1000
0000
0000
0010
0000
0100
0000
0000
0010
0000
0000
1000
0000
,
1000
0000
0000
0010
0000
0000
0100
0000
0001
0000
0000
0000
0000
0000
0000
0000
,
1000
0000
0000
0100
0000
0000
1000
0000
0001
0000
0000
0010
0000
0000
0100
0000
,
0100
0000
0000
0010
0000
0000
0001
0000
1000
0000
0000
0000
1000
0010
1000
0010
,
1020
0000
0000
0230
0000
0000
0302
0000
2003
0000
0000
3002
0000
0000
0023
0000
,
0230
0000
0000
0320
0000
0000
0230
0000
2300
0000
0000
0000
0000
0000
0000
0000
,
3002
0000
0000
0203
0000
0000
0302
0000
2003
0000
0000
3020
0000
0000
2030
0000
,
3002
0000
0000
0023
0000
0000
0230
0000
2300
0000
0000
0000
3001
0100
0001
0100
,
0210
0000
0000
0302
0000
0000
2003
0000
3200
0000
0000
2300
0000
0000
3001
0000
,
0002
0000
0000
0023
0000
0000
0230
0000
2300
0000
0000
0000
3100
0010
0100
0010
,
0120
0000
0000
0032
0000
0000
2003
0000
3020
0000
0000
0230
0000
0000
0301
0000
,
0002
0000
0000
2003
0000
0000
3200
0000
0320
0000
0000
0000
0031
1000
0001
1000
,
0010
0100
0010
1000
0001
1000
0100
1000
0001
0100
0001
1000
0010
1000
0001
0010
,
0100
1000
0100
0010
0001
0010
0100
0010
0001
1000
0001
0100
0001
1000
0001
0100
,
0010
1000
0010
0100
0010
0100
0001
1000
0001
0100
0001
1000
0010
1000
0001
0010
,
0100
1000
0100
0010
0100
0010
0001
1000
0001
0100
0010
0100
0001
0100
0010
0100
,
0001
0010
0100
1000
0001
1000
0010
1000
0001
0010
0001
1000
0100
1000
0001
0100
,
0010
1000
0010
0100
0001
0100
0010
0100
0001
1000
0001
0010
0001
1000
0001
0010
,
0100
1000
0100
0010
0100
0010
0001
1000
0001
0010
0001
1000
0100
1000
0001
0100
,
0010
1000
0010
0100
0010
0100
0001
1000
0100
0010
0001
0010
0100
0010
0001
0010
,
0200
0000
0320
0032
2003
0000
3002
0203
,
0320
0000
0230
0320
2030
0000
0000
0000
,
3002
0000
0023
0032
2003
0000
3200
2300
,
3002
0000
0203
0320
2030
0000
0000
0000
,
3002
0000
0000
0000
0023
0000
0230
0000
2300
0000
0000
0000
3020
0000
0230
0300
,
0200
0000
0302
2003
3200
0000
0000
0000
,
0320
0000
0000
0000
0032
0000
0023
0000
0230
0000
0000
0000
2300
0000
3002
0003
,
0002
0000
0203
0320
0230
0000
0000
0000
,
1301
0000
0000
0000
1001
0000
0000
0000
1001
0000
0000
0000
0001
0100
0001
0100
,
0001
1000
0010
0100
0001
1000
0100
1000
0010
1000
0001
0100
0010
1000
0001
1000
,
0100
0000
0000
1000
0000
0000
0010
0000
0000
1000
0000
0000
0001
0000
0000
0100
0000
0000
0010
0000
0000
0100
0000
0000
0001
0000
0010
0000
0100
0000
1000
0000
0001
0000
1000
0000
0010
0000
0100
0000
0001
0000
1000
0000
0001
0000
0010
0000
,
0100
1000
0001
0100
0001
1000
0010
1000
0100
1000
0001
0010
0100
1000
0001
1000
,
0010
0000
0000
1000
0000
0000
0100
0000
0000
1000
0000
0000
0001
0000
0000
0010
0000
0000
0100
0000
0000
0010
0000
0000
0001
0000
1000
0000
0010
0000
1000
0000
0001
0000
1000
0000
0100
0000
0010
0000
0100
0000
1000
0000
0001
0000
1000
0000
,
0010
0100
0001
1000
0001
0010
0001
0100
0010
1000
0001
1000
0100
1000
0010
1000
,
0001
0000
0000
0010
0000
0000
0100
0000
0000
0010
0000
0000
0001
0000
0000
0100
0000
0000
0001
0000
0000
1000
0000
0000
0010
0000
0100
0000
0001
0000
1000
0000
0001
0000
0010
0000
0001
0000
0100
0000
0001
0000
1000
0000
0010
0000
1000
0000
,
0001
0010
0001
1000
0010
1000
0001
1000
0100
0010
0100
1000
0010
1000
0001
0010
,
0100
0000
0000
1000
0000
0000
0010
0000
0000
0100
0000
0000
0001
0000
0000
1000
0000
0000
0001
0000
0000
0010
0000
0000
0100
0000
1000
0000
0001
0000
1000
0000
0010
0000
0100
0000
0001
0000
1000
0000
0001
0000
0010
0000
0100
0000
1000
0000
,
0001
0100
0010
0100
0001
1000
0100
1000
0010
1000
0001
0100
0010
1000
0001
1000
,
0100
0000
0000
1000
0000
0000
0010
0000
0000
1000
0000
0000
0001
0000
0000
0100
0000
0000
0010
0000
0000
0100
0000
0000
0001
0000
0010
0000
0100
0000
1000
0000
0001
0000
1000
0000
0010
0000
0100
0000
0001
0000
1000
0000
0001
0000
0010
0000
,
0100
1000
0001
0100
0001
1000
0010
1000
0100
1000
0001
0010
0100
1000
0001
1000
,
0010
0000
0000
1000
0000
0000
0100
0000
0000
1000
0000
0000
0001
0000
0000
0010
0000
0000
0100
0000
0000
0010
0000
0000
0001
0000
1000
0000
0010
0000
1000
0000
0001
0000
1000
0000
0100
0000
0010
0000
0100
0000
1000
0000
0001
0000
1000
0000
,
0020
0000
0230
0302
2003
0000
3200
0320
,
0032
0000
2003
3020
0230
0000
0000
0000
,
0302
0000
2003
3200
0320
0000
0230
2300
,
3002
0000
0000
0000
0203
0000
0320
0000
2030
0000
0000
0000
3001
1000
0001
1000
,
0010
0100
0010
1000
0001
1000
0100
1000
0001
0100
0001
1000
0010
1000
0001
0010
,
0100
1000
0100
0010
0001
0010
0100
0010
0001
1000
0001
0100
0001
1000
0001
0100
,
0010
1000
0010
0100
0010
0100
0001
1000
0001
0100
0001
1000
0010
1000
0001
0010
,
0100
1000
0100
0010
0100
0010
0001
1000
0001
0100
0010
0100
0001
0100
0010
0100
,
0001
0010
0100
1000
0001
1000
0010
1000
0001
0010
0001
1000
0100
1000
0001
0100
,
0010
1000
0010
0100
0001
0100
0010
0100
0001
1000
0001
0010
0001
1000
0001
0010
,
0100
1000
0100
0010
0100
0010
0001
1000
0001
0010
0001
1000
0100
1000
0001
0100
,
0010
1000
0010
0100
0010
0100
0001
1000
0100
0010
0001
0010
0100
0010
0100
1000
,
0001
0100
0010
1000
0001
1000
0100
1000
0001
0100
0001
1000
0010
1000
0001
0010
,
0100
1000
0100
0010
0001
0010
0100
0010
0001
1000
0001
0100
0001
1000
0001
0100
,
0010
1000
0010
0100
0010
0100
0001
1000
0001
0100
0001
1000
0010
1000
0001
0010
,
0100
1000
0100
0010
0100
0010
0001
1000
0001
0100
0010
0100
0001
0100
0010
0100
,
0001
0010
0100
1000
0001
1000
0010
1000
0001
0010
0001
1000
0100
1000
0001
0100
,
0010
1000
0010
0100
0001
0100
0010
0100
0001
1000
0001
0010
0001
1000
0001
0010
,
0100
1000
0100
0010
0100
0010
0001
1000
0001
0010
0001
1000
0100
1000
0001
0100
,
0010
1000
0010
0100
0010
0100
0001
1000
0100
0010
0001
0010
0100
0010
0001
1000
,
1001
0000
0000
0000
0000
0000
0000
0000
2002
3003
0000
0000
0000
0000
0000
0000
1001
0000
0000
0000
0000
0000
0000
0000
1000
0000
0001
0000
1000
0000
0001
0000
,
1000
0001
0100
0010
1000
0001
0010
0001
0100
0001
1000
0010
0100
0001
1000
0001
,
0010
0000
0000
0001
0000
0000
0100
0000
0000
0001
0000
0000
1000
0000
0000
0010
0000
0000
0100
0000
0000
0010
0000
0000
1000
0000
0100
0000
0010
0000
0001
0000
1000
0000
0001
0000
0100
0000
0010
0000
1000
0000
0001
0000
1000
0000
0100
0000
,
0010
0001
1000
0010
1000
0001
0100
0001
0010
0001
1000
0100
0010
0001
1000
0001
,
0100
0000
0000
0001
0000
0000
0010
0000
0000
0001
0000
0000
1000
0000
0000
0100
0000
0000
0010
0000
0000
0100
0000
0000
1000
0000
0001
0000
0100
0000
0001
0000
1000
0000
0001
0000
0010
0000
0100
0000
0010
0000
0001
0000
1000
0000
0001
0000
,
0100
0010
1000
0001
1000
0100
1000
0010
0100
0001
1000
0001
0010
0001
0100
0001
,
1000
0000
0000
0100
0000
0000
0010
0000
0000
0100
0000
0000
1000
0000
0000
0010
0000
0000
1000
0000
0000
0001
0000
0000
0100
0000
0010
0000
1000
0000
0001
0000
1000
0000
0100
0000
1000
0000
0010
0000
1000
0000
0001
0000
0100
0000
0001
0000
,
1000
0100
1000
0001
0100
0001
1000
0001
0010
0100
0010
0001
0100
0001
1000
0100
,
0010
0000
0000
0001
0000
0000
0100
0000
0000
0010
0000
0000
1000
0000
0000
0001
0000
0000
1000
0000
0000
0100
0000
0000
0010
0000
0001
0000
1000
0000
0001
0000
0100
0000
0010
0000
1000
0000
0001
0000
1000
0000
0100
0000
0010
0000
0001
0000
,
1000
0001
0100
0010
1000
0001
0010
0001
0100
0001
1000
0010
0100
0001
1000
0001
,
0010
0000
0000
0001
0000
0000
0100
0000
0000
0001
0000
0000
1000
0000
0000
0010
0000
0000
0100
0000
0000
0010
0000
0000
1000
0000
0100
0000
0010
0000
0001
0000
1000
0000
0001
0000
0100
0000
0010
0000
1000
0000
0001
0000
1000
0000
0100
0000
,
0010
0001
1000
0010
1000
0001
0100
0001
0010
0001
1000
0100
0010
0001
1000
0001
,
0100
0000
0000
0001
0000
0000
0010
0000
0000
0001
0000
0000
1000
0000
0000
0100
0000
0000
0010
0000
0000
0100
0000
0000
1000
0000
0001
0000
0100
0000
0001
0000
1000
0000
0001
0000
0010
0000
0100
0000
0010
0000
0001
0000
1000
0000
0001
0000
,
0100
0010
1000
0001
1000
0100
1000
0010
0100
0001
1000
0001
0010
0001
0100
0001
,
1000
0000
0000
0100
0000
0000
0010
0000
0000
0100
0000
0000
1000
0000
0000
0010
0000
0000
1000
0000
0000
0001
0000
0000
0100
0000
0010
0000
1000
0000
0001
0000
1000
0000
0100
0000
1000
0000
0010
0000
1000
0000
0001
0000
0100
0000
0001
0000
,
1000
0100
1000
0001
0100
0001
1000
0001
0010
0100
0010
0001
0100
0001
1000
0100
,
0010
0000
0000
0001
0000
0000
0100
0000
0000
0010
0000
0000
1000
0000
0000
0001
0000
0000
1000
0000
0000
0100
0000
0000
0010
0000
0001
0000
1000
0000
0001
0000
0100
0000
0010
0000
1000
0000
0001
0000
1000
0000
0100
0000
0010
0000
0001
0000
,
1000
0100
0010
0001
0000
1000
0010
0100
0001
1000
0010
1000
0001
0010
0100
1000
,
0001
0100
0010
1000
0000
0001
0010
0100
1000
0001
0100
0001
1000
0100
0010
0001
,
1000
0010
0100
0001
0000
1000
0100
0010
0001
1000
0010
1000
0001
0100
0010
1000
,
0001
0010
0100
1000
0000
0001
0100
0010
1000
0001
0100
0001
0100
0010
1000
0001
,
1000
0100
0010
0001
0000
1000
0010
0100
0001
1000
0010
1000
0001
0010
0100
1000
,
0001
0100
0010
1000
0000
0001
0010
0100
1000
0001
0100
0001
1000
0100
0010
0001
,
1000
0010
0100
0001
0000
1000
0100
0010
0001
1000
0010
1000
0001
0100
0010
1000
,
0001
0010
0100
1000
0000
0001
0100
0010
1000
0001
0100
0001
0100
0010
1000
0001
,
1000
0100
0010
0001
0000
1000
0010
0100
0001
1000
0010
1000
0001
0010
0100
1000
,
0001
0100
0010
1000
0000
0001
0010
0100
1000
0001
0100
0001
1000
0100
0010
0001
,
1000
0010
0100
0001
0000
1000
0100
0010
0001
1000
0010
1000
0001
0100
0010
1000
,
0001
0010
0100
1000
0000
0001
0100
0010
1000
0001
0100
0001
0100
0010
1000
0001
,
1000
0100
0010
0001
0000
1000
0010
0100
0001
1000
0010
1000
0001
0010
0100
1000
,
0001
0100
0010
1000
0000
0001
0010
0100
1000
0001
0100
0001
1000
0100
0010
0001
,
1000
0010
0100
0001
0000
1000
0100
0010
0001
1000
0010
1000
0001
0100
0010
1000
,
0001
0010
0100
1000
0000
0001
0100
0010
1000
0001
0100
0001
0100
0010
1000
0001
;

//---------------dance-single - Mad Matt----------------
#NOTES:
     dance-single:
     Mad Matt:
     Easy:
     18:
     1.000,1.000,0.053,0.588,1.000,1650.000,9.000,100.000,0.000,1.000:



0000
0000
0000
0000
,
0000
0000
0000
0000
,
0000
0000
0000
0000
,
0000
0000
0000
0000
,
0001
0010
0100
1000
0000
0001
0100
0010
1000
0001
0100
0001
1000
0100
0010
0001
,
1000
0010
0100
0001
0000
1000
0100
0010
0001
1000
0010
1000
0001
0010
0100
1000
,
0001
0100
0010
1000
0000
0001
0010
0100
1000
0001
0100
0001
1000
0010
0100
0001
,
1000
0100
0010
0001
0000
1000
0010
0100
0001
1000
0010
1000
0010
0100
0001
1000
,
0001
0010
0100
1000
0000
0001
0100
0010
1000
0001
0100
0001
1000
0100
0010
0001
,
1000
0010
0100
0001
0000
1000
0100
0010
0001
1000
0010
1000
0001
0010
0100
1000
,
0001
0100
0010
1000
0000
0001
0010
0100
1000
0001
0100
0001
1000
0010
0100
0001
,
1000
0100
0010
0001
0000
1000
0010
0100
0001
1000
0010
1000
0010
0100
0001
1000
,
0001
0010
0100
1000
0000
0001
0100
0010
1000
0001
0100
0001
1000
0100
0010
0001
,
1000
0010
0100
0001
0000
1000
0100
0010
0001
1000
0010
1000
0001
0010
0100
1000
,
0001
0100
0010
1000
0000
0001
0010
0100
1000
0001
0100
0001
1000
0010
0100
0001
,
1000
0100
0010
0001
0000
1000
0010
0100
0001
1000
0010
1000
0010
0100
0001
0010
,
0100
0000
0000
1000
0000
0000
0001
0000
0100
0000
0000
0001
0000
0000
0010
0000
,
0100
0000
0000
0010
0000
0000
0100
0000
1000
0000
0000
0000
0000
0000
0000
0000
,
0001
0000
0000
0100
0000
0000
0010
0000
1000
0000
0000
0010
0000
0000
0100
0000
,
0001
0000
0000
0010
0000
0000
0100
0000
1000
0000
0000
0000
0000
0000
0000
0000
,
0001
0000
0000
1000
0000
0000
0010
0000
0100
0000
0000
0010
0000
0000
1000
0000
,
1000
0000
0000
0010
0000
0000
0100
0000
0001
0000
0000
0000
0000
0000
0000
0000
,
1000
0000
0000
0100
0000
0000
1000
0000
0001
0000
0000
0010
0000
0000
0100
0000
,
0100
0000
0000
0010
0000
0000
0001
0000
1000
0000
0000
0000
1000
0010
1000
0010
,
1020
0000
0000
0230
0000
0000
0302
0000
2003
0000
0000
3002
0000
0000
0023
0000
,
0230
0000
0000
0320
0000
0000
0230
0000
2300
0000
0000
0000
0000
0000
0000
0000
,
3002
0000
0000
0203
0000
0000
0302
0000
2003
0000
0000
3020
0000
0000
2030
0000
,
3002
0000
0000
0023
0000
0000
0230
0000
2300
0000
0000
0000
3001
0100
0001
0100
,
0210
0000
0000
0302
0000
0000
2003
0000
3200
0000
0000
2300
0000
0000
3001
0000
,
0002
0000
0000
0023
0000
0000
0230
0000
2300
0000
0000
0000
3100
0010
0100
0010
,
0120
0000
0000
0032
0000
0000
2003
0000
3020
0000
0000
0230
0000
0000
0301
0000
,
0002
0000
0000
2003
0000
0000
3200
0000
0320
0000
0000
0000
0031
1000
0001
1000
,
0010
0100
0010
1000
0001
1000
0100
1000
0001
0100
0001
1000
0010
1000
0001
0010
,
0100
1000
0100
0010
0001
0010
0100
0010
0001
1000
0001
0100
0001
1000
0001
0100
,
0010
1000
0010
0100
0010
0100
0001
1000
0001
0100
0001
1000
0010
1000
0001
0010
,
0100
1000
0100
0010
0100
0010
0001
1000
0001
0100
0010
0100
0001
0100
0010
0100
,
0001
0010
0100
1000
0001
1000
0010
1000
0001
0010
0001
1000
0100
1000
0001
0100
,
0010
1000
0010
0100
0001
0100
0010
0100
0001
1000
0001
0010
0001
1000
0001
0010
,
0100
1000
0100
0010
0100
0010
0001
1000
0001
0010
0001
1000
0100
1000
0001
0100
,
0010
1000
0010
0100
0010
0100
0001
1000
0100
0010
0001
0010
0100
0010
0001
0010
,
0200
0000
0320
0032
2003
0000
3002
0203
,
0320
0000
0230
0320
2030
0000
0000
0000
,
3002
0000
0023
0032
2003
0000
3200
2300
,
3002
0000
0203
0320
2030
0000
0000
0000
,
3002
0000
0000
0000
0023
0000
0230
0000
2300
0000
0000
0000
3020
0000
0230
0300
,
0200
0000
0302
2003
3200
0000
0000
0000
,
0320
0000
0000
0000
0032
0000
0023
0000
0230
0000
0000
0000
2300
0000
3002
0003
,
0002
0000
0203
0320
0230
0000
0000
0000
,
1301
0000
0000
0000
1001
0000
0000
0000
1001
0000
0000
0000
0001
0100
0001
0100
,
0001
1000
0010
0100
0001
1000
0001
0010
0001
1000
0100
0010
0001
1000
0100
0010
0001
1000
0001
0100
0001
1000
0010
0100
,
0001
1000
0001
0100
0001
1000
0010
0100
0001
1000
0001
0010
0100
1000
0001
0010
0100
1000
0001
0010
0001
1000
0100
1000
,
0001
0100
0001
1000
0001
0010
0100
1000
0001
0010
0100
1000
0001
1000
0010
1000
0001
0100
0010
1000
0001
1000
0100
1000
,
0001
0010
0100
1000
0001
0010
0100
1000
0001
0100
0001
1000
0001
0100
0010
1000
0001
0100
0010
1000
0001
1000
0010
1000
,
0001
0100
0010
1000
0001
1000
0100
1000
0001
0010
0100
1000
0001
0010
0100
1000
0001
1000
0010
1000
0001
0100
0010
1000
,
0001
1000
0010
1000
0001
0100
0010
1000
0001
1000
0100
0010
0001
1000
0100
0010
0001
1000
0100
1000
0001
0010
0001
1000
,
0010
1000
0001
1000
0100
0010
0001
1000
0100
0010
0001
1000
0001
0100
0001
1000
0010
0100
0001
1000
0001
0010
0001
1000
,
0100
0010
0001
1000
0100
0010
0001
1000
0010
1000
0001
1000
0010
0100
0001
1000
0010
0100
0001
1000
0001
0100
0010
0100
,
0001
1000
0010
0100
0001
1000
0001
0010
0001
1000
0100
0010
0001
1000
0100
0010
0001
1000
0001
0100
0001
1000
0010
0100
,
0001
1000
0001
0100
0001
1000
0010
0100
0001
1000
0001
0010
0100
1000
0001
0010
0100
1000
0001
0010
0001
1000
0100
1000
,
0001
0100
0001
1000
0001
0010
0100
1000
0001
0010
0100
1000
0001
1000
0010
1000
0001
0100
0010
1000
0001
1000
0100
1000
,
0001
0010
0100
1000
0001
0010
0100
1000
0001
0100
0001
1000
0001
0100
0010
1000
0001
0100
0010
1000
0001
0100
0010
1000
,
0002
0000
0023
0230
2300
0000
3002
0203
,
0320
0000
0230
0302
2003
0000
0000
0000
,
3200
0000
0320
0032
2003
0000
3020
0230
,
0302
0000
0000
0000
2003
0000
3200
0000
0320
0000
0000
0000
0031
1000
0001
1000
,
0010
0100
0010
1000
0001
1000
0100
1000
0001
0100
0001
1000
0010
1000
0001
0010
,
0100
1000
0100
0010
0001
0010
0100
0010
0001
1000
0001
0100
0001
1000
0001
0100
,
0010
1000
0010
0100
0010
0100
0001
1000
0001
0100
0001
1000
0010
1000
0001
0010
,
0100
1000
0100
0010
0100
0010
0001
1000
0001
0100
0010
0100
0001
0100
0010
0100
,
0001
0010
0100
1000
0001
1000
0010
1000
0001
0010
0001
1000
0100
1000
0001
0100
,
0010
1000
0010
0100
0001
0100
0010
0100
0001
1000
0001
0010
0001
1000
0001
0010
,
0100
1000
0100
0010
0100
0010
0001
1000
0001
0010
0001
1000
0100
1000
0001
0100
,
0010
1000
0010
0100
0010
0100
0001
1000
0100
0010
0001
0010
0100
0010
0100
1000
,
0001
0100
0010
1000
0001
1000
0100
1000
0001
0100
0001
1000
0010
1000
0001
0010
,
0100
1000
0100
0010
0001
0010
0100
0010
0001
1000
0001
0100
0001
1000
0001
0100
,
0010
1000
0010
0100
0010
0100
0001
1000
0001
0100
0001
1000
0010
1000
0001
0010
,
0100
1000
0100
0010
0100
0010
0001
1000
0001
0100
0010
0100
0001
0100
0010
0100
,
0001
0010
0100
1000
0001
1000
0010
1000
0001
0010
0001
1000
0100
1000
0001
0100
,
0010
1000
0010
0100
0001
0100
0010
0100
0001
1000
0001
0010
0001
1000
0001
0010
,
0100
1000
0100
0010
0100
0010
0001
1000
0001
0010
0001
1000
0100
1000
0001
0100
,
0010
1000
0010
0100
0010
0100
0001
1000
0100
0010
0001
0010
0100
0010
0001
1000
,
1001
0000
0000
0000
0000
0000
0000
0000
2002
3003
0000
0000
0000
0000
0000
0000
1001
0000
0000
0000
0000
0000
0000
0000
1000
0000
0001
0000
1000
0000
0001
0000
,
1000
0001
0100
0010
1000
0001
1000
0100
1000
0001
0010
0100
1000
0001
0010
0100
1000
0001
1000
0010
1000
0001
0100
0010
,
1000
0001
1000
0010
1000
0001
0100
0010
1000
0001
1000
0100
0010
0001
1000
0100
0010
0001
1000
0100
1000
0001
0010
0001
,
1000
0010
1000
0001
1000
0100
0010
0001
1000
0100
0010
0001
1000
0001
0100
0001
1000
0010
0100
0001
1000
0001
0010
0001
,
1000
0100
0010
0001
1000
0100
0010
0001
1000
0010
1000
0001
1000
0010
0100
0001
1000
0010
0100
0001
1000
0001
0100
0001
,
1000
0010
0100
0001
1000
0001
0010
0001
1000
0100
0010
0001
1000
0100
0010
0001
1000
0001
0100
0001
1000
0010
0100
0001
,
1000
0001
0100
0001
1000
0010
0100
0001
1000
0001
0010
0100
1000
0001
0010
0100
1000
0001
0010
0001
1000
0100
1000
0001
,
0100
0001
1000
0001
0010
0100
1000
0001
0010
0100
1000
0001
1000
0010
1000
0001
0100
0010
1000
0001
1000
0100
1000
0001
,
0010
0100
1000
0001
0010
0100
1000
0001
0100
0001
1000
0001
0100
0010
1000
0001
0100
0010
1000
0001
1000
0010
0100
0010
,
1000
0001
0100
0010
1000
0001
1000
0100
1000
0001
0010
0100
1000
0001
0010
0100
1000
0001
1000
0010
1000
0001
0100
0010
,
1000
0001
1000
0010
1000
0001
0100
0010
1000
0001
1000
0100
0010
0001
1000
0100
0010
0001
1000
0100
1000
0001
0010
0001
,
1000
0010
1000
0001
1000
0100
0010
0001
1000
0100
0010
0001
1000
0001
0100
0001
1000
0010
0100
0001
1000
0001
0010
0001
,
1000
0100
0010
0001
1000
0100
0010
0001
1000
0010
1000
0001
1000
0010
0100
0001
1000
0010
0100
0001
1000
0001
0100
0001
,
1000
0010
0100
0001
1000
0001
0010
0001
1000
0100
0010
0001
1000
0100
0010
0001
1000
0001
0100
0001
1000
0010
0100
0001
,
1000
0001
0100
0001
1000
0010
0100
0001
1000
0001
0010
0100
1000
0001
0010
0100
1000
0001
0010
0001
1000
0100
1000
0001
,
0100
0001
1000
0001
0010
0100
1000
0001
0010
0100
1000
0001
1000
0010
1000
0001
0100
0010
1000
0001
1000
0100
1000
0001
,
0010
0100
1000
0001
0010
0100
1000
0001
0100
0001
1000
0001
0100
0010
1000
0001
0100
0010
1000
0001
1000
0010
0100
0001
,
1000
0100
0010
0001
0000
1000
0010
0100
0001
1000
0010
1000
0001
0010
0100
1000
,
0001
0100
0010
1000
0000
0001
0010
0100
1000
0001
0100
0001
1000
0100
0010
0001
,
1000
0010
0100
0001
0000
1000
0100
0010
0001
1000
0010
1000
0001
0100
0010
1000
,
0001
0010
0100
1000
0000
0001
0100
0010
1000
0001
0100
0001
0100
0010
1000
0001
,
1000
0100
0010
0001
0000
1000
0010
0100
0001
1000
0010
1000
0001
0010
0100
1000
,
0001
0100
0010
1000
0000
0001
0010
0100
1000
0001
0100
0001
1000
0100
0010
0001
,
1000
0010
0100
0001
0000
1000
0100
0010
0001
1000
0010
1000
0001
0100
0010
1000
,
0001
0010
0100
1000
0000
0001
0100
0010
1000
0001
0100
0001
0100
0010
1000
0001
,
1000
0100
0010
0001
0000
1000
0010
0100
0001
1000
0010
1000
0001
0010
0100
1000
,
0001
0100
0010
1000
0000
0001
0010
0100
1000
0001
0100
0001
1000
0100
0010
0001
,
1000
0010
0100
0001
0000
1000
0100
0010
0001
1000
0010
1000
0001
0100
0010
1000
,
0001
0010
0100
1000
0000
0001
0100
0010
1000
0001
0100
0001
0100
0010
1000
0001
,
1000
0100
0010
0001
0000
1000
0010
0100
0001
1000
0010
1000
0001
0010
0100
1000
,
0001
0100
0010
1000
0000
0001
0010
0100
1000
0001
0100
0001
1000
0100
0010
0001
,
1000
0010
0100
0001
0000
1000
0100
0010
0001
1000
0010
1000
0001
0100
0010
1000
,
0001
0010
0100
1000
0000
0001
0100
0010
1000
0001
0100
0001
0100
0010
1000
0001
;
