#TITLE:Chronomia;
#SUBTITLE:;
#ARTIST:Lime;
#TITLETRANSLIT:;
#SUBTITLETRANSLIT:;
#ARTISTTRANSLIT:;
#CREDIT:owenviau1 & rparty;
#BANNER:../Banner.PNG;
#BACKGROUND:../BG.PNG;
#LYRICSPATH:;
#CDTITLE:../CDTitleRP.png;
#MUSIC:Chronomia.ogg;
#OFFSET:-0.222;
#SAMPLESTART:71.323;
#SAMPLELENGTH:15.991;
#SELECTABLE:YES;
#BPMS:0.000=227.000;
#STOPS:;
#BGCHANGES:;
// cache tags:
#FIRSTBEAT:12.000;
#LASTBEAT:557.250;
#SONGFILENAME:Songs/Index Fusion/Chronomia - [owenviau1 & rparty]/Chronomia.sm;
#HASMUSIC:1;
#HASBANNER:1;
#MUSICLENGTH:148.096;
// end cache tags

//---------------dance-single - owenviau1----------------
#NOTES:
     dance-single:
     owenviau1:
     Hard:
     17:
     1.000,1.000,0.344,0.925,1.000,1200.000,51.000,137.000,40.000,0.000:
0000
0000
0000
0000
,
0000
0000
0000
0000
,
0000
0000
0000
0000
,
0MM0
0000
2001
0000
3100
0020
0000
0000
,
0030
0000
0002
0000
1003
0020
0000
0000
,
0130
0001
0000
1000
0200
0000
0000
0000
,
0300
0020
0032
2003
,
3020
0000
2030
0000
3001
0200
0000
0300
,
0000
0000
0020
0000
0030
2000
0000
0000
,
3002
2003
3100
0010
0001
2000
0000
0000
,
0000
0000
3020
0030
0200
0300
0020
0030
,
2000
0000
3000
0000
1MM1
0000
0001
0000
1000
0000
0010
0100
0010
0000
1000
0000
,
0001
0000
0010
0000
0001
0000
1000
0000
0010
0000
0100
0001
0100
0000
0010
0000
,
1000
0001
0202
0000
0303
2020
3030
0000
,
1001
0000
1000
0000
0100
0000
0010
0000
0001
0000
1000
0010
1000
0000
0001
0000
,
0100
0000
0010
0000
0100
0000
0001
0000
1000
0000
0010
0100
0010
0000
1000
0000
,
0001
0000
0010
0000
0100
0000
1000
0000
0001
0000
1000
0100
1000
0000
0010
0000
,
0100
0000
0001
0000
1000
0000
0001
0000
0100
0000
0010
1000
0010
0000
0100
0000
,
0001
0000
1000
0000
0010
0100
0010
0000
1000
0000
0001
0010
0001
0000
1000
0000
,
0010
0100
0202
0000
0303
0220
0330
0000
,
2020
0000
0000
0000
3030
0000
2002
0000
3003
0000
0000
0000
1000
0000
0010
0100
,
0010
1000
0001
0000
1000
0100
0010
0001
1000
0010
0100
0010
1000
0001
0100
0001
,
0010
0100
1000
0001
0010
0001
0100
0010
1000
0010
0100
0001
1000
0001
0100
0010
,
0100
0001
1000
0100
1000
0010
0100
0001
1000
0001
0100
0010
1000
0001
0100
0001
,
0010
0100
1000
0001
0010
0001
0100
0010
1000
0001
0100
0001
1000
0100
0010
0001
,
0100
0001
1000
0010
0100
0010
1000
0001
0100
0001
1000
0100
0010
0001
0100
0001
,
1000
0010
0100
0001
0100
0010
1000
0001
1000
0100
0010
0001
0010
0100
1000
0001
,
0010
0001
0100
0010
0100
0001
1000
0010
1000
0001
0100
0010
1000
0010
0100
0001
,
1000
0001
0010
0100
1000
0001
0100
0010
0100
0000
0002
0000
0000
0000
1003
0000
,
0010
0100
0010
1000
0001
0010
0100
1000
0001
0100
0001
1000
0010
0100
0010
1000
,
0001
0100
0010
0100
0001
1000
0100
1000
0010
0100
0001
1000
0001
0100
0010
1000
,
0010
0100
0001
1000
0001
0010
0100
1000
0001
0010
0001
0100
0010
1000
0010
0100
,
0001
1000
0100
1000
0010
0100
0001
1000
0100
1000
0001
0010
0001
0100
0010
1000
,
0001
0100
0001
1000
0100
0010
0001
1000
0100
1000
0010
0100
0001
0100
0010
1000
,
0001
1000
0100
0010
0001
1000
0100
1000
0010
0100
0010
1000
0001
0100
0010
0100
,
0001
1000
0010
1000
0100
0010
0001
1000
0100
1000
0010
0100
0001
0100
0010
1000
,
0010
0100
0001
1000
0002
0000
0103
0000
0010
1000
0001
0100
0001
1000
0010
1000
,
0100
0010
0001
1000
0001
0000
0200
0000
0310
1000
0002
0000
0013
0000
0100
1000
,
0001
1000
0010
0100
0001
0100
0010
1000
,
0001
0000
0000
0000
0000
0000
1000
0000
0000
0000
0000
0000
010M
0000
0000
0000
0000
0000
0010
0000
0000
0000
0000
0000
0001
0000
1000
0000
0001
0000
2000
0000
0000
3000
0000
0000
0000
0000
0000
0000
0000
0000
0202
0000
0000
0003
0000
0000
,
0300
0000
2002
3000
0003
0000
1000
0000
0010
0000
0100
0000
0010
0000
1000
0000
,
0001
0000
0100
0000
0010
1000
0010
0000
0100
0000
0001
0000
1000
0000
0100
0000
,
0010
0000
0012
0000
0000
0000
2003
0000
0000
0000
3010
0100
0001
0100
0010
1000
,
0010
0100
0001
1000
0002
0000
0000
0000
0003
0000
0202
0000
0303
0000
0000
0000
,
2020
0000
0000
0000
3030
0000
2000
0000
3001
0010
0001
0100
0010
1000
0010
0100
,
0001
1000
0100
0010
0002
0000
0000
0000
0003
0000
0022
0000
0033
0000
0000
0000
,
2200
0000
0000
0000
3300
0000
2000
0000
3001
0100
0010
0100
0001
1000
0010
1000
,
0100
0010
0001
1000
0010
0100
0010
1000
0001
0100
0010
1000
0010
0100
0001
1000
,
0100
1000
0010
0100
0001
1000
0001
0010
0100
1000
0001
0010
0001
0100
0010
1000
,
0010
0100
0001
1000
0001
0100
0010
0100
0001
1000
0010
1000
0100
0010
0001
1000
,
0100
1000
0001
0010
0100
1000
0001
0010
0001
0100
0010
1000
0010
0100
0001
1000
,
0100
1000
0010
0100
0001
0100
0010
1000
0001
1000
0010
0100
0010
1000
0100
1000
,
0001
0010
0100
1000
0001
0010
0001
0100
0010
1000
0010
0100
0001
1000
0001
0010
,
0100
1000
0100
0010
0001
1000
0100
1000
0010
0100
0001
1000
0100
1000
0001
0100
,
0010
1000
0001
0100
0010
0100
0001
1000
0100
1000
0010
0100
0001
0000
2000
0000
,
3000
0000
0002
0003
0100
0010
0100
0001
1000
0000
0010
0100
0001
0000
2002
0000
,
3003
0000
0000
0000
2020
0000
0000
0000
3030
0000
0002
0000
1003
0000
0010
0100
,
0010
0000
1000
0001
0100
0010
0100
0010
0200
0000
0301
1000
0010
0000
2020
0000
,
3030
0000
0220
0000
0330
0202
0303
0000
,
0000
0001
1MM0
0000
0010
0100
0000
0001
,
0100
0001
1000
0000
0000
0010
0000
0000
,
0100
0000
0101
0000
0000
0001
0000
0000
,
1000
0000
0000
0000
0000
0000
0010
0100
0010
0000
0000
0000
0000
0000
0000
0000
0000
0000
1000
0000
0000
0000
0000
0000
,
0000
0010
0100
0000
0000
0000
0000
0000
,
0000
0000
0000
0000
0004
0003
0000
0000
0000
0000
0000
0000
0000
0000
0000
0000
,
0000
0000
0000
0000
4M24
3033
0000
0000
0000
0000
0000
0000
2000
0000
0000
0000
,
0000
0000
0000
0000
0000
0000
0000
0000
3020
0000
0000
0000
0000
0000
0000
0000
0000
0000
0000
0000
0000
0000
0000
0000
M230
M000
M000
M000
M000
M000
M000
M000
,
M000
M000
M000
M000
M000
M000
M300
0000
0001
0000
0000
0000
0010
0000
0000
0000
0001
0000
0000
0000
0100
0000
0000
0000
0020
0000
0000
0000
1030
0000
0000
0000
,
0002
0000
1003
0000
0200
0000
0310
0000
0001
0000
4000
3010
1000
0000
0004
0000
,
0103
0000
0010
0000
0400
0000
0301
0000
1000
0000
0010
0100
0010
0000
1000
0000
,
0002
0000
0013
0000
0200
0000
1300
0000
0002
0000
1003
0010
2000
0000
3100
0000
,
0020
0000
0031
0000
1M02
0000
1003
0000
0010
0000
0100
0001
0100
0000
0020
0000
,
1030
0000
0001
0000
2000
0000
3100
0000
0010
0000
0004
0103
0001
0000
1000
0000
,
0040
0000
0430
0000
0310
0000
1000
0000
0001
0000
1000
0010
1000
0000
0001
0000
,
0100
0000
0010
0000
0200
0000
0301
0000
2000
0000
3010
0100
0020
0000
1030
0000
,
0002
0000
0013
0000
M120
0000
0130
0000
1000
0000
0001
0010
0001
0000
0200
0000
,
0310
0000
1000
0000
0002
0000
0013
0000
0100
0000
4000
3001
1000
0000
0010
0000
,
0400
0301
2MM2
0000
3003
2M20
0000
3030
,
2MM2
0M00
0000
0000
0000
0000
3000
0003
1000
0000
0100
0010
0001
0000
1000
0000
,
0020
0000
0230
0300
0201
0000
0301
0000
1000
0000
0020
0130
0010
0000
1000
0000
,
0002
0000
1003
0000
0200
0000
0310
0000
0001
0000
2000
3010
1000
0000
0001
0000
,
0200
0000
0320
0000
0430
0000
0301
0000
1000
0000
0100
0010
0100
0000
1000
0000
,
0004
0000
0103
0000
0004
0000
1003
0000
0020
0000
0130
0001
0200
0000
0310
0000
,
2000
0000
3200
0310
0002
0000
1003
0000
0010
0000
2000
3001
1000
0000
0100
0000
,
0020
0000
0031
0000
2000
0000
3001
0000
0100
0000
0020
1030
0010
0000
0100
0000
,
0002
0000
1003
0000
0200
0000
1300
0000
0001
0000
0400
0310
0100
0000
0001
0000
,
4000
0000
3100
0000
4000
0000
3001
0000
0100
0000
0010
1000
0010
0000
0100
0000
,
0002
0000
2003
0000
3001
0000
0010
0000
0100
0000
2000
3010
1000
0000
0001
0000
,
0200
0000
0301
0000
2000
0000
3100
0000
0010
0000
0002
1003
0001
0000
0100
0000
,
0020
1030
1001
0001
0100
0110
0010
1000
,
1100
0000
0100
0000
0010
0000
0001
1000
0010
0000
0100
0000
0001
0000
0100
0000
,
0010
1000
1002
0000
0000
0000
0000
0000
,
0000
0000
0000
0000
4003
3000
0000
0000
0000
0000
0000
0000
0000
0000
0000
0000
,
0010
0100
M1M1
0000
0000
0000
0000
0000
,
0001
0100
0010
0000
0000
0000
0000
0000
,
1000
0100
0010
0000
0000
0000
0000
0000
,
0000
0000
0000
0000
0000
0000
0000
0001
,
1000
0001
0100
0000
0000
0000
0000
0010
,
1000
0001
1000
0000
0000
0000
0100
0000
,
0000
0000
0010
0000
0000
0001
0000
0000
,
1000
0020
0000
0000
,
0000
0000
1030
0100
0010
0001
1000
0001
,
0100
0010
1000
0001
0100
0001
1000
0100
,
0010
0001
0100
0010
1000
0010
0100
0001
,
1000
0100
0010
0001
1000
0100
1000
0001
,
0100
0000
0010
0000
1010
0000
1000
0000
0001
0000
0100
0010
0100
0001
1000
0000
,
0100
0000
0010
0000
0001
0000
1000
0010
1000
0001
0100
0000
0010
0000
1000
0000
,
0001
0100
0110
00M0
0000
0010
0000
0000
,
2000
0000
0000
3000
,
0100
0000
0010
0000
0001
1000
0010
0100
0001
1000
0010
0100
0010
1000
0001
0010
,
0100
1000
0001
0100
0010
1000
0001
0010
0001
0100
0010
1000
0010
0100
0001
1000
,
0001
0100
0010
0100
0001
1000
0010
1000
0100
0010
0001
1000
0100
1000
0001
0010
,
0100
1000
0001
0010
0001
0100
0010
1000
0010
0100
0001
1000
0100
1000
0010
0100
,
0001
0100
0010
1000
0001
1000
0010
0100
0010
1000
0100
1000
0001
0010
0100
1000
,
0001
0010
0001
0100
0010
1000
0010
0100
0001
1000
0001
0010
0100
1000
0100
0010
,
0001
1000
0100
1000
0010
0100
0001
1000
0100
1000
0001
0100
0010
1000
0001
0100
,
0010
0100
0001
1000
0100
1000
0010
0100
0001
1000
0100
1000
0010
0100
0001
1000
,
0010
0100
0010
1000
0001
1000
0100
0010
0001
1000
0100
1000
0010
0100
0001
1000
,
0001
0100
0010
0100
0001
1000
0100
0010
0100
1000
0001
0100
0010
1000
0010
0100
,
0001
1000
0001
0100
0010
0100
0001
1000
0100
1000
0010
0100
0001
1000
0100
1000
,
0001
0010
0100
1000
0001
0010
0001
0100
0010
1000
0010
0100
0001
1000
0001
0010
,
0100
1000
0010
1000
0002
0000
0000
0000
0003
0000
0202
0000
0000
0000
0303
0000
,
0010
1000
0010
0100
0001
1000
0001
0100
0010
0100
0001
1000
0100
0010
0001
1000
,
0100
1000
0001
0100
0020
0000
0000
0000
0000
0000
2030
0000
0000
0000
0000
0000
,
3002
0000
0000
1003
0000
0000
0100
0010
0001
2000
0000
0000
,
0000
0000
0000
0000
3010
0100
0001
0000
1000
0000
0100
0010
0001
0000
1000
0000
,
0010
0100
0001
0000
1000
0000
0100
0010
0001
0000
1000
0000
0010
1000
0001
0000
,
0100
0000
0010
1000
0010
0000
0100
0000
0001
1000
0001
0000
0010
0000
0100
1000
,
0001
0000
0100
0000
0001
1000
0010
0000
0100
0000
0001
1000
0001
0000
0100
0000
,
0010
1000
0010
0000
0100
0000
0001
1000
0001
0000
0010
0000
0100
1000
0100
0000
,
0010
0000
0001
1000
0010
0000
0100
0000
0001
1000
0100
0000
1000
0000
0010
0100
,
0001
0000
1000
0000
0001
0010
0100
0000
1000
0000
0010
0100
0010
0000
1000
0000
,
0001
0100
0010
0000
1000
0000
0001
0010
0001
0100
0010
1000
0001
0100
0001
1000
,
0010
0100
0002
0000
0003
0000
0000
0000
0000
M0MM
0000
0000
0000
0000
0000
0000
,
0000
2002
0000
0000
,
0000
0M00
0000
0000
,
0000
0000
0000
0000
0000
0M00
00M0
0000
0000
0000
0000
0000
0000
0000
0000
0000
,
0000
0000
0000
0000
,
0000
0000
0000
0000
,
0000
0000
0000
0000
0000
3003
0000
0000
0000
0000
0000
0000
0000
0000
0000
0000
;

//---------------dance-single - Rparty----------------
#NOTES:
     dance-single:
     Rparty:
     Challenge:
     20:
     1.000,1.000,0.614,0.182,1.000,1413.000,91.000,27.000,0.000,18.000:
0000
0000
0000
0000
,
0000
0000
0000
0000
,
0000
0000
0000
0000
,
0000
1001
0000
0000
,
0000
0000
1100
0000
0000
0011
0000
0000
,
1010
0100
0000
0010
0001
0000
0000
0000
,
0000
1001
0010
0100
,
1000
0000
1001
0000
1000
0001
0100
0000
,
0000
0000
1010
0000
0000
0101
0000
0000
,
0011
0100
0000
1000
0010
0100
0000
0000
,
0000
0001
0010
0100
,
1000
0000
1001
0000
0001
0100
0010
0000
,
0000
0000
1010
0000
0000
0101
0000
0000
,
0001
0000
1100
0000
0000
0011
0000
0000
,
2002
0000
3003
0000
,
0001
0010
0100
0000
0000
1000
0000
0000
,
0010
0000
0100
0000
0000
0001
0000
0000
,
0010
0200
0000
0000
,
1300
2000
0000
0000
0000
0000
0000
0000
,
3000
0000
0000
0000
0000
0000
0000
0000
1102
0003
0000
0000
0000
0000
0000
0000
0000
0000
0000
0000
1210
0300
0000
0000
0000
0000
0000
0000
0000
0000
0000
0000
,
0121
0030
0000
0000
0000
0000
0000
0000
0000
0000
0000
0000
2011
3000
0000
0000
0000
0000
0000
0000
0000
0000
0000
0000
1000
0000
0100
0000
0010
0000
0001
0000
,
0100
0010
1000
0001
1000
0001
0010
0100
1000
0100
0010
0001
0100
0010
1000
0001
,
0010
0100
1000
0010
0100
0001
0010
0100
1000
0100
0010
0001
0100
0010
0100
0001
,
1000
0010
0100
0010
1000
0001
0010
0100
1000
0100
0010
0001
0100
0010
1000
0001
,
0010
0001
0100
0010
1000
0100
0010
0001
0100
0010
1000
0001
0010
0100
1000
0010
,
0100
0001
1000
0100
0010
0100
1000
0001
0010
0100
1000
0010
0100
0001
0100
0010
,
1000
0001
0100
0001
1000
0010
1000
0010
0100
0001
0010
0100
1000
0100
0010
0001
,
0100
0001
1000
0010
1000
0010
0100
0010
1000
0100
0010
0100
0010
0001
0100
0010
,
1000
0001
0010
0100
1000
0010
0100
0001
1000
0100
0010
0001
0100
0010
1000
0010
,
0100
0001
1000
0010
1000
0010
0100
0001
1000
0100
0010
0001
0010
0100
1000
0010
,
0100
0001
0010
0100
1000
0100
0010
0001
0100
0010
1000
0100
0010
0001
0100
0010
,
1000
0001
0010
0100
1000
0100
0010
0001
0100
0010
1000
0001
0010
0100
0010
0001
,
1000
0100
0010
0100
1000
0001
0010
0100
1000
0010
0100
0001
1000
0001
0100
0010
,
1000
0100
0010
0001
0100
0010
0100
0001
0010
0100
0010
0001
1000
0010
0100
0010
,
1000
0001
1000
0100
0010
0001
0010
0100
1000
0010
0100
0001
1000
0100
0010
0001
,
0100
0010
1000
0001
0010
0100
0010
0001
1000
0100
0010
0100
1000
0001
0010
0001
,
0100
0010
1000
0100
0010
0001
0010
0100
1000
0010
0100
0001
0100
0010
1000
0100
,
0010
0001
0010
0100
1000
0010
0100
0001
1000
0010
0100
0001
0100
0010
1000
0100
,
0010
0001
0010
0100
1000
0001
0100
0010
1000
0100
0010
0001
0010
0100
1000
0010
,
0100
0000
0000
0010
0000
0000
1000
0000
0000
0100
0000
0000
0010
0000
0000
0001
0000
0000
1000
0000
0100
0000
0010
0000
0001
0000
0000
0000
0000
0000
1100
0000
0000
0000
0000
0000
0000
0000
0000
0000
0000
0000
0011
0000
0000
0000
0000
0000
,
0000
0000
1001
0000
0000
0000
1000
0001
0100
0010
1000
0100
0010
0001
0010
0100
,
1000
0010
0100
0001
0100
0010
1000
0100
0010
0100
1000
0001
0010
0100
1000
0010
,
0100
0000
0002
0000
0000
0000
2003
0000
0000
0000
3010
1000
0100
0010
0100
1000
,
0001
0010
0100
0000
1001
0000
0000
0000
0000
0000
1100
0000
0000
0000
0000
0000
,
0101
0000
0000
0000
0000
0000
0000
0000
0000
0000
0000
0000
0000
0000
0000
0000
0000
0000
1001
0000
0000
0000
0000
0000
0001
0000
0010
0000
0100
0000
1000
0000
0001
0000
0010
0000
0100
0000
1000
0000
0010
0000
0100
0000
0000
0001
0000
0000
,
1000
0010
0100
0000
1001
0000
0000
0000
0000
0000
1100
0000
0000
0000
0000
0000
,
0101
0000
0000
0000
0000
0000
0000
0000
0000
1010
0000
0000
1000
0100
0010
0001
0100
0010
1000
0001
0010
0100
1000
0001
,
0100
0000
0010
0000
1000
0000
0100
0000
0010
0000
0001
0000
1000
0000
0000
0010
0000
0000
0100
0000
0000
0001
0000
0000
0010
0000
0000
0100
0000
0000
1000
0000
0000
0010
0000
0000
0100
0000
0000
0001
0000
0000
1000
0000
0000
0100
0000
0000
,
0010
0001
0010
0100
1000
0010
0100
0001
0100
0010
1000
0010
0100
0001
0010
0100
,
1000
0100
0010
0001
1000
0010
0100
0001
0010
0100
1000
0100
0010
0001
1000
0100
,
1000
0010
0100
0001
0010
0100
1000
0100
0010
0001
0100
0010
1000
0001
0010
0100
,
1000
0100
0010
0001
0100
0010
1000
0100
1000
0100
0010
0100
0010
0001
0010
0100
,
1000
0010
0100
0001
0010
0100
1000
0010
0100
0001
0010
0100
1000
0100
0010
0100
,
1000
0001
0010
0100
1000
0100
0010
0001
1000
0100
0010
0100
1000
0001
0010
0100
,
1000
0100
0010
0001
1000
0100
0010
0100
0010
0001
0010
0100
0010
0100
1000
0001
,
0010
0100
1000
0010
1000
0001
1000
0001
1000
0000
0000
0000
0000
0000
0011
0000
,
0000
0000
0000
0000
1100
0000
0000
0000
0000
0000
0101
0000
0001
0010
0100
1000
,
0010
0100
0001
1000
0001
1000
0001
1000
0001
0000
0000
0000
0000
0000
1100
0000
,
0000
0000
0011
0000
0000
1010
0020
0000
,
0000
0130
1001
0001
0010
0100
1000
0000
,
0100
0010
0001
1000
0010
0100
0001
0000
,
0100
0000
0011
0000
0000
1010
0000
0000
,
0100
0000
0000
0000
0000
0000
0000
0000
0000
0000
0000
0000
0000
0000
0000
0000
0000
0000
0000
0000
0000
0000
0000
0000
0010
0000
0000
0001
0000
0000
0000
0000
0010
0000
0000
0000
0000
0000
0000
0000
0000
0000
0000
0000
0000
0000
0000
0000
0000
0000
0000
0000
0000
0000
0000
0000
0000
0000
0000
0000
0000
0000
0000
0000
0000
0000
0000
0000
0000
0000
0000
0000
0100
0000
0000
0000
0000
0000
0000
0000
0000
0000
0000
0000
0000
0000
0000
0000
0000
0000
0000
0000
0000
0000
0000
0000
,
0000
1000
2000
0000
0000
0000
0000
0000
,
0000
3001
0000
0000
,
0000
1000
0000
1100
,
0000
0110
0000
0011
,
0000
0000
0000
0000
1000
0100
0010
0001
0010
0100
1000
0010
0100
0001
0010
0100
,
1000
0010
0100
0001
1000
0100
0010
0100
1000
0001
0010
0100
0010
0100
1000
0001
,
0100
0010
1000
0100
0010
0100
1000
0001
0010
0100
1000
0001
0100
0010
1000
0010
,
0100
0001
1000
0100
0010
0100
1000
0001
0010
0100
1000
0010
0100
0001
1000
0010
,
0100
0010
1000
0100
0010
0001
0010
0100
1000
0001
0100
0010
1000
0010
0100
0001
,
1000
0100
0010
0100
1000
0001
0100
0010
1000
0100
0010
0100
1000
0001
0010
0100
,
1000
0001
0010
0100
1000
0100
0010
0001
1000
0100
0010
0001
1000
0001
0010
0100
,
1000
0100
0010
0001
1000
0001
0010
0100
1000
0100
0010
0001
0100
0010
1000
0010
,
0100
0001
0100
0010
1000
0010
0100
0001
0010
0100
1000
0100
0010
0001
1000
0010
,
0100
0001
0010
0100
1000
0001
0100
0010
0100
0001
1000
0100
0010
0001
0100
0010
,
1000
0001
0010
0100
1000
0100
0010
0001
0100
0010
1000
0010
0100
0001
0010
0100
,
0010
0001
1000
0100
0010
0001
1000
0010
0100
0001
1000
0010
0100
0001
0010
0100
,
1000
0010
0100
0010
1000
0100
0010
0001
0010
0001
0100
0010
1000
0100
0010
0001
,
1000
0010
0100
0001
0100
0010
1000
0100
0010
0100
1000
0001
0010
0100
1000
0010
,
0100
0001
1000
0100
0010
0100
1000
0001
0010
0100
1000
0010
0100
0001
1000
0100
,
0010
0001
0100
0010
1000
0001
0010
0100
1000
0010
0100
0001
1000
0100
0010
0001
,
1000
0010
0100
0001
0010
0100
1000
0100
0010
0100
1000
0001
0010
0100
1000
0010
,
0100
0010
1000
0100
0010
0001
0010
0100
1000
0001
0100
0010
1000
0010
0100
0010
,
1000
0000
0001
0000
0010
0000
0100
0000
2000
3000
0100
0000
0010
0000
0001
0000
0100
0000
0010
0000
0200
0300
0001
0000
1000
0000
0010
0000
0100
0000
0001
0000
,
2000
3000
0001
0000
0010
0000
0100
0000
0020
0030
1000
0000
0100
0000
0010
0000
0001
0000
0010
0000
0200
0300
1000
0000
0001
0000
0100
0000
0010
0000
1000
0000
,
0100
0010
0001
0010
0100
1000
0001
0010
0100
0010
0001
1000
0010
0100
0001
1000
,
0100
0010
0100
1000
0001
0010
0100
1000
0001
0100
0001
1000
0010
1000
0010
0100
,
0010
1000
0100
0010
0100
1000
0010
0100
0001
0010
0100
1000
0010
0100
0001
1000
,
0100
0010
0001
0010
0100
1000
0001
0100
0010
1000
0100
0010
0001
0100
0010
1000
,
0001
0100
0010
1000
0002
0000
0000
0000
0000
0000
0000
0000
0000
0000
0000
0000
,
0000
1003
0000
0000
,
0001
0010
1100
0010
0001
0100
0010
1000
,
0001
0010
0100
0010
0001
1000
0010
0100
,
0001
0010
0100
1000
0100
0010
0001
0100
,
0010
1000
0001
0010
0100
1000
0100
0010
,
0001
1000
0001
0010
0100
1000
0010
0100
,
0001
1000
0100
0010
0001
0010
0100
1000
,
0001
0100
0010
1000
0100
0010
0001
0010
,
0100
1000
0010
0100
0001
1000
0010
0100
,
0001
0010
0100
1000
0001
0100
0010
0100
,
0001
1000
0100
0010
0100
1000
0001
0010
,
0100
1000
0010
0100
0001
1000
0100
0010
,
0100
1000
0001
0010
0100
1000
0100
0010
,
0001
0000
1000
0000
0001
0000
0100
0000
0010
0000
1000
0100
0010
0001
1000
0000
,
0001
0000
0100
0000
0010
0000
0100
0000
0001
0000
1000
0100
0010
0001
0010
0000
,
0100
1000
1002
0000
0000
0023
0000
0000
,
0230
0000
0000
0300
,
1000
0000
0010
0000
1000
0100
0010
0100
1000
0001
0010
0100
1000
0100
0010
0001
,
0100
0010
1000
0001
0010
0100
1000
0010
0100
0001
1000
0100
0010
0100
1000
0001
,
0010
0100
1000
0010
0100
0001
1000
0100
0010
0100
1000
0010
0100
0001
0010
0001
,
0100
0010
1000
0100
1000
0010
0100
0010
1000
0001
0010
0001
0100
0010
1000
0001
,
0100
0010
1000
0100
0010
0001
0100
0010
1000
0001
0010
0100
1000
0010
0100
0010
,
1000
0100
0010
0001
0010
0100
0010
0001
0100
0010
1000
0010
0100
0001
0100
0010
,
1000
0100
0010
0001
0100
0010
1000
0001
0010
0100
1000
0001
0100
0010
1000
0001
,
0010
0100
1000
0010
0100
0001
1000
0100
0010
0001
0010
0100
1000
0001
0010
0100
,
1000
0010
0100
0001
1000
0100
0010
0001
1000
0100
0010
0001
0100
0010
1000
0001
,
0010
0001
0100
0010
0100
0001
1000
0100
1000
0010
0100
0001
0010
0100
1000
0100
,
0010
0001
0100
0010
1000
0001
0010
0100
1000
0100
0010
0001
0100
0010
1000
0001
,
0100
0010
1000
0100
0010
0001
0010
0100
1000
0010
0100
0001
1000
0100
0010
0001
,
0010
0100
1000
0010
0100
0001
0010
0100
1000
0100
0010
0001
1000
0010
0100
0001
,
0010
0100
0010
0001
1000
0010
0100
0010
1000
0100
0010
0001
0010
0100
1000
0010
,
0100
0001
0010
0100
2000
0000
0000
0000
0000
0000
3200
0000
0000
0000
0000
0000
,
0320
0000
0000
0000
0000
0000
0031
0000
0010
0000
0100
0000
1000
0000
0010
0000
0100
0000
0001
0000
0000
1000
0000
0000
,
0010
0100
0101
0101
0000
1100
1100
0000
,
1010
1010
0000
0011
0011
0000
1010
1010
,
0000
1001
1001
0000
0101
0101
0000
0110
,
0110
0000
1001
1001
0000
1100
0011
1100
,
0011
1100
0000
0101
0101
0000
1010
1010
,
0000
0011
0011
0000
1100
1100
0000
1001
,
1001
0000
1011
1011
0000
1101
1101
0000
,
1110
1110
0000
1111
1111
1111
1111
1111
,
1111
1111
0000
0000
0000
0000
0000
0000
,
0000
2002
0000
0000
,
0000
0010
0000
3003
,
0000
0000
0000
0000
0000
0000
1000
0100
0010
0002
0000
0000
0000
0000
0000
0000
0000
0000
0000
0000
0000
0000
0000
0000
,
0000
0000
0000
0000
,
0000
0000
0000
0000
,
0000
0003
0000
0000
;

//---------------dance-single - Rparty EX----------------
#NOTES:
     dance-single:
     Rparty EX:
     Edit:
     33:
     1.000,1.000,0.641,0.182,1.000,1703.000,95.000,27.000,0.000,20.000:
0000
0000
0000
0000
,
0000
0000
0000
0000
,
0000
0000
0000
0000
,
0000
0000
1001
0000
1000
0010
0000
0000
,
0000
0000
1100
0000
0100
0011
0000
0000
,
1010
0100
0000
0010
0001
0000
0000
0000
,
0000
1001
0010
0100
,
1000
0000
1001
0000
1000
0001
0100
0000
,
0000
0000
1010
0000
0010
0101
0000
0000
,
0011
0100
0001
1000
0010
0100
0000
0000
,
0000
0000
0001
1000
0010
1000
0100
0010
,
0001
0000
1000
0000
1001
0000
0001
0000
1000
0000
0010
0100
0001
0100
0010
0000
,
1000
0000
0010
0000
1010
0000
0100
0000
0010
0000
0001
0010
0100
1000
0001
0000
,
0101
1000
1100
0010
0001
0011
1000
0001
,
2002
0000
0000
0000
0000
0000
0000
0000
3103
0000
1000
0010
0100
0000
0001
0000
,
0001
0000
0010
0000
0100
0000
1000
0000
0010
0000
1000
0001
0100
0000
0010
0000
,
1000
0000
0001
0000
0100
0000
0001
0000
1000
0000
0001
0010
0100
1000
0001
0000
,
0010
0100
0200
0000
0000
0000
0000
0000
,
1300
2000
0000
0000
0000
0000
0000
0000
,
3000
0000
0000
0000
0000
0000
0000
0000
1102
0003
0000
0000
0000
0000
0000
0000
0000
0000
0000
0000
1210
0300
0000
0000
0000
0000
0000
0000
0000
0000
0000
0000
,
0121
0030
0000
0000
0000
0000
0000
0000
0000
0000
0000
0000
2011
3000
0000
0000
0000
0000
0000
0000
0000
0000
0000
0000
1000
0000
0100
0000
0010
0000
0001
0000
,
0100
0010
1000
0001
1000
0001
0010
0100
1000
0100
0010
0001
0100
0010
1000
0001
,
0010
0100
1000
0010
0100
0001
0010
0100
1000
0100
0010
0001
0100
0010
0100
0001
,
1000
0010
0100
0010
1000
0001
0010
0100
1000
0100
0010
0001
0100
0010
1000
0001
,
0010
0001
0100
0010
1000
0100
0010
0001
0100
0010
1000
0001
0010
0100
1000
0010
,
0100
0001
1000
0100
0010
0100
1000
0001
0010
0100
1000
0010
0100
0001
0100
0010
,
1000
0001
0100
0001
1000
0010
1000
0010
0100
0001
0010
0100
1000
0100
0010
0001
,
0100
0001
1000
0010
1000
0010
0100
0010
1000
0100
0010
0100
0010
0001
0100
0010
,
1000
0001
0010
0100
1000
0010
0100
0001
1000
0100
0010
0001
0100
0010
1000
0010
,
0100
0001
1000
0010
1000
0010
0100
0001
1000
0100
0010
0001
0010
0100
1000
0010
,
0100
0001
0010
0100
1000
0100
0010
0001
0100
0010
1000
0100
0010
0001
0100
0010
,
1000
0001
0010
0100
1000
0100
0010
0001
0100
0010
1000
0001
0010
0100
0010
0001
,
1000
0100
0010
0100
1000
0001
0010
0100
1000
0010
0100
0001
1000
0001
0100
0010
,
1000
0100
0010
0001
0100
0010
0100
0001
0010
0100
0010
0001
1000
0010
0100
0010
,
1000
0001
1000
0100
0010
0001
0010
0100
1000
0010
0100
0001
1000
0100
0010
0001
,
0100
0010
1000
0001
0010
0100
0010
0001
1000
0100
0010
0100
1000
0001
0010
0001
,
0100
0010
1000
0100
0010
0001
0010
0100
1000
0010
0100
0001
0100
0010
1000
0100
,
0010
0000
0000
0001
0000
0000
0010
0000
0000
0100
0000
0000
1000
0000
0000
0000
0000
0000
0001
0000
0010
0000
0100
0000
1000
0000
0001
0000
0100
0000
0010
0000
1000
0000
0100
0000
0010
0000
0001
0000
0010
0000
0100
0000
1000
0000
0001
0000
,
0100
0010
1000
0100
0010
0001
0010
0100
1000
0001
0100
0010
1000
0100
0010
0001
1000
0001
0100
0001
1000
0010
0100
0001
,
1000
0000
0000
0100
0000
0000
0011
0000
0000
0001
0010
0100
1000
0000
0000
1001
0000
0000
0000
0000
0000
0011
0000
0000
,
0000
0000
1001
0000
0000
0000
1000
0001
0100
0010
1000
0100
0010
0001
0010
0100
,
1000
0010
0100
0001
0100
0010
1000
0100
0010
0100
1000
0001
0010
0100
1000
0010
,
0100
0000
0000
0002
0000
0000
0000
0000
0000
2003
0000
0000
0000
0000
0000
3010
1000
0001
0100
0010
1000
0100
0010
0001
,
0010
0100
1000
0100
0000
0000
1001
0000
0000
1001
0000
0000
0000
0000
0000
1100
0000
0000
0000
0000
0000
0000
0000
0000
,
0101
0000
0000
0101
0000
0000
0000
0000
0000
1001
0000
0000
0001
0010
0100
1000
0001
0010
0100
1000
0010
0100
0001
1000
,
0100
0010
0001
0010
0100
1000
0001
0000
0000
1001
0000
0000
0000
0000
0000
1100
0000
0000
0000
0000
0000
0000
0000
0000
,
0101
0000
0000
0101
0000
0000
0000
0000
0000
1010
0000
0000
1000
0100
0010
0001
0100
0010
1000
0001
0010
0100
1000
0001
,
0100
0000
0010
0000
1000
0000
0100
0000
0010
0000
0001
0000
1000
0000
0000
0010
0000
0000
0100
0000
0000
0001
0000
0000
0010
0000
0000
0100
0000
0000
1000
0000
0000
0010
0000
0000
0100
0000
0000
0001
0000
0000
1000
0000
0000
0100
0000
0000
,
0010
0001
0010
0100
1000
0010
0100
0001
0100
0010
1000
0010
0100
0001
0010
0100
,
1000
0100
0010
0001
1000
0010
0100
0001
0010
0100
1000
0100
0010
0001
1000
0100
,
1000
0010
0100
0001
0010
0100
1000
0100
0010
0001
0100
0010
1000
0001
0010
0100
,
1000
0100
0010
0001
0100
0010
1000
0100
1000
0100
0010
0100
0010
0001
0010
0100
,
1000
0010
0100
0001
0010
0100
1000
0010
0100
0001
0010
0100
1000
0100
0010
0100
,
1000
0001
0010
0100
1000
0100
0010
0001
1000
0100
0010
0100
1000
0001
0010
0100
,
1000
0100
0010
0001
1000
0100
0010
0100
0010
0001
0010
0100
0010
0100
1000
0001
,
0010
0100
1000
0010
1000
0001
1000
0001
1000
0000
1000
0010
1000
0000
1010
0000
,
0010
0000
0100
0000
0101
0000
0001
0000
0100
0000
0101
0000
0001
0010
0100
1000
,
0010
0100
0001
1000
0001
1000
0001
1000
0001
0000
1000
0010
0100
0000
0101
0000
,
0001
0010
1100
0001
1000
1010
0020
0000
,
0000
0130
1001
0001
0010
0100
1000
0100
,
0100
0010
0001
1000
0010
0100
0001
0000
,
0100
0000
0011
0000
0000
1010
0000
0000
,
0100
0000
0000
0000
0000
0000
0000
0000
0000
0000
0000
0000
0000
0000
0000
0000
0000
0000
0000
0000
0000
0000
0000
0000
0010
0000
0000
0001
0000
0000
0000
0000
0010
0000
0000
0000
0000
0000
0000
0000
0000
0000
0000
0000
0000
0000
0000
0000
0000
0000
0000
0000
0000
0000
0000
0000
0000
0000
0000
0000
0000
0000
0000
0000
0000
0000
0000
0000
0000
0000
0000
0000
0100
0000
0000
0000
0000
0000
0000
0000
0000
0000
0000
0000
0000
0000
0000
0000
0000
0000
0000
0000
0000
0000
0000
0000
,
0000
1000
2000
0000
0000
0000
0000
0000
,
0000
3001
0000
0000
,
0000
1000
0000
1100
,
0000
0110
0000
0011
,
0000
0000
0000
0000
0000
0000
1000
0100
0010
0001
0100
0010
1000
0001
0010
0100
1000
0010
0100
0001
1000
0100
0010
0100
,
1000
0001
0010
0100
0010
0001
1000
0010
0100
0001
0010
0100
1000
0100
0010
0001
0100
0010
1000
0001
0010
0100
1000
0010
,
0100
0001
1000
0100
0010
0001
0010
0100
1000
0010
0100
0001
1000
0100
1000
0001
0010
0001
0100
0010
1000
0001
0010
0100
,
1000
0100
0010
0001
0100
0010
1000
0001
0010
0100
1000
0010
0100
0001
1000
0100
0010
0001
0010
0100
1000
0001
0100
0010
,
1000
0001
0100
0010
1000
0100
0010
0001
0010
0100
1000
0010
0100
0001
0100
0010
1000
0010
0100
0001
1000
0100
0010
0001
,
0100
0010
1000
0001
0100
0010
1000
0001
0010
0100
1000
0100
0010
0001
0100
0010
1000
0001
0010
0100
0010
0001
1000
0100
,
0010
0001
0010
0100
0010
0100
1000
0100
0010
0001
0100
0001
1000
0010
1000
0010
0100
0001
0010
0100
0010
0001
1000
0100
,
0010
0100
1000
0001
1000
0100
0010
0001
0100
0010
1000
0010
0100
0001
1000
0100
0010
0001
0010
0100
1000
0001
0100
0010
,
1000
0001
0010
0100
1000
0001
0100
0010
1000
0100
0010
0100
1000
0001
0010
0100
0010
0001
1000
0010
0100
0001
0010
0100
,
1000
0100
0010
0001
0100
0010
1000
0001
0010
0100
1000
0100
0010
0001
0100
0010
1000
0010
0100
0001
0100
0010
1000
0100
,
0010
0001
0100
0010
1000
0001
0010
0100
1000
0100
0010
0100
1000
0001
0010
0100
1000
0001
0010
0100
1000
0010
0100
0001
,
1000
0100
0010
0001
0100
0010
1000
0001
0010
0100
1000
0100
0010
0001
1000
0100
0010
0001
1000
0010
0100
0001
0100
0010
,
1000
0010
0100
0010
0100
0001
0100
0010
1000
0001
0100
0010
1000
0100
0010
0001
0010
0100
1000
0001
0100
0010
1000
0001
,
0010
0100
1000
0100
0010
0001
0100
0010
1000
0100
0010
0001
0010
0100
1000
0010
0100
0001
1000
0100
0010
0100
1000
0001
,
1000
0100
0010
0001
0100
0010
1000
0001
0010
0100
1000
0100
0010
0001
0100
0010
1000
0001
0010
0100
1000
0100
0010
0001
,
0100
0010
1000
0001
0010
0100
1000
0100
0010
0001
1000
0010
0100
0001
0010
0100
1000
0001
0100
0010
1000
0001
0010
0100
,
1000
0100
0010
0001
0010
0100
1000
0001
0100
0010
1000
0001
0010
0100
1000
0100
0010
0001
1000
0010
0100
0001
0010
0100
,
1000
0001
0100
0010
1000
0001
0010
0100
1000
0100
0010
0001
1000
0010
0100
0001
0010
0100
1000
0010
0100
0001
0010
0100
,
1000
0000
0000
0000
0100
0000
0000
0000
0010
0000
0000
0000
0001
0000
0000
0000
0010
0000
0000
0000
0100
0000
0000
0000
2000
0000
0000
3000
0100
0000
0000
0000
0010
0000
0000
0000
0001
0000
0000
0000
0100
0000
0000
0000
0010
0000
0000
0000
1000
0000
0000
0000
0001
0000
0000
0000
0010
0000
0000
0000
0200
0000
0000
0300
1000
0000
0000
0000
0010
0000
0000
0000
0100
0000
0000
0000
0001
0000
0000
0000
0010
0000
0000
0000
0100
0000
0000
0000
1000
0000
0000
0000
0100
0000
0000
0000
,
0020
0000
0000
0030
0001
0000
0000
0000
0100
0000
0000
0000
0010
0000
0000
0000
0100
0000
0000
0000
0001
0000
0000
0000
0200
0000
0000
0300
0010
0000
0000
0000
1000
0000
0000
0000
0001
0000
0000
0000
0010
0000
0000
0000
0100
0000
0000
0000
1000
0000
0000
0000
0010
0000
0000
0000
0100
0000
0000
0000
0002
0000
0000
0003
0100
0000
0000
0000
0010
0000
0000
0000
1000
0000
0000
0000
0100
0000
0000
0000
0010
0000
0000
0000
0001
0000
0000
0000
0010
0000
0000
0000
0100
0000
0000
0000
,
1000
0010
0100
0001
0010
0100
1000
0100
0010
0001
0100
0010
1000
0001
0010
0100
1000
0100
0010
0001
0100
0010
1000
0001
,
0010
0100
1000
0100
0010
0001
0100
0010
1000
0001
0010
0100
1000
0010
0100
0001
1000
0100
1000
0001
0010
0001
0100
0010
,
1000
0001
0010
0100
1000
0100
0010
0001
0100
0010
1000
0001
0010
0100
1000
0100
0010
0001
0100
0010
1000
0001
0010
0100
,
1000
0100
0010
0001
0100
0010
1000
0001
0010
0100
1000
0100
0010
0001
0100
0010
1000
0001
0010
0100
0010
0001
1000
0100
,
0010
0100
1000
0001
0010
0100
2000
0000
0000
0000
0000
0000
0000
0000
0000
0000
0000
0000
0000
0000
0000
0000
0000
0000
,
0000
3001
0000
0000
,
0001
0010
1100
0010
0001
0100
0010
1000
,
0001
0010
0100
0010
0001
1000
0010
0100
,
0001
0010
0100
1000
0100
0010
0001
0100
,
0010
1000
0001
0010
0100
1000
0100
0010
,
0001
1000
0001
0010
0100
1000
0010
0100
,
0001
1000
0100
0010
0001
0010
0100
1000
,
0001
0100
0010
1000
0100
0010
0001
0010
,
0100
1000
0010
0100
0001
1000
0010
0100
,
0001
0010
0100
1000
0001
0100
0010
0100
,
0001
1000
0100
0010
0100
1000
0001
0010
,
0100
1000
0010
0100
0001
1000
0100
0010
,
0100
1000
0001
0010
0100
1000
0100
0010
,
0001
0000
1000
0000
0001
0000
0100
0000
0010
0000
1000
0100
0010
0001
1000
0000
,
0001
0000
0100
0000
0010
0000
0100
0000
0001
0000
1000
0100
0010
0001
0010
0000
,
0100
1000
1002
0000
0000
0023
0000
0000
,
0230
0000
0000
0300
,
1000
0000
0010
0000
1000
0100
0010
0100
1000
0001
0010
0100
1000
0100
0010
0001
,
0100
0010
1000
0001
0010
0100
1000
0010
0100
0001
1000
0100
0010
0100
1000
0001
,
0010
0100
1000
0010
0100
0001
1000
0100
0010
0100
1000
0010
0100
0001
0010
0001
,
0100
0010
1000
0100
1000
0010
0100
0010
1000
0001
0010
0001
0100
0010
1000
0001
,
0100
0010
1000
0100
0010
0001
0100
0010
1000
0001
0010
0100
1000
0010
0100
0010
,
1000
0100
0010
0001
0010
0100
0010
0001
0100
0010
1000
0010
0100
0001
0100
0010
,
1000
0100
0010
0001
0100
0010
1000
0001
0010
0100
1000
0001
0100
0010
1000
0001
,
0010
0100
1000
0010
0100
0001
1000
0100
0010
0001
0010
0100
1000
0001
0010
0100
,
1000
0010
0100
0001
1000
0100
0010
0001
1000
0100
0010
0001
0100
0010
1000
0001
,
0010
0001
0100
0010
0100
0001
1000
0100
1000
0010
0100
0001
0010
0100
1000
0100
,
0010
0001
0100
0010
1000
0001
0010
0100
1000
0100
0010
0001
0100
0010
1000
0001
,
0100
0010
1000
0100
0010
0001
0010
0100
1000
0010
0100
0001
1000
0100
0010
0001
,
0010
0100
1000
0010
0100
0001
0010
0100
1000
0100
0010
0001
1000
0010
0100
0001
,
0010
0100
0010
0001
1000
0010
0100
0010
1000
0100
0010
0001
0010
0100
1000
0010
,
0100
0001
0010
0100
2000
0000
0000
0000
0000
0000
3200
0000
0000
0000
0000
0000
,
0320
0000
0000
0000
0000
0000
0031
0000
0010
0000
0100
0000
1000
0000
0010
0000
0100
0000
0001
0000
0000
1000
0000
0000
,
0010
0100
0101
0101
0001
1100
1100
1000
,
1010
1010
0100
0011
0011
0001
1010
1010
,
0001
1001
1001
0001
0101
0101
0100
0110
,
0110
1000
1001
1001
0001
1100
0011
1100
,
0011
1100
0001
0101
0101
0010
1010
1010
,
1000
0011
0011
0001
1100
1100
0010
1001
,
1001
0100
1011
1011
1000
1101
1101
0100
,
1110
1110
0001
1111
1111
1111
1111
1111
,
1111
1111
0000
0000
0000
0000
0000
0000
,
0000
2112
0000
0000
,
0000
0010
0000
3003
,
0000
0000
0000
0000
0000
0000
1000
0100
0010
0002
0000
0000
0000
0000
0000
0000
0000
0000
0000
0000
0000
0000
0000
0000
,
0000
0000
0000
0000
,
0000
0000
0000
0000
,
0000
0003
0000
0000
;
