#TITLE:Duck-Billed Platypus;
#SUBTITLE:;
#ARTIST:StarBlast;
#TITLETRANSLIT:;
#SUBTITLETRANSLIT:;
#ARTISTTRANSLIT:;
#CREDIT:John Bono Smithy Satchmo;
#BANNER:platypus-bn.png;
#BACKGROUND:platypus-bg.png;
#LYRICSPATH:;
#CDTITLE:;
#MUSIC:platy.mp3;
#OFFSET:0.000;
#SAMPLESTART:29.660;
#SAMPLELENGTH:12.360;
#SELECTABLE:YES;
#BPMS:0.000=130.000;
#STOPS:;
#BGCHANGES:;
// cache tags:
#FIRSTBEAT:8.000;
#LASTBEAT:194.000;
#SONGFILENAME:Songs/stepmix .10/Platypus/Platypus.sm;
#HASMUSIC:1;
#HASBANNER:1;
#MUSICLENGTH:92.270;
// end cache tags

//---------------dance-single - starblast.org----------------
#NOTES:
     dance-single:
     starblast.org:
     Beginner:
     1:
     0.111,0.156,0.065,0.108,0.000,56.000,6.000,10.000,0.000,0.000:
0000
0000
0000
0000
,
0000
0000
0000
0000
,
1000
0000
0000
0000
,
0000
0000
0000
0000
,
0001
0000
0000
0000
,
1000
0000
0000
0000
,
0010
0000
0100
0000
,
0010
0000
1000
1000
,
0002
0000
0003
0000
,
0010
0000
0010
0000
,
0010
0000
0000
0100
,
0000
0000
0000
0000
,
2000
0000
3000
0000
,
0100
0000
0000
0000
,
1000
0000
0000
0000
,
0000
0000
0000
0000
,
0000
1000
0000
0001
,
0000
1000
0000
0001
,
1000
0000
0001
0000
,
1000
0000
1000
0000
,
0010
0000
0100
0000
,
0001
0000
0010
0000
,
0010
0000
0100
0000
,
0010
0000
1000
0000
,
0010
0000
0010
0000
,
0100
0000
0100
0000
,
1000
0000
1000
0000
,
0001
0000
0001
0000
,
1000
0000
0001
0000
,
1000
0000
0000
0000
,
0010
0000
0100
0000
,
0010
0000
0100
0000
,
0110
0000
0000
0000
,
0000
0000
0000
0000
,
1000
0000
0000
0000
,
0000
0000
0000
0000
,
0010
0000
0000
0000
,
0000
0000
0000
0000
,
1000
0000
0000
0000
,
0000
0000
0000
0000
,
2002
0000
3003
0000
,
0000
0000
0000
0000
,
0220
0000
0330
0000
,
0000
0000
0000
0000
,
2002
0000
3003
0000
,
0000
0000
0000
0000
,
0220
0000
0330
0000
,
0000
0000
0000
0000
,
1001
0000
0000
0000
;

//---------------dance-single - starblast.org----------------
#NOTES:
     dance-single:
     starblast.org:
     Hard:
     8:
     0.406,0.520,0.217,0.119,0.087,228.000,20.000,11.000,36.000,8.000:
0000
0000
0000
0000
,
0000
0000
0000
0000
,
1100
0100
0010
0001
,
1000
0100
0010
0001
,
0011
0100
1000
0010
,
1100
0010
0001
0100
,
1010
0000
0101
0000
,
1000
1000
0002
0203
,
2300
0001
0001
0001
,
3001
1000
0001
0000
1000
0001
10M0
0000
,
0010
0M00
00M0
0100
000M
0M00
0001
M000
,
000M
1000
000M
M000
0001
0000
0001
0000
,
2020
0000
0000
0030
,
0200
0000
0000
3300
,
4000
0400
0000
0000
0000
0000
0000
0000
0000
0000
0000
0000
0000
0000
30M0
030M
,
0000
M040
0M04
0000
0000
0000
0000
0000
0000
0000
0000
0000
0000
0000
0000
0033
,
0000
00MM
1001
0000
0010
100M
0000
0M01
,
0000
01MM
0000
0M10
0000
10M0
0001
1000
,
0010
0000
0010
0000
1000
0M01
0000
01M0
,
0000
0M10
00M0
0010
0000
10M0
0001
1000
,
0000
0000
0000
0000
0010
0000
100M
0000
0000
0000
0001
0000
00M0
0000
0000
000M
,
0010
0000
00M1
0000
1000
0001
0000
2000
,
0000
0020
0000
0000
3031
0000
1000
0010
,
1000
0000
0001
1000
0000
1000
0100
0001
,
0000
0000
0010
1000
0010
0000
0001
1000
,
0010
1000
0001
0100
0000
0001
1000
0010
,
1000
0001
0100
0010
1000
0001
1000
0010
,
0100
0001
1000
0010
0000
0002
0000
0200
,
0000
0000
1000
0010
0000
1000
0000
1000
,
0303
0000
0000
0000
,
1000
0100
0001
0010
,
1001
0000
0000
0000
1000
0010
0000
0000
,
1001
0010
1000
0001
0100
0010
1000
0001
,
0100
0010
1000
0001
0100
0010
1000
0001
,
1000
0010
0100
0001
1000
0010
0100
0001
,
0100
1000
0100
0010
1000
0010
0001
0010
,
1000
0100
0010
0100
1000
0010
0000
0001
,
1000
0001
0000
0001
0100
0010
0100
0001
,
0001
1000
0MMM
1000
0001
1000
0010
1000
,
0001
1000
0010
1000
0MMM
1000
0010
1000
,
0001
1000
0001
1000
0001
0000
0000
0000
0100
0000
0000
0000
1010
0000
0000
0000
,
0100
0000
0011
0000
0010
0000
0110
0100
,
0010
0100
0010
0100
0010
0000
0000
0000
0100
0010
0100
0010
0000
0000
0000
0000
,
0001
1100
0010
0101
,
0001
0100
0001
0100
0002
0000
0000
0000
0100
0000
0000
0000
1010
0000
0000
0000
,
0100
0000
1010
0000
0100
0000
1010
0003
,
1000
0010
1000
0010
1000
0000
0000
0000
0010
1000
0010
1000
0010
0000
0000
0000
,
0100
0000
1001
1000
0001
0100
1000
0100
,
0011
0000
0000
0000
;

//---------------dance-single - starblast.org----------------
#NOTES:
     dance-single:
     starblast.org:
     Challenge:
     9:
     0.540,0.835,0.173,0.347,0.368,298.000,16.000,32.000,92.000,16.000:
0000
0000
0000
0000
,
0000
0000
0000
0000
,
1000
0100
1000
0000
0100
0000
0000
0000
0010
0000
0000
0000
0001
0000
0000
0000
,
1000
0000
0100
0000
0010
0001
0001
0001
,
0010
1000
0010
0000
MM0M
00M0
0000
0000
0000
0000
0000
0000
0000
0000
0000
0000
,
0010
0001
0010
0000
MM0M
00M0
0000
0000
0000
0000
0000
0000
0000
0000
0000
0000
,
0001
0100
0001
0000
MMM0
000M
0000
0000
0100
1000
0100
0000
M0MM
0M00
0000
0000
,
1000
0100
0001
0100
1000
0100
0010
0100
0002
0000
0000
0000
0203
0000
0000
0000
,
2000
00M1
001M
00M1
,
331M
1000
0001
0000
1000
0001
1000
0000
,
0010
0100
0010
0100
0010
1000
0100
1000
0100
0010
0100
0001
0000
0000
0000
0000
,
0000
1000
0000
0000
0001
0000
0001
0000
,
2020
0000
0000
0000
,
0200
0000
0000
3330
,
1000
0100
1000
0100
1000
0100
1000
0100
1000
0100
1000
0100
1000
0100
100M
0100
,
0000
M001
0100
0001
1M00
0001
M100
0001
1M00
0001
M100
0001
1M00
0001
M100
0001
,
1M00
0000
1001
0000
0020
2000
0030
3020
,
0000
0032
0000
0200
0003
1300
0100
1000
,
0100
0000
0010
0000
0020
0002
0030
0023
,
0000
2030
0000
0020
3030
1000
0001
1000
,
0000
0000
0010
2000
0000
0020
3000
0000
,
0001
0000
0031
0000
0200
0002
0000
2000
,
0000
0020
0000
0003
3331
0000
1000
0010
,
1000
0000
0001
1000
0000
0001
0100
2000
,
0000
0000
3100
0010
0001
0000
0010
1000
,
0010
1000
0001
0100
0000
0001
0001
0001
,
0010
0000
1000
0000
0010
0100
0010
0000
0001
0000
0100
0000
1000
0000
0100
0000
,
0010
0100
0001
0100
0000
0002
0000
0200
,
0000
0000
1000
0010
0000
2000
0000
0020
,
0000
0000
0000
0000
3333
0000
0000
0000
0000
0000
0000
0000
0000
M000
0000
0000
,
1000
0M00
1000
0000
0100
M0M0
0100
0000
0010
0M0M
0010
0000
0001
00M0
0001
0000
,
1000
0000
0001
0000
1000
0000
0001
0000
1000
0000
0001
0000
1000
0000
0001
0000
1000
0000
0001
0000
1000
0000
0001
0000
0400
0040
0000
0000
0000
0000
0000
0030
,
0300
0010
100M
01M0
M001
01M0
100M
0010
,
M100
001M
1M00
00M1
M100
001M
1M00
00M1
,
1100
0000
0010
0000
M001
0000
01M0
0000
1000
000M
0010
0000
0100
M000
00M1
0000
,
0100
10MM
0100
0010
1M0M
0010
MM01
0010
,
110M
0000
0100
0000
M010
000M
0100
0000
1000
0000
0M1M
0000
M000
0000
00M1
0M00
,
1000
00M1
MM00
00M1
M100
001M
M100
00M1
,
0001
1000
0000
100M
0001
10MM
0010
10MM
,
0001
10MM
0010
10M0
0000
1000
0010
1000
,
0001
1000
0001
0010
0100
0000
0000
0000
0100
0000
0000
0000
1010
0000
0000
0000
,
0100
0000
0011
0000
0100
0010
0110
0100
,
0010
0100
0010
0100
0010
1000
0100
1000
0100
0010
0100
0010
0000
0000
0000
0000
,
0001
1100
0010
0101
,
0001
0100
0001
0100
0002
0000
0000
0000
M1M0
0000
0000
0000
1M10
0000
0000
0000
,
M1M0
0000
1M10
0000
M1M0
0000
1110
0003
,
1000
0010
1000
0010
1000
0001
0100
0001
0100
0001
0010
1000
0000
0000
0011
0000
,
0000
0101
0000
1100
0000
0002
0000
0020
,
2200
3333
0000
0000
0000
0000
0000
0000
;

//---------------dance-single - starblast.org----------------
#NOTES:
     dance-single:
     starblast.org:
     Easy:
     3:
     0.223,0.289,0.163,0.098,0.000,120.000,15.000,9.000,0.000,0.000:
0000
0000
0000
0000
,
0000
0000
0000
0000
,
0100
0000
0000
0000
,
0000
0000
0000
0000
,
0110
0000
0000
0000
,
0001
0000
0000
0000
,
1000
0000
1001
0000
,
0001
1000
0001
1000
,
1001
0110
0000
0010
,
1000
0100
0010
0001
,
1000
0100
0010
0001
,
1000
0010
0100
0001
,
0200
0000
0000
0000
,
0320
0000
0000
0000
,
0130
0001
0001
1000
,
1000
0010
0010
0001
,
0010
0000
0000
0000
0100
0100
0000
0001
,
0000
0001
0000
0001
0000
0000
0000
0000
,
0010
0000
0010
0000
1000
1000
0000
1000
,
0000
1000
0000
1000
0000
0010
0000
0200
,
0000
0000
0000
0000
,
0310
0000
0000
0000
0100
0100
0000
0002
,
0000
0000
0000
0000
,
0003
1001
0000
0100
,
0110
0010
0100
1000
,
1000
0001
0010
0100
,
1000
1000
0001
0001
,
0010
0010
0010
1000
,
0100
0100
0010
0001
,
2000
0000
0000
0000
,
3001
0010
0010
0000
,
0100
0000
0010
0000
1000
0100
0000
0020
,
0000
0000
0000
0030
,
0000
0000
0000
0000
,
1000
0000
0000
0000
,
0010
0000
0000
0000
,
1010
0000
0000
0000
,
0101
0000
0000
0000
,
1010
0101
0100
0110
,
0000
0000
0000
0000
0200
0000
0000
0300
,
0001
0010
0000
1000
,
0100
0100
0010
0001
,
1000
1000
0001
0100
,
0010
0000
0100
0010
,
1000
0001
0000
0000
,
1000
0110
0000
0001
,
0110
0000
1000
0100
,
0010
1001
0010
0100
,
2002
0000
3003
0000
;

//---------------dance-single - starblast.org----------------
#NOTES:
     dance-single:
     starblast.org:
     Medium:
     7:
     0.353,0.418,0.163,0.152,0.022,199.000,15.000,14.000,0.000,1.000:
0000
0000
0000
0000
,
0000
0000
0000
0000
,
1001
1000
1000
0001
,
0001
0001
0100
0100
,
0110
0010
0010
0010
,
1010
1000
1000
1000
,
1100
0000
0011
0000
,
0010
0001
1000
0100
,
1002
1000
1000
1000
,
1003
1000
1000
0000
0001
0001
0001
0000
,
0100
0000
0000
0100
0000
0000
1000
0000
,
0000
1000
0000
0000
0010
0000
0010
0000
,
2002
0000
0000
0000
0000
0000
0000
3003
,
0220
0000
0000
0000
0000
0000
0000
0330
,
1000
0000
0000
0000
0100
0000
0000
1000
0000
0000
0010
0000
0000
0001
0000
0000
,
0000
0000
1000
0000
0000
0100
0000
0000
0010
0000
0000
0100
0000
0000
1000
0000
,
1001
0000
1000
0000
0001
0100
0000
1000
,
0000
0100
0000
0001
0000
1000
0100
1000
,
0100
0000
1000
0000
1000
0100
0000
0001
,
0000
0100
0000
1000
0000
0001
0001
0001
,
0000
0000
0010
0100
0000
2000
0000
0000
,
0000
3000
0000
0000
0100
0010
0000
2000
,
0000
0002
0000
0000
0000
3003
1000
0001
,
1000
0000
0001
1000
0000
0001
0010
0002
,
0000
0003
1000
0100
1000
0000
1000
0100
,
0010
0001
0100
0010
0000
1000
0010
1000
,
0100
0010
0001
0010
0001
0010
0001
0100
,
0010
1000
0100
0010
0000
1000
0000
1000
,
0000
0000
0001
0200
0000
0002
0000
2000
,
0000
3303
0000
0000
,
1000
0100
0001
0100
,
1000
0000
0000
0000
1000
0100
0000
0001
,
0000
0001
0100
1000
,
0100
0001
0010
0100
,
1000
0100
0001
0100
,
1000
0010
0001
0100
,
1000
0100
1000
0100
1000
0100
0000
0010
,
0001
0010
0000
0001
0100
0001
0100
0001
,
0100
0001
0000
1000
0010
1000
0010
1000
,
0010
1000
0010
1000
0000
0001
1000
0001
,
1001
1000
0100
0010
,
1000
0100
0001
0010
,
1001
1000
0100
0010
,
1000
0100
0001
0010
,
1001
0001
0100
0010
,
0001
0100
1000
0010
,
1001
0000
0000
1000
0000
0100
0000
0001
,
0000
0010
0000
0100
0000
1000
0000
1001
,
2002
3003
0000
0000
;
