#TITLE:FFVII Boss Battle;
#SUBTITLE:(remix);
#ARTIST:The Black Mages;
#TITLETRANSLIT:;
#SUBTITLETRANSLIT:;
#ARTISTTRANSLIT:;
#CREDIT:;
#BANNER:ffviibossbattle(remix)-bn.PNG;
#BACKGROUND:ffviibossbattle(remix)-bg.PNG;
#LYRICSPATH:;
#CDTITLE:OMEGAspike.PNG;
#MUSIC:FF7 boss battle.mp3;
#OFFSET:0.000;
#SAMPLESTART:37.037;
#SAMPLELENGTH:11.980;
#SELECTABLE:YES;
#BPMS:0.000=162.000;
#STOPS:;
#BGCHANGES:;
// cache tags:
#FIRSTBEAT:1.333;
#LASTBEAT:278.250;
#SONGFILENAME:Songs/keyboard/(OMEGAspike)FFVII Boss Battle (remix)/FF7 boss battle.sm;
#HASMUSIC:1;
#HASBANNER:1;
#MUSICLENGTH:107.815;
// end cache tags

//---------------dance-single - ----------------
#NOTES:
     dance-single:
     :
     Hard:
     10:
     0.881,0.839,0.844,0.519,1.000,518.000,91.000,56.000,0.000,8.000:
0000
0000
0000
0000
1000
0100
0010
0002
0000
0003
0010
0100
,
1000
0002
0000
0003
0010
0010
0001
0001
0100
0100
0010
0010
,
1000
2000
0000
3000
0010
0100
0001
2000
0000
3000
0001
0010
,
0100
2000
0000
3000
0001
0001
0100
0100
0010
0010
1000
0100
,
0010
0002
0000
0003
1000
0010
0100
0002
0000
0003
1000
0010
,
0100
0002
0000
0003
1000
0100
1000
0100
1000
0100
0010
0001
,
0010
0002
0000
0003
0010
0100
0001
2000
0000
3000
0100
0010
,
1000
0002
0000
0003
1000
0001
1000
0001
1000
0001
0100
0010
,
0100
0020
0000
0030
1000
0100
1000
0200
0000
0300
0001
0100
,
0001
0200
0000
0300
0001
0010
0100
1000
0001
0010
0100
1000
,
0100
0020
0000
0030
0001
0010
0001
0020
0000
0030
0100
1000
,
0100
2000
0000
3000
0001
0010
0100
1000
0010
0100
0001
0010
,
0100
2000
0000
3000
0001
0100
0010
2000
0000
3000
0010
0100
,
0001
2000
0000
3000
0001
0010
0001
0010
0001
0010
0100
1000
,
0100
0020
0000
0030
1000
0100
0010
0002
0000
0003
1000
0010
,
0100
0002
0000
0003
1000
1000
1000
0100
0100
0100
0010
0010
,
0001
0002
0000
0003
1100
0000
0001
0010
0100
1000
0001
0010
,
0100
1000
0100
0010
0001
0000
1000
0100
0010
0001
1000
0100
,
0010
0001
0010
0100
1000
0000
0110
0000
0101
0000
1010
0000
,
0101
0000
1100
0000
0011
0000
1010
0000
0101
0000
2000
0000
,
0000
0000
3000
0011
0000
1000
0100
0010
0001
0100
0010
1000
,
0100
0010
0001
0010
0100
0000
1000
0100
0010
0001
0010
0100
,
1000
0100
1000
0100
1000
0000
0110
0000
0011
0000
1100
0000
,
0110
0000
0101
0000
1010
0000
0101
0000
0110
0000
1001
0000
,
0000
0000
0000
0011
0000
1000
0100
0010
0001
0010
0100
1000
,
0100
0010
0001
0010
0100
1000
0100
1000
0100
0010
0010
0010
,
0010
0010
0010
1000
0100
1000
0100
1000
0100
0010
0001
0010
,
0001
0010
0001
1000
0100
0010
0001
1000
0100
0010
0001
0010
,
0001
0010
0001
1000
0100
1000
0100
1000
0100
0010
0001
0010
,
0001
0010
0001
1000
0100
0010
0001
0010
0100
1000
0100
0010
,
0001
2000
0000
3000
0001
0100
0001
0100
0001
0100
0010
1000
,
0010
1000
0010
1000
0001
1000
0001
1000
0001
1000
0010
0100
,
0010
0100
0010
0100
0001
0010
0001
0010
0001
0010
0100
1000
,
0100
1000
0100
1000
0001
0010
0100
1000
0100
0010
0001
0010
,
0100
2000
0000
3000
0200
0000
0000
0000
0000
0000
0020
0000
,
0000
0002
0000
0000
2000
0000
0000
0000
0000
0000
0000
0000
,
0000
0000
3333
0000
2000
0000
0000
0000
0000
0000
0200
0000
,
0000
0020
0000
0000
0002
0000
0000
0000
0000
0000
0000
0000
,
0000
0000
3333
0000
0002
0000
0000
0000
0000
0000
0200
0000
,
0000
0020
0000
0000
2000
0000
0000
0000
0000
0000
0000
0000
,
0000
0000
3333
0000
0020
0000
0000
0000
0000
0000
0200
0000
,
0000
0002
0000
0000
2000
0000
0000
0000
0000
0000
0000
0000
,
3303
0030
0000
0000
1100
0000
0001
0020
0000
0000
0000
0000
,
0030
1000
0100
0010
0001
0000
0000
0110
0000
0000
0110
0000
,
0000
0001
1000
0001
1000
0000
0001
0200
0000
0000
0000
0000
,
0300
1000
0100
0010
0001
0000
0000
0110
0000
0000
1010
0000
,
0000
0101
0000
0000
1100
0000
0001
0020
0000
0000
0000
0000
,
0030
0001
0010
0100
1000
0000
0000
1001
0000
0000
0110
0000
,
0000
0010
0100
0010
0100
0000
1000
0200
0000
0000
0000
0000
,
0300
0010
1000
0001
0100
0000
0000
0110
0000
0000
0101
0000
,
0000
1010
0000
0000
0101
0000
0001
2000
0000
0000
0000
0000
,
3000
0100
1000
0001
0010
0000
0000
0110
0000
0000
1010
0000
,
0000
0001
0010
0100
1000
0000
0001
0020
0000
0000
0000
0000
,
0030
1000
0100
0010
0001
0000
0000
1100
0000
0000
0011
0000
,
0000
1100
0000
0000
1001
0000
0001
2000
0000
0000
0000
0000
,
3000
0001
1000
0010
0100
0000
0000
0110
0000
0000
1010
0000
,
0000
0001
0010
0100
1000
0001
0100
0010
1000
0001
0100
0010
,
1000
0001
0100
0010
1000
0001
0010
0001
0010
0001
0010
0100
,
1000
0100
1000
0100
1000
0000
0110
0000
0101
0000
1010
0000
,
0101
0000
1010
0000
1100
0000
0011
0000
1100
0000
0011
0000
,
1100
0000
0110
0000
1001
0000
0101
0000
1010
0000
1100
0000
,
0011
0000
0110
0000
1100
0000
0101
0000
1001
0000
0110
0000
,
1001
0000
0110
0000
1010
0000
1010
0000
0101
0000
0101
0000
,
0011
0000
0011
0000
1100
0000
1100
0000
0110
0000
0110
0000
,
1001
0000
1001
0000
1010
0000
0101
0000
1010
0000
0101
0000
,
0011
0000
1100
0000
0011
0000
1100
0000
0110
0000
1001
0000
,
0220
0000
0330
1000
1000
1000
0100
0100
0100
0010
0010
0010
,
0001
0001
0001
1000
0100
0010
0001
0010
0100
1000
0100
0010
,
0001
0000
0000
0000
0010
0000
0000
0000
0100
0000
0000
0000
1001
0000
0000
0000
0000
0000
0000
0000
0000
2200
0000
0000
0000
0000
0000
0000
0000
0000
0000
0000
0000
0000
0000
0000
0000
0000
0000
0000
0000
0000
3300
0000
0000
0000
0000
0000
,
1010
0000
0000
2002
0000
0000
0000
0000
0000
3003
0000
0000
0000
0000
0000
0000
;
