#TITLE:Mute City;
#SUBTITLE:;
#ARTIST:From Super Smash Bros. Melee;
#TITLETRANSLIT:;
#SUBTITLETRANSLIT:;
#ARTISTTRANSLIT:;
#CREDIT:;
#BANNER:Mute City-bn.bmp;
#BACKGROUND:Mute City-bg.bmp;
#LYRICSPATH:;
#CDTITLE:!3rdMix.png;
#MUSIC:17 - Mute City.MP3;
#OFFSET:0.160;
#SAMPLESTART:9.627;
#SAMPLELENGTH:24.000;
#SELECTABLE:YES;
#BPMS:0.000=190.150;
#STOPS:;
#BGCHANGES:34.500=-random-=0.000=0=0=1,
35.500=-random-=0.000=0=0=1,
36.500=-random-=0.000=0=0=1,
37.500=-random-=0.000=0=0=1,
39.000=-random-=1.000=0=0=1,
183.000=-random-=1.000=0=0=1,
184.000=-random-=0.000=0=0=1,
185.000=-random-=0.000=0=0=1,
186.000=-random-=0.000=0=0=1,
188.000=-random-=1.000=0=0=1,
232.000=Mute City-bg.bmp=1.000=1=0=1,
99999=-nosongbg-=1.000=0=0=0 // don't automatically add -songbackground-
;
// cache tags:
#FIRSTBEAT:34.500;
#LASTBEAT:236.000;
#SONGFILENAME:Songs/mike songs/Mute City/Mute City.sm;
#HASMUSIC:1;
#HASBANNER:1;
#MUSICLENGTH:76.910;
// end cache tags

//---------------dance-single - Copied from----------------
#NOTES:
     dance-single:
     Copied from:
     Beginner:
     2:
     0.095,0.153,0.013,0.013,0.000,49.000,1.000,1.000,0.000,0.000:
0000
0000
0000
0000
,
0000
0000
0000
0000
,
0000
0000
0000
0000
,
0000
0000
0000
0000
,
0000
0000
0000
0000
,
0000
0000
0000
0000
,
0000
0000
0000
0000
,
0000
0000
0000
0000
,
0000
0000
0000
0000
,
0000
0000
0000
0001
,
0000
0000
0000
0001
,
0000
0000
0000
0001
,
0000
0000
0000
0001
,
0000
0000
0000
0001
,
0000
0000
0000
0001
,
0000
0000
0000
0010
,
0000
0000
0000
0001
,
0000
0000
0000
0000
,
0000
0000
0000
0000
,
0000
0000
0000
0000
,
1001
0000
0000
0000
,
0001
0000
0000
0000
,
0010
0000
0000
0000
,
0001
0000
0000
0000
,
0010
0000
0000
0000
,
0001
0000
0000
0000
,
0000
0000
0000
0000
,
0000
0000
0000
1000
,
0000
0000
0000
0000
,
0000
0000
0000
0001
,
0000
0000
0000
0100
,
0000
0000
0000
0010
,
0000
0000
0000
1000
,
0000
0000
0000
0001
,
0000
0010
0000
0001
,
0000
1000
0000
0001
,
0000
1000
0000
0001
,
0000
0000
0000
0000
,
0000
0000
0000
1000
,
0000
0000
0000
0010
,
0000
0000
0000
0000
,
0100
0000
0000
0001
,
0000
0000
0000
0000
,
1000
0000
0000
0010
,
0000
0000
0000
0000
,
0100
0000
0000
0000
0000
0001
0000
0001
,
0000
0001
0000
0001
0000
0000
0000
0000
,
1000
0000
0000
0000
,
0001
0000
0000
0000
,
1000
0000
0000
0000
,
1000
0000
0000
0000
,
1000
0000
0000
0000
,
1000
0000
0000
0000
,
0010
0000
0000
0000
,
1000
0000
0000
0000
,
1000
0000
0000
0000
,
1000
0000
0000
0000
,
0100
0000
0000
0000
,
0200
0000
0000
0000
,
0300
0000
0000
0000
;

//---------------dance-single - ----------------
#NOTES:
     dance-single:
     :
     Easy:
     3:
     0.238,0.339,0.130,0.143,0.000,107.000,10.000,11.000,0.000,0.000:
0000
0000
0000
0000
,
0000
0000
0000
0000
,
0000
0000
0000
0000
,
0000
0000
0000
0000
,
0000
0000
0000
0000
,
0000
0000
0000
0000
,
0000
0000
0000
0000
,
0000
0000
0000
0000
,
0000
0000
0000
0000
,
0000
0000
0000
1000
,
0001
0100
0010
1000
,
0001
0000
1000
0000
,
0001
0000
1000
0010
,
0100
0001
1000
0001
,
0100
0000
0010
0000
,
1000
0000
0001
1000
,
0001
0100
0010
1000
,
0010
0100
0001
1000
,
0010
0000
1010
0000
,
0010
0000
1001
0000
,
1000
0010
0100
0001
,
0100
0010
1000
0001
,
1000
0000
0101
0000
,
1000
0000
0110
0000
,
1000
0001
0100
0010
,
1000
0001
0100
0002
,
0000
0000
0000
0000
,
0000
0000
0000
2003
,
0000
0000
0000
0000
,
0000
0000
0000
3020
,
0000
0000
0000
0000
,
0000
0000
0000
0230
,
0000
0000
0000
0000
,
0000
0000
0000
0320
,
0000
2030
0000
3002
,
0000
0203
0000
0320
,
0000
2030
0000
3002
,
0000
0003
0000
1000
,
0000
0000
0000
0001
,
0000
0000
0000
1000
,
0000
0000
0000
0010
,
0000
0000
0000
0100
,
0000
0000
0000
0010
,
0000
0000
0000
1000
,
0000
0000
0000
0010
,
0000
0000
0000
0000
0000
0100
0000
0100
,
0000
0100
0000
0100
0000
0000
0000
0000
,
0001
0010
0100
1000
,
0001
0010
0100
1000
,
0001
0000
1010
0000
,
0001
0000
1010
0000
,
0001
1000
0100
0010
,
0001
1000
0100
0010
,
0001
1000
0010
0100
,
0001
1000
0010
0000
,
1100
0000
0001
0000
,
0110
0000
0001
0000
,
1100
0000
0001
0000
,
1001
0000
0000
0000
;

//---------------dance-single - Copied from----------------
#NOTES:
     dance-single:
     Copied from:
     Medium:
     6:
     0.390,0.492,0.143,0.247,0.000,180.000,11.000,19.000,0.000,0.000:
0000
0000
0000
0000
,
0000
0000
0000
0000
,
0000
0000
0000
0000
,
0000
0000
0000
0000
,
0000
0000
0000
0000
,
0000
0000
0000
0000
,
0000
0000
0000
0000
,
0000
0000
0000
0000
,
0000
0000
0000
0000
0000
0001
0000
0001
,
0000
0001
0000
0001
0000
0000
1000
0010
,
1000
0001
0100
0010
,
1000
0000
0100
0000
0010
0000
0001
1000
,
0001
1000
0010
0220
,
0000
0000
0330
0000
0001
1000
0001
0000
,
0100
0010
1000
0010
,
0100
0001
0100
0000
0001
0000
1000
0000
,
0100
0001
0100
0000
0010
0000
1000
0000
,
0001
0100
0001
0000
1001
0000
1010
0000
,
0001
0100
0001
0000
1000
0000
0100
0000
,
0010
0001
1000
0000
0100
0000
0010
0000
,
0001
1000
0010
0000
0100
0000
0202
0000
,
0000
0000
0303
0000
0001
1000
0001
0000
,
1000
0000
0010
0000
0100
0001
0100
0000
,
0010
0000
1000
0000
0001
0100
0010
0000
,
1000
0000
0010
0000
0100
0001
0100
0000
,
0010
1000
0010
0002
,
0000
0000
0000
0000
,
0000
0003
0000
0001
0100
0010
2000
0000
,
0000
0000
0000
0000
,
0000
3000
0000
1000
0001
0100
0020
0000
,
0000
0000
0000
0000
,
0000
0030
0000
0001
1000
0010
0200
0000
,
0000
0000
0000
0000
,
0000
0300
0000
0100
0001
1000
0020
0000
,
0000
2030
0000
3002
,
0000
0203
0000
0320
,
0000
2030
0000
3002
,
0000
0003
0000
1001
,
0000
0000
0000
0101
,
0010
0000
1000
0000
0000
1001
0000
0000
,
0010
1000
0010
0100
,
0001
0000
1000
0000
0000
1001
0000
0000
,
0010
1000
0010
0100
,
0001
0000
1000
0000
0000
1001
0000
0000
,
0010
0100
0001
1000
,
0100
0000
0001
0000
0010
0100
0000
0100
,
0000
0100
0000
0100
0000
0000
1000
0001
,
1000
0010
0100
0001
,
1000
0000
0010
0000
0001
0000
0100
0010
,
0100
1000
0010
2002
,
0000
0000
3003
0000
0010
1000
0010
0000
,
0001
0000
1000
0000
0100
0000
0010
0001
,
0010
0000
0001
0000
1000
0000
0100
0001
,
0010
0001
1000
0010
,
0100
0000
0001
0000
1000
0000
0100
0010
,
0001
0100
0010
1000
,
0001
0000
0100
0000
0010
0000
1000
0010
,
0100
0001
1000
0202
,
0000
0303
0000
0000
;

//---------------dance-single - Copied from Copied f----------------
#NOTES:
     dance-single:
     Copied from Copied f:
     Hard:
     7:
     0.476,0.530,0.741,0.169,0.000,186.000,57.000,13.000,0.000,0.000:
0000
0000
0000
0000
,
0000
0000
0000
0000
,
0000
0000
0000
0000
,
0000
0000
0000
0000
,
0000
0000
0000
0000
,
0000
0000
0000
0000
,
0000
0000
0000
0000
,
0000
0000
0000
0000
,
0000
0000
0000
0000
0000
1001
0000
0101
,
0000
1010
0000
1001
0000
0000
1000
0010
,
1000
0001
0010
1000
,
0101
0010
0001
1000
,
0101
1000
0010
2002
,
0000
0000
3003
0000
0001
1000
0001
0000
,
1010
0100
0001
1000
,
0101
0010
1000
0001
,
0110
0001
1000
0010
,
0000
1100
0000
0000
1001
0000
0010
0000
,
1001
0001
1000
0100
,
0011
1000
0010
0100
,
0000
1001
0000
0000
1001
0000
0202
0000
,
0000
0000
0303
0000
0001
1000
0001
0000
,
1010
0001
1000
0010
,
0101
1000
0001
0010
,
0000
1001
0000
0000
0101
0000
1001
0000
,
0000
1010
0000
0000
1001
0000
0101
0000
,
1000
0010
0100
0001
,
1000
0000
0001
0100
0001
0100
0010
0000
,
1100
0101
0010
1000
,
0001
0000
1000
0010
1000
0001
0100
0000
,
1001
0101
1000
0010
,
0100
0000
0001
1000
0001
1000
0010
0000
,
1100
0101
0010
1000
,
0001
0000
1000
0100
0001
1000
0020
0000
,
0000
2030
0000
3002
,
0000
0203
0000
0320
,
0000
2030
0000
3002
,
0000
0003
0000
1001
,
0000
0000
0000
0101
,
0010
0000
1000
0000
0000
1001
0000
0000
,
0010
1000
0010
0100
,
0001
0000
1000
0000
0000
1001
0000
0000
,
0010
1000
0010
0100
,
0001
0000
1000
0000
0000
1001
0000
0000
,
0010
0100
0001
1000
,
0100
0000
0001
0000
0010
0110
0000
0101
,
0000
1100
0000
1001
0000
0000
1000
0000
,
1000
0001
0000
0001
0100
0000
1010
0000
,
0010
0100
0000
0100
0001
0000
1001
0000
,
0001
0100
0000
0100
0010
0000
1001
0000
,
0010
0000
1000
0000
0001
1000
0010
0000
,
1001
0010
1000
0001
,
0110
0001
1000
0100
,
1010
0001
1000
0010
,
0101
0001
1000
0101
,
0000
1001
0000
0000
1010
0000
1001
0000
,
0000
0101
0000
0000
1010
0000
1001
0000
,
0000
0101
0000
0000
1001
0000
0202
0000
,
0000
0303
0000
0000
;

//---------------dance-single - Copied from Copied f----------------
#NOTES:
     dance-single:
     Copied from Copied f:
     Challenge:
     9:
     0.645,0.720,0.247,0.039,0.117,325.000,19.000,3.000,0.000,0.000:
0000
0000
0000
0000
,
0000
0000
0000
0000
,
0000
0000
0000
0000
,
0000
0000
0000
0000
,
0000
0000
0000
0000
,
0000
0000
0000
0000
,
0000
0000
0000
0000
,
0000
0000
0000
0000
,
0000
0000
0000
0000
0000
1001
0000
1010
,
0000
0101
0000
1001
0000
0000
0001
0100
,
1000
0100
0001
1000
0100
0010
0001
1000
,
0010
1000
0010
0100
0001
0100
0001
1000
,
0100
0001
0100
1000
0001
0100
0010
1000
,
0001
0000
0100
0000
0010
0000
1000
0000
0001
0100
0001
0100
0001
0000
1000
0000
,
0100
0010
0001
0100
0001
0100
0010
1000
,
0010
1000
0100
0010
0001
0100
1000
0100
,
0001
0010
0100
1000
0010
0100
0010
1000
,
0100
0010
0001
0100
0010
1000
0100
0001
,
0100
1000
0000
1000
0010
0001
0010
1000
,
0100
1000
0100
0010
0001
0010
0001
1000
,
0100
0010
0001
0100
0010
1000
0001
0100
,
0001
0000
1000
0000
0001
0000
1000
0000
0100
0010
0100
0010
0100
0000
0010
0000
,
0001
0100
0010
1000
0001
0100
1000
0100
,
0001
1000
0100
0010
0001
1000
0100
0010
,
0100
1000
0001
0010
0100
0010
0001
1000
,
0010
0100
0001
0100
0010
1000
0001
0000
,
1000
0100
0001
0000
0001
0100
1000
0000
,
1000
0100
0001
0100
1000
0100
0001
0000
,
0001
0010
1000
0000
1000
0010
0001
0000
,
0001
0010
1000
0010
0001
0010
1000
0000
,
1000
0100
0010
0001
0100
0010
1000
0001
,
1000
0100
0010
0001
1000
0010
0100
0000
,
0100
0010
0100
0001
1000
0100
0010
0001
,
0100
0000
0000
0010
0000
0000
1000
0000
0000
0001
0000
0000
0100
0000
0000
0010
0000
0000
1000
0000
0000
0000
0010
0000
,
0000
0100
0000
0001
0000
0100
0000
0010
0000
1000
0000
0010
,
0000
1000
0000
0010
0000
0100
0000
0001
0000
0100
0000
0001
,
0000
1000
0000
0100
0000
0010
0000
0001
0000
0200
0000
0000
,
0000
0000
0300
1001
,
0000
0000
0000
0101
,
0010
0000
1000
0000
0000
1001
0000
0000
,
0010
1000
0010
1001
,
0010
0000
1000
0000
0000
0101
0000
0000
,
0010
1000
0010
0101
,
0010
0000
1000
0000
0000
0101
0000
0000
,
0010
0100
0001
1010
,
0100
0000
0001
0000
0010
0110
0000
0101
,
0000
1100
0000
1001
0000
0000
1000
0100
,
0010
0001
0100
0010
1000
0010
0100
0001
,
1000
0100
0010
0001
1000
0100
1000
0001
,
0100
0010
1000
0001
0100
0010
1000
0100
,
0010
0000
0001
0000
0100
0000
0010
0000
1000
0001
1000
0001
1000
0000
0100
0000
,
0010
0001
1000
0010
1000
0010
0100
0001
,
0100
0001
1000
0100
0001
0100
1000
0001
,
0100
0010
1000
0100
0010
0001
1000
0010
,
0100
0001
0100
0010
1000
0001
1000
0000
,
1000
0010
0100
0001
0100
0010
1000
0100
,
0001
0100
1000
0010
0100
0001
0100
0000
,
0000
0101
0000
0000
1001
0000
0202
0000
,
0000
0303
0000
0000
;
