#TITLE:Everybody's Fine.;
#SUBTITLE:(Radio Edit);
#ARTIST:DJ TECHNORCH;
#TITLETRANSLIT:;
#SUBTITLETRANSLIT:;
#ARTISTTRANSLIT:;
#CREDIT:owenviau1;
#BANNER:../owenviau1 Simfiles 6 (Science X Owen).png;
#BACKGROUND:BG.PNG;
#LYRICSPATH:;
#CDTITLE:;
#MUSIC:DJ TECHNORCH - Everybody's Fine. (Radio Edit).mp3;
#OFFSET:-0.102;
#SAMPLESTART:13.435;
#SAMPLELENGTH:29.999;
#SELECTABLE:YES;
#DISPLAYBPM:180.000;
#BPMS:0.000=180.000,137.000=211.000,154.000=78.000,168.000=80.000,171.000=78.000,172.000=180.000,173.000=140.000,236.000=144.000,237.000=146.000,238.000=148.000,239.000=150.000,240.000=153.000,241.000=157.000,242.000=158.000,243.000=159.000,244.000=163.000,245.000=164.000,246.000=165.000,247.000=166.000,248.000=167.000,250.000=169.000,252.000=170.000,253.000=171.000,255.000=172.000,259.000=174.000,267.000=175.000,268.000=176.000,269.000=177.000,278.000=179.000,279.000=180.000;
#STOPS:;
#BGCHANGES:;
// cache tags:
#FIRSTBEAT:8.000;
#LASTBEAT:724.000;
#SONGFILENAME:Songs/owenviau1 Simfiles 6/Everybody's Fine. - [owenviau1] v1.0.3/Everybody's Fine..sm;
#HASMUSIC:1;
#HASBANNER:1;
#MUSICLENGTH:275.016;
// end cache tags

//---------------dance-single - 15- (owenviau1)----------------
#NOTES:
     dance-single:
     15- (owenviau1):
     Challenge:
     15:
     0.993,1.000,0.189,0.658,1.000,1679.000,52.000,181.000,45.000,6.000:
0000
0000
0000
0000
,
0000
0000
0000
0000
,
1000
0100
0010
0001
0100
0001
1000
0010
,
1000
0001
0100
0000
0010
0000
1000
0100
1000
0001
0100
0010
1000
0000
0001
0100
,
0010
0000
1000
0000
0001
0000
0100
0000
0001
1000
0001
0100
0010
0000
1000
0000
,
0001
0100
0001
0000
1000
0010
0100
0001
0010
0001
1000
0100
1000
0000
0001
0100
,
0010
0000
1000
0000
0001
0000
0100
0000
0010
1000
0010
0100
0002
0000
0000
0000
,
1003
0100
1000
0000
0010
0000
0100
0001
0100
0010
1000
0001
0100
0000
0001
1000
,
0002
0100
0000
0100
,
1023
0230
1302
1000
,
1003
0100
0010
0001
1000
0010
0100
0001
0100
0010
1000
0001
1000
0010
0100
0010
,
1000
0001
0100
0001
0010
0100
1000
0001
0100
0010
1000
0001
0010
0001
1000
0100
,
1000
0010
0100
0001
0100
0010
1000
0001
0010
0001
1000
0100
1000
0001
0100
0010
,
1000
0010
0100
0001
1000
0100
0010
0001
0100
0010
1000
0001
0010
0001
1000
0100
,
0010
0001
1000
0010
1000
0100
0010
0001
0100
0001
1000
0010
0100
0010
1000
0001
,
0100
0001
1000
0100
0010
0001
0100
0010
1000
0001
0010
0001
1000
0100
0010
0001
,
1000
0001
0010
0100
1000
0001
0100
0001
0010
0100
1000
0010
0100
0010
1000
0001
,
1000
0010
0100
0000
0001
0000
1000
0100
0010
0001
1000
0010
0100
0000
0001
1000
,
0001
0010
0100
1000
0010
0100
0010
1000
0001
0100
0001
1000
0100
0010
0001
0100
,
0010
1000
0001
0100
0001
1000
0010
0100
0010
1000
0001
0010
0001
1000
0010
1000
,
0001
0100
0010
1000
0010
0100
0001
1000
0100
0010
0001
1000
0100
1000
0001
0100
,
0010
1000
0010
0100
0001
1000
0100
1000
0001
0100
0010
1000
0001
0010
0001
1000
,
0100
0010
0001
0100
0010
1000
0001
0010
0100
1000
0001
0100
0001
1000
0010
0100
,
0010
1000
0001
0100
0001
1000
0100
0010
0001
0100
0010
0100
0001
1000
0010
0100
,
0001
0100
0010
1000
0001
0010
0002
1000
,
0013
0100
0001
0000
1000
0000
0001
0010
0100
1000
0100
0010
0001
0000
0100
0010
,
1000
0001
0100
0001
1000
0010
0100
0010
1000
0001
0010
0001
0100
0010
1000
0100
,
0010
0001
1000
0100
1000
0001
0100
0010
1000
0010
0100
0001
0010
0001
1000
0100
,
0010
0001
1000
0001
0010
0100
1000
0001
0100
0001
1000
0010
1000
0001
0010
0001
,
1000
0100
0010
0001
1000
0100
1000
0010
0100
0010
1000
0001
0100
0001
1000
0010
,
0100
0010
1000
0001
0010
0001
1000
0100
0010
0001
0100
0010
1000
0001
0010
0001
,
1000
0100
0010
0001
1000
0100
1000
0001
0010
0100
1000
0010
0100
0010
1000
0001
,
0100
0001
1000
0010
0100
0010
1000
0001
0010
0001
1000
0100
0010
0001
0100
0010
,
1000
0010
0100
0001
1000
0001
0100
0010
1000
0100
0010
0001
0100
0010
1000
0001
,
2000
0000
0001
3000
0000
0000
0000
0000
,
0000
0000
0000
0000
,
0000
0000
0000
0000
0000
0000
0000
0000
0000
0000
0000
0000
0000
0000
0000
M000
,
0000
0000
000M
0000
0M00
0000
0000
00M0
0000
0000
0000
0000
0000
0000
0000
0000
,
0000
0000
2000
0000
,
0000
0000
0000
0000
0000
0000
0000
0000
3020
0000
0000
0000
0000
0000
0000
0230
0000
0000
0000
0000
0000
0000
0000
0000
,
0000
0000
0000
0000
0000
0000
0000
0000
0000
0000
0000
0000
0000
0000
0000
0000
0000
0000
0000
0000
0000
0000
0000
0000
0000
0000
0000
0000
0000
0000
0000
0000
0000
0000
0000
0000
0000
0000
0000
0000
0000
0000
0000
0302
0000
0000
0000
0000
0000
0000
0000
0000
0000
0000
0000
0000
0000
0000
0000
0000
0000
0000
0000
0000
0000
0000
0000
0000
0000
0000
0000
0000
2003
0000
0000
0000
0000
0000
0000
0000
0000
0000
0000
0000
0000
0000
0000
0000
0000
0000
0000
0000
0000
0000
0000
0000
,
0000
0000
0000
0000
0000
0000
0000
0000
0000
0000
0000
0000
0000
0000
0000
0000
0000
0000
0000
0000
0000
0000
0000
0000
0000
0000
0000
3200
0000
0000
0000
0000
0000
0000
0000
0000
0000
0000
0000
0000
0320
0000
0000
0000
0000
0000
0000
0000
,
0000
0000
0000
0000
0000
0000
0000
0000
0000
0000
0000
0000
0000
0000
0000
0000
0000
0000
0000
0000
0000
0000
0000
0000
0000
0000
0000
0000
0000
0000
0000
0000
0000
0000
0000
0000
0000
0000
0000
0000
0032
0000
0000
0000
0000
0000
0000
0000
0000
0000
0000
0000
0000
0000
0000
0000
0000
0000
0000
0000
0000
0000
0000
0000
0000
0000
2003
0000
0000
0000
0000
0000
0000
0000
0000
0000
0000
0000
0000
0000
0000
0000
0000
0000
0000
0000
0000
0000
0000
0000
0000
0000
0000
3020
0000
0000
,
0000
0000
2030
3000
0002
0003
0000
0000
,
0000
0000
0200
0300
0020
0030
0000
0000
,
0000
0000
2000
3000
0200
0300
0000
0000
,
0000
0000
0020
0030
0002
0003
0000
0000
,
0000
0000
2000
3000
0002
0003
0000
0000
,
0000
0000
0200
0300
0002
0003
0000
0000
,
0000
0000
2000
3000
0020
0030
0200
0300
,
0002
0003
0000
0000
2000
3000
0000
0000
,
0020
0030
0000
0000
0200
0300
0000
0002
,
0003
0000
2000
3000
0020
0030
0200
0300
,
0002
0003
0000
0000
2000
3000
0000
0020
,
0030
0000
0200
0300
0002
0003
0200
0300
,
0020
0030
0000
0000
2000
3000
0000
0000
,
0002
0003
0000
0000
0200
0300
0000
0000
,
0020
0030
0000
0000
0000
0000
0000
0000
,
2000
0000
0000
0000
0000
0000
0000
0000
0000
0000
0000
0000
3001
0100
0010
1000
0001
0100
0002
0000
0000
0000
0000
0000
,
1003
0000
0010
0000
0100
0000
0001
0000
1000
0000
0100
0010
0001
0000
1000
0010
,
0100
0001
0010
0100
1000
0010
0100
0001
,
0100
0000
0010
0000
1000
0000
0100
0000
0010
0000
0001
0010
0100
0000
1000
0001
,
0100
0000
0001
0000
1000
0000
0100
0000
0010
0000
0001
1000
0002
0000
0000
0000
,
0103
0000
0010
0000
1000
0000
0001
0000
0010
0000
0001
1000
0001
0000
0100
0000
,
0010
1000
0010
0100
0001
1000
0001
0100
,
0010
0000
1000
0000
0010
0000
1000
0000
0000
0000
0000
0000
0001
0000
0100
0000
0001
0000
0100
0000
0000
0000
0000
0000
0010
0000
0000
0000
0000
0000
1000
0000
0000
0100
0000
0000
1000
0000
0000
0000
0000
0000
0001
0000
0000
0000
0000
0000
,
0100
0000
0010
0000
1000
0000
0100
0000
1000
0100
0010
0001
1000
0010
0100
0001
,
0100
0010
1000
0001
1000
0100
0010
0001
0100
0010
1000
0001
0010
0001
1000
0100
,
1000
0001
0100
0010
1000
0010
0100
0001
1000
0100
0010
0001
1000
0001
0010
0100
,
1000
0001
0100
0001
1000
0010
0100
0001
0010
0001
1000
0100
0010
0001
0100
0010
,
0100
0001
1000
0100
1000
0010
0100
0010
1000
0001
0100
0001
1000
0100
0010
0000
,
2002
0000
0000
0000
3000
0000
0000
0003
2020
0000
0000
0000
0030
0000
0000
3000
,
0220
0000
0000
0000
0300
0000
0000
0030
2002
0000
0000
0000
3000
0000
0000
0003
,
2200
0000
0000
0000
0000
0000
0000
0000
0000
0000
0000
0000
0300
0000
0000
0000
0000
0000
0000
0000
0000
3000
0000
0000
0001
0000
0100
0000
0010
0000
1000
0000
0001
0000
0010
0000
0001
0000
1000
0000
0100
0000
0010
0000
0001
0000
1000
0000
,
0020
0000
0000
0000
0000
0000
0130
0000
0000
0000
0000
0000
0001
1000
0010
1000
0001
0100
0020
0000
0000
0000
0000
0000
,
0030
0000
0000
0000
M000
0000
0000
0000
0000
0000
0000
0000
000M
0000
0000
0M00
,
0000
0000
0000
0000
0000
0000
00M0
0000
0000
0000
M000
0000
0000
0000
0000
0000
0000
0000
0000
0000
0000
0000
0000
0000
0002
0000
0000
0000
0000
0000
0000
0000
0000
0000
0000
0000
1003
0000
0000
0010
0000
0000
0100
0000
0000
0010
0000
0000
,
1000
0001
0100
0001
1000
0100
0010
0001
0100
0010
1000
0001
0010
0001
0100
0010
,
1000
0001
0100
0001
1000
0010
0100
0010
1000
0001
0010
0001
0100
0010
1000
0100
,
0010
0001
0100
0010
0100
0001
0010
0001
1000
0100
1000
0001
0100
0010
1000
0001
,
0100
0001
1000
0010
0100
0010
1000
0001
0010
0001
0100
0010
1000
0100
0010
0001
,
1000
0001
0100
0010
1000
0001
0010
0001
0100
0010
1000
0100
1000
0001
0100
0001
,
1000
0010
0100
0010
1000
0001
0010
0001
0100
0010
1000
0100
0010
0001
1000
0100
,
1000
0001
0010
0100
1000
0001
0100
0001
0010
0100
1000
0010
0100
0001
0100
0010
,
1000
0001
1000
0010
0100
0001
1000
0100
1000
0001
0100
0010
1000
0001
0010
0001
,
0100
0010
1000
0001
0010
0001
0100
0010
0100
0001
1000
0001
0100
0010
1000
0001
,
0100
0001
1000
0100
0010
0001
0010
0100
1000
0010
0100
0010
1000
0001
0100
0001
,
1000
0100
0010
0001
0100
0010
1000
0001
0010
0001
0100
0010
1000
0001
0100
0001
,
1000
0100
1000
0010
0100
0010
1000
0001
0010
0001
0100
0010
1000
0100
0010
0001
,
0100
0010
1000
0010
0100
0001
0010
0001
1000
0100
0010
0001
0100
0010
1000
0001
,
0010
0001
0100
0010
0100
0001
1000
0100
1000
0010
0100
0001
1000
0100
0010
0001
,
2000
0000
3010
0200
0000
0000
0302
0000
,
2003
0000
0000
3000
0200
0000
0000
0300
0010
0001
1000
0010
0100
0010
1000
0001
,
1000
0001
0100
0001
1000
0100
0010
0001
0100
0010
1000
0001
0010
0001
0100
0010
,
1000
0001
0100
0001
1000
0010
0100
0010
1000
0001
0010
0001
0100
0010
1000
0100
,
0010
0001
0100
0010
0100
0001
0010
0001
1000
0100
1000
0001
0100
0010
1000
0001
,
0100
0001
1000
0010
0100
0010
1000
0001
0010
0001
0100
0010
1000
0100
0010
0001
,
1000
0001
0100
0010
1000
0001
0010
0001
0100
0010
1000
0100
1000
0001
0100
0001
,
1000
0010
0100
0010
1000
0001
0010
0001
0100
0010
1000
0100
0010
0001
1000
0100
,
1000
0001
0010
0100
1000
0001
0100
0001
0010
0100
1000
0010
0100
0001
0100
0010
,
1000
0001
1000
0010
0100
0001
1000
0100
1000
0001
0100
0010
1000
0001
0100
0001
,
1000
0010
0100
0010
1000
0001
0010
0001
0100
0010
1000
0001
0010
0001
0100
0010
,
1000
0100
0010
0001
0100
0010
1000
0010
0100
0001
0010
0001
1000
0100
1000
0001
,
0100
0010
1000
0001
0010
0001
1000
0100
0010
0001
0100
0010
1000
0010
0100
0001
,
0010
0001
1000
0100
1000
0001
0100
0010
1000
0010
0100
0001
1000
0100
0010
0000
,
2002
0000
0000
0000
3000
0000
0000
0003
2020
0000
0000
0000
0030
0000
0000
3000
,
0220
0000
0000
0000
0300
0000
0000
0030
2002
0000
0000
0000
3000
0000
0000
0003
,
2200
0000
0000
0000
0000
0000
0000
0000
0000
0000
0000
0000
0300
0000
0000
0000
0000
0000
0000
0000
0000
3000
0000
0000
0001
0000
0100
0000
0010
0000
1000
0000
0001
0000
0010
0000
0001
0000
1000
0000
0100
0000
0010
0000
0001
0000
1000
0000
,
0020
0000
0000
0000
0000
0000
0130
0000
0000
0000
0000
0000
0001
1000
0010
1000
0001
0100
0020
0000
0000
0000
0000
0000
,
2030
0000
0000
0000
,
3002
0000
0000
0000
,
0203
0000
0000
0000
,
0320
0000
0000
0000
,
2030
0000
0000
0000
,
3002
0000
0000
0000
,
2003
0000
0000
0000
,
3200
0000
0000
0000
,
0320
0000
0000
0000
,
0032
0000
0000
0000
,
2003
0000
0000
0000
,
3200
0000
0000
0000
,
2300
0000
0000
0000
,
3002
0000
0000
0000
,
0203
M000
0000
M000
0000
0000
0000
0000
0000
0000
0000
0000
,
0302
0000
2003
0000
,
3022
0000
0000
0000
0000
0000
0000
0033
,
0220
0000
0000
0000
0000
0000
0000
0330
,
2200
0000
0000
0000
0000
0000
0000
3300
,
2002
0000
0000
0000
0000
0000
00M0
3003
,
0202
0000
0000
0000
0000
0000
0000
0303
,
2020
0000
0000
0000
0000
0000
0000
3030
,
0220
0000
0000
0000
0000
0000
0000
0330
,
0202
0000
0000
0303
2002
0000
0000
3003
,
1010
0100
0010
0001
1000
0010
0100
0001
,
0110
1000
0100
0010
0001
0100
0010
1000
,
0011
0100
0010
1000
0001
0100
0001
0010
,
1100
1000
0001
0100
0010
1000
0100
0010
,
0001
0100
0010
1000
0001
0010
0001
0100
0010
1000
0100
0010
0001
1000
0100
1000
,
0010
0100
0001
0100
0010
1000
0100
0010
0001
1000
0100
1000
0001
0100
0010
1000
,
0001
0010
0001
0100
0010
1000
0100
1000
0001
0100
0010
1000
0100
0010
0001
0100
,
0020
1030
0002
0200
,
0313
1000
0010
0100
0001
1000
0100
1000
0001
0100
0010
1000
0001
0010
0001
1000
,
0100
0010
0001
0100
0010
1000
0001
0100
0001
1000
0100
0010
0001
0100
0010
1000
,
0100
1000
0001
0100
0010
1000
0010
0100
0001
1000
0100
0010
0001
1000
0001
0010
,
0100
1000
0010
0100
0010
1000
0001
0100
0001
1000
0010
0100
0010
1000
0001
0010
,
0001
1000
0100
0010
0001
0100
0010
1000
0010
0100
0001
0010
0001
1000
0100
1000
,
0001
0100
0010
1000
0010
0100
0001
1000
0100
1000
0010
0100
0001
0010
0001
1000
,
0100
0010
0001
1000
0100
1000
0001
0010
0100
1000
0010
0100
0001
0100
0010
1000
,
0100
1000
0001
0100
0010
1000
0001
0100
0001
1000
0100
1000
0001
0100
0010
1000
,
0001
0010
0001
1000
0100
0010
0001
0100
0010
1000
0001
0100
0001
1000
0100
0010
,
0001
0100
0010
1000
0100
1000
0001
0100
0010
1000
0010
0100
0001
1000
0100
0010
,
0001
1000
0001
0010
0100
1000
0010
0100
0010
1000
0001
0100
0001
1000
0010
0100
,
0010
1000
0001
0010
0001
1000
0100
0010
0001
0100
0010
1000
0010
0100
0001
0010
,
0001
1000
0100
1000
0001
0100
0010
1000
0010
0100
0001
1000
0100
1000
0010
0100
,
0001
0010
0001
1000
0100
0010
0001
1000
0100
1000
0001
0010
0100
1000
0010
0100
,
0001
0100
0010
1000
0100
1000
0001
0100
0010
1000
0001
0100
0001
1000
0100
1000
,
0010
0100
0001
1000
0100
0010
0001
0010
0100
1000
0001
0100
0020
0000
0000
0000
,
2032
0000
0000
0000
3003
0000
0220
0000
0000
0000
0330
0000
2200
0000
0000
3300
,
2002
0000
0000
0000
3003
0000
0022
0000
0000
0000
0033
0000
0220
0000
0000
0330
,
2200
0000
0000
0000
3300
0000
2002
0000
0000
0000
3003
0000
0202
0000
0000
0303
,
2020
0000
0000
0000
3030
0000
0022
0000
0000
0000
0033
0000
2200
0000
0000
3300
,
2020
0000
0000
0000
3030
0000
0220
0000
0000
0000
0330
0000
0202
0000
0000
0303
,
2002
0000
0000
0000
3003
0000
0220
0000
0000
0000
0330
0000
2002
0000
0000
3003
,
0022
0000
0000
0000
0033
0000
2200
0000
0000
0000
3300
0000
2002
0000
0000
3003
,
0202
0000
0000
0303
2020
0000
0000
3030
2200
3300
0220
0330
0022
0000
0000
0000
,
2233
0000
0300
0000
,
3020
0000
0000
0000
,
0230
0000
0000
0000
,
0320
0000
0000
0000
,
1030
0001
0010
0001
0100
0010
1000
0100
0010
0001
1000
0100
1000
0001
0100
0010
,
1000
0010
0100
0001
0010
0001
1000
0100
0010
0001
1000
0001
0010
0100
1000
0001
,
0100
0001
1000
0010
1000
0001
0010
0001
1000
0100
0010
0001
1000
0001
0010
0001
,
0100
0010
1000
0100
0010
0001
1000
0100
1000
0001
0100
0010
1000
0010
0100
0001
,
0010
0001
1000
0100
0010
0001
1000
0001
0010
0100
1000
0001
0100
0001
1000
0010
,
1000
0001
0010
0001
1000
0100
0010
0001
1000
0001
0010
0001
0100
0010
1000
0100
,
0010
0001
1000
0100
1000
0001
0100
0010
1000
0010
0100
0001
0010
0001
1000
0100
,
0010
0001
1000
0001
0010
0100
1000
0001
0100
0001
1000
0010
1000
0001
0010
0001
,
1000
0100
0010
0001
1000
0010
0100
0010
1000
0001
0100
0001
1000
0100
0010
0001
,
0100
0010
1000
0001
0010
0001
0100
0010
1000
0100
0010
0001
1000
0001
0100
0010
,
2M00
0M00
0M00
0M00
0M00
0M00
0M00
0M00
0M00
0M00
0M00
0M00
0M00
0M00
0M00
0M00
,
0M00
0M00
0M00
0M00
0M00
0M00
0M00
0M00
0M00
0M00
0M00
0M00
0M00
0M00
0M00
0M00
,
3M00
0000
0000
0000
,
0000
0000
0000
0000
,
0000
0000
0000
0000
,
0000
0000
0000
0000
,
0000
0000
0000
0000
,
0000
0000
0000
0000
,
0000
0000
0000
0000
,
0000
0000
0000
0000
,
0000
0000
0000
0000
,
0000
0000
0000
0000
,
0000
0000
0000
0000
,
0000
0000
0000
0000
,
0000
0000
0000
0000
,
0000
0000
0000
0000
,
0000
0000
0000
0000
;
