#TITLE:INNOCENT;
#SUBTITLE:[final];
#ARTIST:m1dy;
#TITLETRANSLIT:;
#SUBTITLETRANSLIT:;
#ARTISTTRANSLIT:;
#CREDIT:;
#BANNER:innocent-bn.png.png;
#BACKGROUND:innocent-bg(2).png.png;
#LYRICSPATH:;
#CDTITLE:cdtitle.png;
#MUSIC:m1dy - INNOCENT [final].mp3;
#OFFSET:0.040;
#SAMPLESTART:138.630;
#SAMPLELENGTH:26.060;
#SELECTABLE:YES;
#BPMS:0.000=350.000;
#STOPS:130.000=0.380
,130.750=0.400
,131.500=0.120
,131.750=0.120
,444.000=0.380
,444.750=0.400
,445.500=0.120
,445.750=0.120
;
#BGCHANGES:;
// cache tags:
#FIRSTBEAT:9.000;
#LASTBEAT:1109.333;
#SONGFILENAME:Songs/toune 2/INNOCENT [final]/innocent.sm;
#HASMUSIC:1;
#HASBANNER:1;
#MUSICLENGTH:194.999;
// end cache tags

//---------------dance-single - ----------------
#NOTES:
     dance-single:
     :
     Hard:
     14:
     1.000,1.000,1.000,0.169,1.000,1629.000,229.000,33.000,0.000,3.000:
0000
0000
0000
0000
,
0000
0000
0000
0000
,
0000
0000
0000
0000
1000
0100
0010
0001
1000
0000
0000
0000
0100
0000
0000
0000
,
0001
1000
0010
0001
,
0100
0001
0010
0100
,
0001
1000
0100
0100
,
0010
1000
0001
0001
,
0010
0001
0100
1000
,
0010
0010
0100
0001
,
0100
1000
0100
1000
,
0010
0000
1000
0100
0001
0000
0010
0000
,
0001
0100
0001
1000
,
0010
0100
1000
0001
,
1000
0100
0010
1000
,
0001
0001
0100
0010
,
0100
0001
1000
0010
,
0100
0100
1000
0001
,
1000
0000
0010
0100
0001
0000
2000
0100
,
3010
0001
1000
0001
2000
0000
3001
0000
,
1000
0000
0010
0100
,
0000
1000
0010
0200
,
0300
0100
0001
0100
,
1000
0010
0100
0001
,
0100
0000
0010
0100
,
0000
0001
1000
0020
,
0030
0100
0010
1000
,
0001
0000
0010
0000
1100
0001
0100
0010
,
1000
0000
0010
0100
0001
0100
1000
0100
,
0001
0010
1000
0010
0101
1000
0010
0100
,
1000
0000
0001
1000
0010
0001
0100
0001
,
0010
1000
0100
0010
1001
0100
1000
0001
,
1000
0000
0001
0100
0010
0100
1000
0001
,
0100
0000
0010
0000
1000
0000
0100
0000
0011
0000
0000
1010
0000
0000
0101
0110
,
1001
0100
0010
1000
0001
0000
0001
0010
,
0100
0001
1000
0000
0100
0001
1000
0010
,
1100
0001
0100
0010
1000
0000
0100
1000
,
0010
0001
0100
0000
0100
0010
0100
0001
,
1010
0100
0010
1000
0001
0000
0001
0010
,
0100
1000
0001
0000
0001
0100
0010
1000
,
0101
0010
0001
1000
0100
0000
0100
0010
,
1000
0001
0100
0000
0100
0010
0100
0001
,
0110
1000
0100
1000
0001
0000
0001
0010
,
0001
0100
0010
0000
0100
0001
0010
1000
,
0101
0010
1000
0001
0100
0000
0100
0010
,
1000
0001
0100
0000
0010
1000
0001
1000
,
0011
0100
0010
1000
0100
0000
0100
0010
,
0001
0010
0100
0000
0001
0100
1000
0010
,
2002
3003
0000
0000
,
0000
0000
0000
0000
0200
0000
0000
0300
,
0001
0000
0000
0010
1000
0000
0100
0010
0000
1000
0001
0000
,
0001
0010
0000
0100
0001
0000
1000
0010
0000
0100
1000
0000
,
0001
0100
0000
0010
1000
0000
0100
0010
0000
0100
0001
0000
,
1000
0010
0000
0100
0010
0000
1000
0001
0000
0010
0100
0000
,
0001
1000
0000
0010
0100
0000
1000
0010
0000
0100
0001
0000
,
0010
0100
0000
1000
0100
0000
0001
0100
0000
0010
1000
0000
,
0100
0001
0000
1000
0010
0000
0100
0001
0000
0001
0010
0000
,
0001
1000
0000
0100
0010
0000
1000
0001
0000
0100
0010
0000
,
1000
0001
0000
0010
0001
0000
0010
1000
0000
0100
1000
0000
,
0010
0100
0000
0001
1000
0000
0100
0010
0000
0010
0001
0000
,
0100
0010
0000
1000
0001
0000
0100
1000
0000
0010
0100
0000
,
0001
1000
0000
0100
0001
0000
1000
0010
0000
0100
0001
0000
,
0100
1000
0000
0010
1000
0000
0001
0100
0000
1000
0001
0000
,
0100
0001
0000
0100
1000
0000
0010
1000
0000
0001
0100
0000
,
2000
0000
3010
0000
0010
0100
0000
0010
,
0001
0000
0100
1000
0200
0000
0300
0000
,
0001
0100
0000
0010
1000
0000
0100
0001
0000
1000
0010
0000
,
0100
0001
0000
0100
1000
0000
0010
0100
0000
0001
0010
0000
,
1000
0100
0000
0010
0001
0000
0100
0010
0000
1000
0001
0000
,
0010
0100
0000
0001
1000
0000
0100
1000
0000
0010
1000
0000
,
0100
0001
0000
1000
0010
0000
0001
0100
0000
0001
0100
0000
,
1000
0010
0000
0010
0100
0000
0010
1000
0000
0100
0010
0000
,
0001
1000
0000
0001
0010
0000
0001
0100
0000
0001
1000
0000
,
0010
1000
0000
0100
0001
0000
1000
0010
0000
0010
0100
0000
,
0001
1000
0000
0010
0001
0000
0100
0001
0000
0010
1000
0000
,
0001
0100
0000
0001
1000
0000
0010
0100
0000
0001
1000
0000
,
0010
0001
0000
0100
0001
0000
0010
1000
0000
0100
0001
0000
,
1000
0010
0000
1000
0001
0000
0010
0001
0000
1000
0100
0000
,
0010
1000
0000
0100
0001
0000
1000
0010
0000
0001
0100
0000
,
1000
0010
0000
0001
0010
0000
0100
1000
0000
0001
1000
0000
,
0200
0000
0310
0000
0001
1000
0000
0010
,
0001
0100
1000
0020
,
1031
0011
0110
1001
,
1001
1100
0110
1010
,
0011
0110
0101
1001
,
0011
1100
0110
1010
,
1001
1100
0011
0110
,
0011
1001
0011
0110
,
1001
0011
0101
1100
,
0110
0000
1010
0000
1001
0000
0110
0001
,
1010
0110
0110
0101
,
1001
0011
0110
0011
,
1100
1010
1001
1100
,
0110
0011
0101
1001
,
0011
0110
0101
1001
,
1100
0110
1001
1100
,
1001
0000
0011
0100
1010
0000
0002
1000
,
0103
0010
1000
0001
0200
0000
0310
0000
,
1000
0000
0000
1000
0000
0000
1000
0000
,
0000
0000
0001
0000
0010
0100
1000
0000
,
0010
0000
0000
0010
0000
0000
0010
0000
,
0000
0000
0100
0000
0001
1000
0010
0000
,
0100
0000
0000
0100
0000
0000
0100
0000
,
0000
0000
0010
0000
1000
0001
0100
0000
,
0001
0000
0000
0001
0000
0000
0001
0000
,
0000
0000
0001
0000
0020
0001
0130
0000
,
1010
0000
0000
1010
0000
0000
1010
0000
,
0000
0000
0011
0000
0101
1010
1001
0000
,
0011
0000
0000
0011
0000
0000
0011
0000
,
0000
0000
0101
0000
1100
0011
0110
0000
,
1100
0000
0000
1100
0000
0000
1100
0000
,
0000
0000
0110
0000
1100
0011
1100
0000
,
0110
0000
0000
1010
0000
0000
0101
0011
1001
0000
0100
0000
0010
0000
1000
0000
,
0001
0000
0001
0010
0100
0001
1000
0000
,
0100
0001
1000
0010
1100
0001
0100
0010
,
1000
0000
0100
1000
0010
0001
0100
0000
,
0100
0010
0100
0001
1010
0100
0010
1000
,
0001
0000
0001
0010
0100
1000
0001
0000
,
0001
0100
0010
1000
0110
0001
0000
0001
,
0010
0000
0100
0000
0001
0000
1000
0100
,
0001
0000
1000
0000
0110
1000
0100
1000
,
0001
0000
0001
0010
0001
0100
0010
0000
,
0100
0001
0010
1000
0101
0010
1000
0001
,
0100
0000
0100
0010
1000
0001
0100
0000
,
0010
1000
0001
1000
0011
0100
0010
1000
,
0100
0000
0100
0010
0001
0010
0100
0000
,
0001
0100
1000
0010
1001
0100
0001
0000
,
0010
1000
0000
0010
0100
0000
0001
0100
,
0000
0000
0000
1000
0000
0000
0100
0000
0000
0010
0000
0000
1000
0000
0000
0000
0000
0000
0100
0000
0001
0000
0000
0000
,
0010
0100
0000
1000
0100
0000
0010
0001
0000
0100
1000
0000
,
0010
0100
0000
0001
0100
0000
0010
1000
0000
0100
1000
0000
,
0001
0100
0000
0010
1000
0000
0010
0100
0000
0001
0010
0000
,
0001
1000
0000
0010
1000
0000
0001
0100
0000
0001
1000
0000
,
0100
1000
0000
0010
0100
0000
0010
0001
0000
0100
0001
0000
,
0010
0001
0000
0100
0010
0000
0100
0001
0000
1000
0100
0000
,
1000
0010
0000
0001
0100
0000
0001
1000
0000
0010
0001
0000
,
1000
0100
0000
1000
0001
0000
0010
0100
0000
0010
0100
0000
,
0001
1000
0000
0001
0100
0000
0001
1000
0000
0100
0010
0000
,
1000
0001
0000
0100
0010
0000
0010
0100
0000
1000
0010
0000
,
0100
0001
0000
1000
0100
0000
0010
0001
0000
1000
0001
0000
,
0010
0001
0000
0100
0010
0000
1000
0001
0000
1000
0010
0000
,
0100
0001
0000
0010
0001
0000
0100
0010
0000
1000
0001
0000
,
0100
0010
0000
0100
1000
0000
0002
0000
0000
0013
0000
0000
,
0100
0000
0001
0000
1000
0000
0010
0100
,
0001
2000
3110
0101
,
0011
1100
0110
1001
,
1100
1010
1001
0101
,
0011
0110
0101
1001
,
0011
0110
0011
1100
,
0110
1001
0110
1010
,
0101
1010
0011
0110
,
0011
1100
1010
1001
,
0011
0000
1100
0010
1001
0000
1100
0000
,
1010
0101
1010
0011
,
0110
0011
1001
1100
,
0110
1001
0011
0110
,
0011
1001
1100
0110
,
1010
0011
0110
1100
,
0011
0000
0101
0000
1100
0000
1100
0001
,
0110
0000
2000
0001
3010
0001
1000
0100
,
0020
0031
0200
1300
,
0010
0000
0100
0010
,
0000
1000
0010
0200
,
0300
0010
0010
0001
,
0010
0100
1000
0001
,
1000
0000
0100
0010
,
0000
1000
0010
0200
,
0300
0001
0100
0010
,
1000
0000
0100
0000
1000
0000
0000
1000
,
0000
1000
0000
1000
,
0100
0000
0010
0000
0001
0000
0000
0001
,
0000
0001
0000
0001
,
0010
0000
0100
0000
1000
0000
0000
1000
,
0000
1000
0000
1000
,
0100
0000
0010
0000
0001
0000
0000
0001
,
0000
0001
0000
0001
,
0010
0000
0100
0000
1001
0000
0000
1000
,
0000
0010
1000
0000
0000
0010
1000
0000
,
0100
0000
0010
0000
1001
0000
0000
0001
,
0000
0100
0001
0000
0000
0100
0001
0000
,
0010
0000
0100
0000
1001
0000
0000
1000
,
0000
0010
1000
0000
0000
0010
1000
0000
,
0100
0000
0010
0000
1001
0000
0000
0100
,
0000
0000
0000
0000
0100
0000
0000
0000
0000
0000
0000
0000
0010
0001
0100
0010
,
1000
0000
0000
0100
0000
0000
0001
0000
0000
0010
0000
0000
1000
0000
0100
0000
0000
0000
0010
0000
0001
0000
0000
0000
,
0100
0001
0000
0010
1000
0000
0100
1000
0000
0001
0010
0000
,
0100
0001
0000
0010
0100
0000
0100
0001
0000
0100
1000
0000
,
0010
0001
0000
0100
0010
0000
0010
0001
0000
0100
0001
0000
,
0010
0100
0000
0001
0100
0000
0010
1000
0000
0100
0001
0000
,
1000
0001
0000
0010
0001
0000
0100
1000
0000
0001
0100
0000
,
0010
1000
0000
0010
0100
0000
0010
0000
0000
0010
0000
0000
,
0010
0000
0000
0010
0000
0000
0100
0010
1000
0001
0100
0010
,
1000
0000
0000
0001
0000
0000
0100
0000
0000
0010
0000
0000
1000
0000
0001
0000
0000
0000
0010
0000
1000
0000
0000
0000
,
0001
0100
0000
0010
1000
0000
0100
0001
0000
1000
0010
0000
,
0001
0100
0000
0010
0100
0000
0001
0010
0000
0100
0001
0000
,
1000
0100
0000
0010
0100
0000
0001
0100
0000
1000
0010
0000
,
0100
0010
0000
0001
0100
0000
0010
1000
0000
0001
0010
0000
,
0100
1000
0000
0100
0010
0000
0001
0000
0000
0100
0001
0000
,
0100
0010
0000
0100
1000
0000
0002
0000
0000
1003
0000
0000
,
0100
0000
0010
1000
0000
0001
0000
0010
,
1000
0100
1000
0100
1000
0000
0100
0000
1010
0000
0000
0000
0101
0000
0000
0000
,
0011
1100
0011
0110
,
0101
1001
0011
1100
,
0110
1001
1100
1010
,
1001
1100
0011
0110
,
0101
1001
0011
0110
,
0011
1100
0110
1010
,
1001
1100
0110
0011
,
0110
0000
0101
0010
1100
0000
0011
0000
,
0110
0101
1100
0011
,
0110
0101
1100
0110
,
0110
1100
0011
0110
,
0101
1100
0011
0110
,
0101
1001
1100
0110
,
1100
0110
0101
1100
,
0001
0000
0000
0100
0000
0000
0010
0000
0000
1000
0000
0000
0001
0000
0000
0000
0100
0000
0000
0000
1000
0000
0000
0000
0010
0000
0000
0000
0000
0000
0001
0000
0000
0000
0000
0000
0100
0000
0000
0000
0000
0000
0010
0000
0000
0000
0000
0000
,
1000
0000
0000
0100
0000
0000
1000
0000
0000
0001
0000
0000
0010
0000
0100
0000
0000
0000
0001
0000
0100
0000
0000
0000
,
0010
1000
0000
0100
0010
0000
1000
0001
0000
0100
0010
0000
,
0001
0100
0000
0010
0100
0000
0100
1000
0000
0100
0010
0000
,
0001
0100
0000
0010
1000
0000
0001
0010
0000
0001
0100
0000
,
0010
1000
0000
0100
0001
0000
1000
0010
0000
1000
0010
0000
,
0001
0100
0000
0010
0100
0000
0001
0100
0000
1000
0010
0000
,
0100
0001
0000
0010
1000
0000
0100
1000
0000
0001
0100
0000
,
0010
1000
0000
0100
1000
0000
0001
0100
0000
0010
1000
0000
,
0001
0100
0000
0001
0100
0000
0010
1000
0000
0100
1000
0000
,
0010
0100
0000
0010
0001
0000
0010
0100
0000
0001
0100
0000
,
0010
1000
0000
0100
0010
0000
0100
1000
0000
0010
0100
0000
,
0001
0100
0000
0010
1000
0000
0100
0001
0000
0010
0001
0000
,
0100
1000
0000
0010
0100
0000
0010
0001
0000
0100
0010
0000
,
1000
0100
0000
1000
0001
0000
0100
0010
0000
0001
0100
0000
,
0010
0000
0100
0000
0000
0000
0001
0000
0010
0000
0000
0000
1000
0000
0000
0100
0000
0000
0001
0000
0000
0010
0000
0000
,
0001
0100
0010
1000
0100
0001
0100
0010
,
1000
0000
0010
0000
0001
0000
0100
0000
0001
0010
1000
0001
0100
0010
1000
0100
,
0001
0010
0001
0100
0010
1000
0001
0100
1000
0001
0100
0010
1000
0100
0001
0100
,
0010
0001
0010
0100
0001
0100
0010
1000
0020
0000
0000
0000
0000
0000
0000
0000
,
0000
0000
0000
0000
,
0000
0000
2032
0000
,
0000
0000
3003
0000
2000
3002
0000
2003
,
3002
0000
0000
0003
0000
0000
2000
0000
0000
3002
0000
0000
0103
0000
1000
0000
0000
0000
0010
0000
1000
0000
0000
0000
,
0100
0010
0000
1000
0001
0000
0001
0010
0000
0100
0001
0000
,
1000
0010
0000
0100
1000
0000
0001
0100
0000
0010
1000
0000
,
0100
0010
0000
0100
0001
0000
1000
0010
0000
0100
0010
0000
,
1000
0001
0000
0010
0100
0000
0001
1000
0000
0010
0100
0000
,
1000
0010
0000
0100
0001
0000
0010
0100
0000
1000
0100
0000
,
0001
0100
0000
0010
1000
0000
0100
0001
0000
1000
0010
0000
,
0100
0001
0000
0001
0010
0000
0001
1000
0000
0100
0010
0000
,
1000
0001
0000
0100
0010
0000
1000
0001
0000
0010
0001
0000
,
0010
1000
0000
0100
1000
0000
0010
0100
0000
0001
1000
0000
,
0100
0010
0000
0010
0001
0000
0100
0010
0000
1000
0001
0000
,
0100
1000
0000
0010
0100
0000
0001
1000
0000
0100
0001
0000
,
1000
0010
0000
0100
0001
0000
0100
1000
0000
0010
1000
0000
,
0001
0100
0000
1000
0001
0000
0100
0001
0000
0100
1000
0000
,
0010
1000
0000
0001
0100
0000
0001
1000
0000
0010
1000
0000
,
0100
0001
0000
1000
0010
0000
0100
0001
0000
0100
1000
0000
,
0010
0100
0000
0001
0010
0000
1000
0100
0000
0010
0001
0000
,
0100
0010
0000
1000
0001
0000
0010
0100
0000
0001
1000
0000
,
0100
1000
0000
0010
1000
0000
0100
0001
0000
1000
0010
0000
,
0001
0100
0000
0001
0100
0000
1000
0010
0000
0010
0100
0000
,
0010
1000
0000
0100
0010
0000
0001
1000
0000
0001
0010
0000
,
0001
0100
0000
0001
1000
0000
0010
1000
0000
0100
0001
0000
,
1000
0010
0000
0010
0100
0000
0001
1000
0000
0010
0001
0000
,
0100
0001
0000
0010
1000
0000
0001
0100
0000
0001
1000
0000
,
0010
0100
0000
0001
1000
0000
0010
0001
0000
0100
0001
0000
,
0010
1000
0000
0100
0001
0000
1000
0010
0000
1000
0001
0000
,
0010
0001
0000
1000
0100
0000
0010
1000
0000
0100
0001
0000
,
1000
0010
0000
0001
0100
0000
1000
0010
0000
0001
0010
0000
,
0100
1000
0000
0001
1000
0000
0100
0010
0000
0100
0001
0000
,
0010
0100
0000
1000
0100
0000
0010
0001
0000
0100
1000
0000
,
0010
0100
0000
0001
0100
0000
0010
1000
0000
0100
1000
0000
,
0001
0100
0000
0010
1000
0000
0010
0100
0000
0001
0010
0000
,
0001
1000
0000
0010
1000
0000
0002
0000
0000
0000
0000
0000
,
0000
0000
0003
0000
,
0000
0000
0000
0000
,
0000
0000
0000
0000
,
0000
0000
0000
0000
,
0000
0000
0000
0000
,
0000
0000
0000
2000
0000
0000
3001
0100
0000
0001
1000
0000
,
0100
1000
0000
0010
0100
0000
0010
0001
0000
0100
0001
0000
,
0010
0001
0000
0100
0010
0000
0000
0000
0000
0000
0000
0000
;

//---------------dance-single - ----------------
#NOTES:
     dance-single:
     :
     Challenge:
     21:
     1.000,1.000,1.000,0.164,1.000,1880.000,1021.000,32.000,0.000,16.000:
0000
0000
0000
0000
,
0000
0000
0000
0000
,
0000
0000
0000
0000
1000
0100
0010
0001
1100
0000
0000
0000
0110
0000
1000
0000
,
0101
0000
1010
0000
0011
0100
1001
0000
,
0110
0000
1001
0000
0110
0000
1100
0010
,
0011
0000
1001
0000
0110
1000
0101
0000
,
0110
0000
1010
0000
1001
0000
0101
0010
,
1010
0000
0011
0000
0101
0010
1100
0000
,
0011
0000
0110
0000
1100
0000
0011
1000
,
0101
0000
1010
0000
0101
0100
1010
0000
,
0110
0000
1001
0100
1001
0000
0110
0001
,
1001
0000
0110
0000
1001
0100
1010
0000
,
0110
0000
0101
0000
1010
0000
0101
0100
,
1010
0000
0101
0000
0110
1000
1001
0000
,
0101
0000
1001
0000
0110
0000
0011
0100
,
1010
0000
0101
0000
0110
0010
1001
0000
,
0110
0000
1100
0000
0101
0000
0011
0100
,
1010
0000
1001
0100
0010
0000
2000
0100
,
3010
0001
1100
0001
2000
0000
3011
0000
,
1010
0000
0110
0101
,
0000
1100
0101
0210
,
0300
1100
0101
1001
,
0011
1100
0101
0011
,
0110
0000
1100
0110
,
0000
0101
1010
0120
,
0030
0101
0011
1010
,
1001
0000
0110
0000
1100
0001
1100
0010
,
1001
0000
0011
0100
1001
0100
1010
0100
,
1001
0010
1100
0010
0101
1000
0011
0100
,
1010
0000
0101
1000
0110
0001
1100
0001
,
0110
1000
0101
0010
1001
0100
1010
0001
,
1100
0000
0011
0100
0011
0100
1010
0001
,
1100
0000
0010
0000
1001
0000
0100
0000
0011
0000
0000
1010
0000
0000
0101
0110
,
1001
0100
0011
1000
0101
0000
1001
0010
,
0110
0001
1010
0000
0110
0001
1100
0010
,
1100
0001
1100
0010
1001
0000
0110
1000
,
0011
0001
1100
0000
0101
0010
1100
0001
,
1010
0100
0011
1000
0101
0000
1001
0010
,
0101
1000
0011
0000
1001
0100
0011
1000
,
0101
0010
0101
1000
0110
0000
0101
0010
,
1100
0001
0110
0000
1001
0010
1100
0001
,
1010
0100
0011
1000
0101
0000
0011
0010
,
1001
0100
1010
0000
0110
0001
0110
1000
,
0101
0010
1100
0001
0110
0000
0101
0010
,
1100
0001
1010
0000
0101
1000
0110
1000
,
0011
0100
0011
1000
0110
0000
1100
0010
,
1001
0010
0101
0000
0011
0100
1001
0010
,
2002
3003
0000
0000
,
0000
0000
0000
0000
0200
0000
0000
0300
,
1001
0000
0000
0011
1000
0000
0101
0010
0000
1100
0001
0000
,
1001
0010
0000
0110
0001
0000
1100
0010
0000
0101
1000
0000
,
0011
0100
0000
0011
1000
0000
0101
0010
0000
1100
0001
0000
,
1100
0010
0000
0101
0010
0000
1100
0001
0000
1010
0100
0000
,
0011
1000
0000
0011
0100
0000
1001
0010
0000
1100
0001
0000
,
1010
0100
0000
1001
0100
0000
0011
0100
0000
0110
1000
0000
,
0110
0001
0000
1100
0010
0000
1100
0001
0000
0101
0010
0000
,
0101
1000
0000
0101
0010
0000
1100
0001
0000
0101
0010
0000
,
1100
0001
0000
1010
0001
0000
0110
1000
0000
0101
1000
0000
,
0011
0100
0000
0011
1000
0000
0101
0010
0000
1010
0001
0000
,
1100
0010
0000
1010
0001
0000
0110
1000
0000
0011
0100
0000
,
0011
1000
0000
0110
0001
0000
1100
0010
0000
1100
0001
0000
,
0110
1000
0000
0011
1000
0000
0011
0100
0000
1010
0001
0000
,
0110
0001
0000
0110
1000
0000
0011
1000
0000
0011
0100
0000
,
2001
0000
3110
0000
1010
0100
0000
0010
,
1001
0000
0110
1000
0200
0000
0300
0000
,
0011
0100
0000
0110
1000
0000
1100
0001
0000
1001
0010
0000
,
1100
0001
0000
0101
1000
0000
1010
0100
0000
0101
0010
0000
,
1001
0100
0000
0110
0001
0000
1100
0010
0000
1010
0001
0000
,
0011
0100
0000
0101
1000
0000
0110
1000
0000
0011
1000
0000
,
0110
0001
0000
1100
0010
0000
1001
0100
0000
0011
0100
0000
,
1100
0010
0000
0011
0100
0000
0110
1000
0000
0101
0010
0000
,
0101
1000
0000
0101
0010
0000
1001
0100
0000
0011
1000
0000
,
0110
1000
0000
1100
0001
0000
1001
0010
0000
0011
0100
0000
,
0011
1000
0000
0110
0001
0000
1010
0001
0000
0110
1000
0000
,
0011
0100
0000
0101
1000
0000
0011
0100
0000
0101
1000
0000
,
0110
0001
0000
1100
0001
0000
0011
1000
0000
0110
0001
0000
,
1001
0010
0000
1100
0001
0000
1010
0001
0000
1010
0100
0000
,
0011
1000
0000
0110
0001
0000
1100
0010
0000
0011
0100
0000
,
1001
0010
0000
0101
0010
0000
0101
1000
0000
0011
1000
0000
,
0201
0000
1310
0000
0011
1000
0000
0010
,
0101
0110
1100
0020
,
1031
0100
0011
1000
0110
0010
1001
0100
,
1001
0010
1100
0001
0110
0001
1010
0100
,
0011
1000
0110
1000
0101
0010
1001
0100
,
0011
0001
1100
0001
0110
0001
1010
0100
,
1001
0010
1100
1000
0011
0001
0110
1000
,
0011
0100
1001
0100
0011
1000
0110
0001
,
1001
0010
0011
0100
0101
0010
1100
0001
,
0110
0001
1010
0100
1001
0010
0110
0001
,
1010
0001
0110
1000
0110
1000
0101
0010
,
1001
0100
0011
1000
0110
1000
0011
0100
,
1100
0001
1010
0100
1001
0010
1100
0001
,
0110
1000
0011
1000
0101
0010
1001
0100
,
0011
1000
0110
0001
0101
0010
1001
0010
,
1100
0001
0110
1000
1001
0010
1100
0010
,
1001
0100
0011
0100
1010
0000
0002
1000
,
0113
0010
1100
0001
0200
0000
1310
0000
,
1001
0000
0000
1010
0000
0000
1100
0000
,
0000
0000
0101
0000
1010
0101
1010
0000
,
0110
0000
0000
0011
0000
0000
1010
0000
,
0000
0000
0110
0000
0101
1010
0110
0000
,
0101
0000
0000
0110
0000
0000
1100
0000
,
0000
0000
1010
0000
1100
0011
0110
0000
,
1001
0000
0000
0101
0000
0000
1001
0000
,
0000
0000
0011
0000
0020
1001
0131
0000
,
1010
0000
0000
1010
0000
0000
1010
0000
,
0000
0000
0011
0000
0101
1010
1001
0000
,
0011
0000
0000
0011
0000
0000
0011
0000
,
0000
0000
0101
0000
1100
0011
0110
0000
,
1100
0000
0000
1100
0000
0000
1100
0000
,
0000
0000
0110
0000
1100
0011
1100
0000
,
0110
0000
0000
1010
0000
0000
0101
0011
1001
0000
0100
0000
0011
0000
1000
0000
,
0101
0000
1001
0010
0110
0001
1010
0000
,
0101
0001
1100
0010
1100
0001
0110
0010
,
1001
0000
0110
1000
0011
0001
1100
0000
,
0110
0010
1100
0001
1010
0100
0011
1000
,
0101
0000
1001
0010
0101
1000
0101
0000
,
0011
0100
1010
1000
0110
0001
0100
0001
,
1010
0000
0110
0000
1001
0000
1010
0100
,
0011
0000
1100
0000
0110
1000
0101
1000
,
0011
0000
0101
0010
1001
0100
0011
0000
,
1100
0001
0110
1000
0101
0010
1010
0001
,
0110
0000
0101
0010
1100
0001
0110
0000
,
0110
1000
0101
1000
0011
0100
0011
1000
,
0110
0000
0101
0010
1001
0010
1100
0000
,
0011
0100
1001
0010
1001
0100
0011
0000
,
0110
1000
0001
0010
1100
0000
0011
0100
,
0010
0000
0000
1000
0000
0000
0101
0000
0000
0010
0000
0000
1100
0000
0000
0000
0000
0000
0110
0000
0001
0000
0000
0000
,
1010
0100
0000
1001
0100
0000
0110
0001
0000
0101
1000
0000
,
0011
0100
0000
1001
0100
0000
0110
1000
0000
0101
1000
0000
,
1001
0100
0000
0110
1000
0000
0011
0100
0000
0101
0010
0000
,
0011
1000
0000
0110
1000
0000
1001
0100
0000
0011
1000
0000
,
0110
1000
0000
0011
0100
0000
1010
0001
0000
0110
0001
0000
,
1010
0001
0000
1100
0010
0000
0110
0001
0000
1010
0100
0000
,
1001
0010
0000
1001
0100
0000
0011
1000
0000
0110
0001
0000
,
1010
0100
0000
1100
0001
0000
1010
0100
0000
0011
0100
0000
,
0011
1000
0000
1001
0100
0000
0011
1000
0000
0101
0010
0000
,
1100
0001
0000
0101
0010
0000
1010
0100
0000
1001
0010
0000
,
0110
0001
0000
1010
0100
0000
1010
0001
0000
1100
0001
0000
,
0110
0001
0000
1100
0010
0000
1100
0001
0000
1001
0010
0000
,
0110
0001
0000
1010
0001
0000
0101
0010
0000
1100
0001
0000
,
1100
0010
0000
0101
1000
0000
0012
0000
0000
0113
0000
0000
,
1100
0000
0011
0000
1010
0000
0110
0100
,
0011
0000
2001
0000
3110
0010
0101
1000
,
0011
0010
1100
0001
0110
0100
1001
0010
,
1100
0001
1010
0100
1001
0010
0101
1000
,
0011
0100
0110
1000
0101
0010
1001
0100
,
0011
1000
0110
0001
0011
0100
1100
0001
,
0110
0100
1001
1000
0110
0001
1010
0010
,
0101
0001
1010
1000
0011
0010
0110
1000
,
0011
0001
1100
0001
1010
0100
1001
0100
,
0011
1000
1100
0010
1001
0010
1100
0001
,
1010
0100
0101
0001
1010
0100
0011
1000
,
0110
0100
0011
0100
1001
0010
1100
0001
,
0110
0100
1001
0010
0011
1000
0110
0001
,
0011
0010
1001
0010
1100
0001
0110
0001
,
1010
0100
0011
1000
0110
0001
1100
0100
,
0011
0010
0101
0010
1100
0000
1100
0001
,
0110
0000
2000
0001
3110
0001
1010
0100
,
0020
1031
0200
1310
,
0011
0000
1100
0110
,
0000
1010
0101
1200
,
0300
0011
0110
1001
,
1010
0101
1010
0011
,
1100
0000
1100
0110
,
0000
1010
0110
1200
,
0300
1001
0110
0011
,
1010
0000
1100
0000
1001
0000
0000
1010
,
0000
1001
0000
1010
,
0101
0000
1010
0000
0101
0000
0000
0011
,
0000
0101
0000
1001
,
0110
0000
0101
0000
1001
0000
0000
1010
,
0000
1100
0000
1010
,
1100
0000
0011
0000
0101
0000
0000
0011
,
0000
1001
0000
1001
,
0110
0000
1100
0000
1001
0000
0000
1100
,
0000
0110
1001
0000
0000
0011
1010
0000
,
0110
0000
1010
0000
1001
0000
0000
0101
,
0000
0110
1001
0000
0000
1100
0101
0000
,
0011
0000
0110
0000
1001
0000
0000
1001
,
0000
0011
1010
0000
0000
0110
1001
0000
,
0110
0000
0011
0000
1001
0000
0000
0110
,
0000
0000
0000
0000
1100
0000
0000
0000
0000
0000
0000
0000
1010
0001
0100
0010
,
1001
0000
0000
0100
0000
0000
0011
0000
0000
0010
0000
0000
1001
0000
0100
0000
0000
0000
1010
0000
0001
0000
0000
0000
,
0110
0001
0000
0011
1000
0000
0110
1000
0000
0101
0010
0000
,
1100
0001
0000
1010
0100
0000
0110
0001
0000
0101
1000
0000
,
0110
0001
0000
1100
0010
0000
1010
0001
0000
0110
0001
0000
,
1010
0100
0000
0011
0100
0000
0011
1000
0000
0110
0001
0000
,
1100
0001
0000
1010
0001
0000
0110
1000
0000
0011
0100
0000
,
0011
1000
0000
0011
0100
0000
0011
0000
0000
0011
0000
0000
,
0011
0000
0000
0011
0000
0000
0101
0010
1000
0011
0100
0010
,
1100
0000
0000
0001
0000
0000
1100
0000
0000
0010
0000
0000
1100
0000
0001
0000
0000
0000
0110
0000
1000
0000
0000
0000
,
0011
0100
0000
0011
1000
0000
0110
0001
0000
1100
0010
0000
,
1001
0100
0000
0011
0100
0000
1001
0010
0000
0110
0001
0000
,
1010
0100
0000
0011
1000
0000
0101
0010
0000
1100
0001
0000
,
0110
1000
0000
0011
0100
0000
1010
0001
0000
1100
0010
0000
,
0101
0001
0000
1010
0100
0000
0011
1000
0000
0011
0100
0000
,
0011
1000
0000
1100
0010
0000
0002
0000
0000
1103
0000
0000
,
0110
0101
0000
0011
1100
0101
1010
1001
,
0101
0010
1000
0100
0011
0000
0100
0000
1001
0000
0100
0000
0011
0000
1000
0000
,
0110
0010
1001
0100
1001
0010
1100
0001
,
0110
0001
1010
0100
0011
1000
0110
1000
,
0101
0010
1001
0100
0011
0001
1100
0001
,
0110
0001
1010
0100
1001
0010
1100
1000
,
0011
0001
0110
1000
0011
0100
1001
0100
,
0011
1000
0110
0001
1001
0010
0011
0100
,
0101
0010
1100
0001
0110
0001
1010
0100
,
1001
0010
0110
0001
1010
0001
0110
1000
,
0110
1000
0101
0010
1001
0100
0011
1000
,
0110
1000
0011
0100
1100
0001
1010
0100
,
1001
0010
1100
0001
0110
1000
0011
1000
,
0101
0010
1001
0100
0011
1000
0110
0001
,
0101
0010
1001
0010
1100
0001
0110
1000
,
1001
0010
1100
0010
1001
0100
0011
0100
,
1001
0000
0000
0100
0000
0000
0010
0000
0000
1000
0000
0000
0101
0000
0000
0000
0010
0000
0000
0000
0100
0000
0000
0000
1001
0000
0000
0000
0000
0000
0010
0000
0000
0000
0000
0000
1100
0000
0000
0000
0000
0000
0010
0000
0000
0000
0000
0000
,
0101
0000
0000
1000
0000
0000
0110
0000
0000
0001
0000
0000
1001
0000
0100
0000
0000
0000
0011
0000
1000
0000
0000
0000
,
0101
0010
0000
1100
0001
0000
1001
0010
0000
0110
0001
0000
,
1100
0010
0000
0101
1000
0000
0011
0100
0000
0011
1000
0000
,
0101
0010
0000
1100
0001
0000
1100
0010
0000
0101
0010
0000
,
1100
0001
0000
1010
0100
0000
0011
1000
0000
0011
0100
0000
,
1001
0010
0000
1100
0001
0000
1010
0100
0000
1001
0100
0000
,
0011
0100
0000
0110
1000
0000
0110
0001
0000
1100
0010
0000
,
1100
0001
0000
0101
0010
0000
0101
1000
0000
0101
0010
0000
,
1100
0001
0000
0101
0010
0000
1100
0001
0000
1010
0001
0000
,
0110
1000
0000
0101
1000
0000
0011
0100
0000
0011
1000
0000
,
0101
0010
0000
1010
0001
0000
1100
0010
0000
1010
0001
0000
,
0110
1000
0000
0011
0100
0000
0011
1000
0000
0110
0001
0000
,
1100
0010
0000
1100
0001
0000
0110
1000
0000
0011
1000
0000
,
0011
0100
0000
1010
0001
0000
0110
0001
0000
0110
1000
0000
,
0011
0000
1000
0000
0000
0000
0011
0000
0100
0000
0000
0000
1001
0000
0000
0100
0000
0000
0011
0000
0000
0100
0000
0000
,
1010
0001
1100
0010
0101
0010
1001
0100
,
0011
0000
0100
0000
0110
0000
1000
0000
0101
0010
0100
0010
1001
0100
0010
1000
,
0011
0100
1000
0010
0101
1000
0010
0100
0011
0100
1000
0010
0101
1000
0010
0001
,
1100
0000
0010
0000
0100
0000
1000
0000
0011
0000
0100
0000
0010
0000
1000
0000
0101
0010
0100
0001
1000
0100
0010
1000
0101
0010
0100
1000
0100
0010
0001
0100
,
1010
0001
0010
0100
0001
1000
0100
0010
1001
0010
0100
0001
1000
0100
0010
1000
0011
0100
0010
0001
0100
0010
0100
1000
0110
0001
0100
0010
1000
0100
0010
1000
,
0101
0010
0100
0001
1000
0100
0010
0001
1100
0010
0100
0001
0010
0100
0010
0100
2002
0000
0000
0000
0000
0000
0000
0000
0000
0000
0000
0000
0000
0000
0000
0000
,
0000
0000
3003
0000
2000
3002
0000
2003
,
3002
0000
0000
0003
0000
0000
2000
0000
0000
3002
0000
0000
1013
0000
0100
0000
0000
0000
0110
0000
1000
0000
0000
0000
,
1100
0001
0000
1001
0010
0000
1100
0001
0000
0101
1000
0000
,
1010
0100
0000
0101
0010
0000
1001
0100
0000
0110
0001
0000
,
1100
0010
0000
1010
0001
0000
0011
0100
0000
0101
1000
0000
,
0110
1000
0000
0011
1000
0000
0110
0001
0000
1100
0010
0000
,
1001
0100
0000
0011
0100
0000
1100
0010
0000
0011
0100
0000
,
0110
1000
0000
0101
0010
0000
0101
1000
0000
0101
0010
0000
,
1001
0100
0000
0011
1000
0000
0110
1000
0000
1100
0001
0000
,
1001
0010
0000
0011
0100
0000
0011
1000
0000
0110
0001
0000
,
1010
0001
0000
0110
1000
0000
0011
0100
0000
0101
1000
0000
,
0011
0100
0000
0101
1000
0000
0110
0001
0000
1100
0001
0000
,
0011
1000
0000
0110
0001
0000
1001
0010
0000
1100
0001
0000
,
1010
0001
0000
1010
0100
0000
0011
1000
0000
0110
0001
0000
,
1100
0010
0000
0011
0100
0000
1001
0010
0000
0101
0010
0000
,
0101
1000
0000
0011
1000
0000
0101
0010
0000
0110
1000
0000
,
0011
0100
0000
0110
1000
0000
0101
0010
0000
1100
0010
0000
,
1001
0100
0000
0110
0001
0000
1100
0000
0000
0110
0001
0000
,
1010
0100
0000
1001
0100
0000
0110
0001
0000
0101
1000
0000
,
0011
0100
0000
1001
0100
0000
0110
1000
0000
0101
1000
0000
,
1001
0100
0000
0110
1000
0000
0011
0100
0000
0101
0010
0000
,
0011
1000
0000
0110
1000
0000
1001
0100
0000
0011
1000
0000
,
0110
1000
0000
0011
0100
0000
1010
0001
0000
0110
0001
0000
,
1010
0001
0000
1100
0010
0000
0110
0001
0000
1010
0010
0000
,
1001
0100
0000
1001
0001
0000
0011
0010
0000
0110
1000
0000
,
1010
0001
0000
1010
0100
0000
1010
0010
0000
1001
1000
0000
,
0101
0010
0000
1001
0001
0000
0011
0010
0000
0101
0010
0000
,
1100
0001
0000
0101
0010
0000
1010
0100
0000
1001
0010
0000
,
0110
0001
0000
1010
0100
0000
1010
0001
0000
1100
0001
0000
,
0110
0010
0000
1100
1000
0000
1100
0100
0000
1001
0001
0000
,
0110
0010
0000
1010
1000
0000
0101
0100
0000
1100
1000
0000
,
1100
0010
0000
0101
1000
0000
0011
0100
0000
0011
1000
0000
,
0101
0010
0000
1001
0100
0000
0110
1000
0000
0101
0001
0000
,
1010
0001
0000
0110
1000
0000
0020
0000
0000
0000
0000
0000
,
0000
0000
0030
0000
,
0000
0000
0000
0000
,
0000
0000
0000
0000
,
0000
0000
0000
0000
,
0000
0000
0000
0000
,
0000
0000
0000
0200
0000
0000
0311
1000
0000
0110
0001
0000
,
1010
0100
0000
0101
0010
0000
1001
0100
0000
0110
0001
0000
,
0011
1000
0000
0110
1000
0000
0000
0000
0000
0000
0000
0000
;
