#TITLE:Forever;
#SUBTITLE:;
#ARTIST:M-Project;
#TITLETRANSLIT:;
#SUBTITLETRANSLIT:;
#ARTISTTRANSLIT:;
#CREDIT:;
#BANNER:forever-bn.png;
#BACKGROUND:../fallback-bg.png;
#LYRICSPATH:;
#CDTITLE:;
#MUSIC:Forever.ogg;
#OFFSET:-0.925;
#SAMPLESTART:115.520;
#SAMPLELENGTH:12.000;
#SELECTABLE:YES;
#BPMS:0.000=175.040;
#STOPS:;
#BGCHANGES:;
// cache tags:
#FIRSTBEAT:32.000;
#LASTBEAT:464.000;
#SONGFILENAME:Songs/SSSC PACK/[TH.SOS Brigade.Itsuki] - Forever/forever.sm;
#HASMUSIC:1;
#HASBANNER:1;
#MUSICLENGTH:163.208;
// end cache tags

//---------------dance-single - D. Lee----------------
#NOTES:
     dance-single:
     D. Lee:
     Challenge:
     14:
     1.000,1.000,0.331,0.325,1.000,1370.000,54.000,53.000,0.000,0.000:
0000
0000
0000
0000
,
0000
0000
0000
0000
,
0000
0000
0000
0000
,
0000
0000
0000
0000
,
0000
0000
0000
0000
,
0000
0000
0000
0000
,
0000
0000
0000
0000
,
0000
0000
0000
0000
,
0001
0100
0010
1000
0100
1000
0010
0100
,
0001
0010
0100
1000
0010
0100
0001
0011
,
1001
0001
0100
0010
1000
0100
0010
0100
,
1000
0010
0100
0001
0010
0100
1000
0100
,
0010
0000
0001
0000
0100
0000
0010
0000
1010
0000
1001
0000
1000
0100
0010
0001
,
0100
0001
1000
0100
0010
0001
0010
0100
1000
0010
0100
0001
1000
0001
1000
0001
,
1000
0010
0100
0010
0100
0010
0100
0010
1000
0001
0010
0100
1000
0010
0100
0001
,
1000
0001
1000
0100
0010
0001
0100
0001
1000
0001
0100
0010
1000
0001
0010
0100
1000
0100
0010
0001
1000
0010
0100
0001
,
1000
0000
0010
1000
0001
0010
0001
1000
0001
0000
0010
0100
1000
0010
0100
0010
,
1000
0100
1000
0100
0010
0001
1000
0001
1000
0000
0010
1000
0100
1000
0010
0100
,
0001
0010
0100
0010
0001
1000
0001
0100
0010
0000
1000
0100
1000
0010
0100
0001
,
0100
0010
1000
0100
0010
0001
1000
0001
0010
0000
0001
0100
0010
1000
0100
0010
,
0100
1000
0100
0010
0001
1000
0010
1000
0001
0000
0100
0010
0100
0001
1000
0010
,
0100
0001
0010
0100
0010
0100
1000
0100
0010
0000
0001
1000
0010
0100
0010
1000
,
0001
0010
0001
0100
0010
1000
0001
0010
0001
0000
1000
0010
0100
0010
1000
0001
,
0010
0100
1000
0010
0100
0010
1000
0010
0100
0000
0001
0010
0100
1000
0010
0100
,
0010
1000
0001
0010
0001
1000
0010
1000
0001
0000
0010
0100
1000
0010
0100
0001
,
1000
0010
0100
0001
0010
0100
0010
0001
1000
0000
0010
0100
0001
0100
0010
1000
,
0001
0010
0100
1000
0001
0100
0001
0100
0010
0000
1000
0100
1000
0001
0010
0001
,
0100
0010
1000
0100
1000
0001
0100
0010
0100
0000
0001
0010
0100
1000
0100
0010
,
0001
0100
0010
1000
0001
0010
0001
0100
0010
0000
1000
0100
1000
0001
0010
0001
,
0100
0010
1000
0100
0010
0001
1000
0001
1000
0000
0010
0100
0001
1000
0100
1000
,
0001
0100
0010
1000
0001
0100
0001
0100
0001
0100
0001
0100
0001
1000
0010
1000
,
0100
0010
0001
1000
0100
0010
0001
0100
0010
1000
0001
0100
0010
1000
0001
0010
0100
1000
0001
0100
0010
1000
0000
0000
,
1010
0010
1000
0100
1000
0010
0100
0010
,
1000
0100
0010
0001
0100
0010
1000
0001
,
0100
0010
1000
0010
0100
0010
1000
0010
,
0100
0001
0010
0100
1000
0100
0010
0001
,
1000
0010
0001
0010
1000
0010
0001
0010
,
0100
0001
0010
0001
0100
0001
0010
0100
,
1000
0100
0010
0100
1000
0100
0010
0100
,
1000
0001
0100
0010
0100
0001
0100
0010
,
1000
0001
0010
0001
1000
0010
1000
0001
,
0100
0010
1000
0100
1000
0010
0100
0001
,
1000
0010
1000
0010
1000
0010
1000
0010
1000
0001
1000
0001
1000
0001
1000
0001
,
0100
0000
0000
0010
0000
0000
0110
0000
0000
0010
0000
0000
1000
0100
0010
0001
0100
0010
1000
0001
0010
0100
1000
0001
,
1000
0010
1000
0010
1000
0001
1000
0010
,
0100
0001
0010
0001
0100
0001
0010
0100
,
1000
0001
1000
0010
1000
0001
1000
0001
,
0100
0010
1000
0100
1000
0010
1000
0100
,
0010
0001
0100
0010
1000
0001
0010
0100
,
1000
0010
0100
0010
1000
0010
0200
0300
,
0220
0330
2020
3030
2002
0000
0000
0000
,
0000
3003
0202
0303
0220
0330
2020
3030
,
2002
0000
0000
3000
0020
0000
0000
0000
,
0033
0000
0022
0033
2002
3003
0020
0030
,
0110
0010
1000
0001
0010
0001
0100
0010
,
2020
3030
0022
0033
0202
0303
0220
0330
,
2020
0000
0000
0030
0200
3000
0020
0330
,
0022
0000
0000
0000
0000
0030
2000
3000
,
0200
0303
0120
0000
1000
0030
2002
0003
,
0200
3300
0220
0000
0000
0330
2001
0000
,
0100
0000
0000
0000
0010
0000
3000
0000
0001
1000
0001
1000
0001
1000
0001
1000
,
0010
0100
0010
0100
0010
0100
0010
0100
0001
0010
0100
1000
0001
0100
0010
1000
,
0001
0100
0010
1000
0100
0010
0001
0010
0100
1000
0001
1000
0001
0100
0010
1000
0001
1000
0100
1000
0001
0100
0010
1000
,
0001
0000
0000
0100
0000
0000
0001
0000
0000
0100
0000
0000
0010
0000
0000
1000
0000
0000
0100
0000
0000
1000
0000
0000
0001
0000
0010
0000
0100
0000
1000
0000
0010
0000
0100
0000
0001
0000
1000
0000
0001
0000
1000
0000
0100
0000
0010
0000
,
0001
0010
0001
1000
0010
0100
0001
1000
0010
0100
0001
1000
0010
0100
0001
1000
,
0001
0010
0100
1000
0001
0010
0100
1000
0001
0010
0100
1000
0001
0010
0100
1000
,
0010
0100
0010
1000
0001
0100
0010
1000
0001
0100
0010
1000
0001
0100
0010
1000
,
0001
1000
0100
0010
0001
1000
0010
0100
0001
0010
0100
1000
0010
0100
0001
1000
,
0010
0100
0001
1000
0100
0010
0001
1000
0100
0010
0001
1000
0100
0010
0001
1000
,
0010
1000
0001
1000
0010
1000
0001
1000
0100
1000
0001
1000
0010
0100
0001
1000
,
0100
0010
0001
0100
0010
0100
0001
1000
0010
0100
0001
0100
0010
1000
0001
0100
,
0010
1000
0100
0010
0001
0100
0010
1000
0001
0010
0100
1000
0010
0100
0001
1000
,
0001
0010
0001
1000
0100
1000
0010
0100
0001
0010
0001
1000
0010
0100
0001
1000
,
0100
1000
0001
1000
0100
1000
0001
0100
0010
1000
0010
1000
0001
1000
0001
1000
,
0010
0100
0010
1000
0001
1000
0001
0100
0010
1000
0010
1000
0001
0100
0001
0100
,
0010
0000
0022
0033
2200
3300
0220
0330
,
0001
0100
0010
1000
0001
0010
0001
1000
0100
1000
0010
0100
0001
1000
0010
0100
,
0001
1000
0001
0010
0100
0010
0001
1000
0010
0100
0010
1000
0001
0100
0010
1000
,
0001
0010
0100
1000
0010
0100
0010
1000
0001
0100
0010
0100
0001
1000
0001
0100
,
0010
1000
0001
0010
0001
1000
0001
0010
0100
0010
0001
0100
0010
1000
0001
0100
,
0010
1000
0100
1000
0010
1000
0001
1000
0010
0100
0001
0010
0001
1000
0001
1000
,
0020
0000
0000
0030
0120
0000
2030
3000
,
1001
0001
0100
0010
1000
0100
0010
0001
,
1000
0100
0010
0001
1000
0001
0100
0010
1000
0001
1000
0100
1000
0001
0100
0010
1000
0001
0010
0100
1000
0001
0100
0010
,
1000
0000
0010
1000
0001
1000
0010
0100
0001
0000
1000
0001
0010
0100
0010
0001
,
1000
0010
0100
0010
1000
0001
0010
0100
1000
0000
0010
0100
0010
1000
0001
0010
,
0001
0100
0010
1000
0100
0010
0100
1000
0010
0000
0100
0001
0010
0100
0010
0001
,
0100
0010
1000
0100
0010
0001
0100
0010
1000
0000
0001
0010
0100
0010
0001
1000
,
0100
0010
0100
1000
0010
0100
0001
0010
0100
0000
1000
0010
1000
0001
0010
0001
,
0100
0010
0100
0001
0010
0100
0010
0001
1000
0000
0010
0100
0010
1000
0100
1000
,
0010
0100
0010
1000
0100
0010
0001
1000
0010
0000
0100
0010
0100
0001
0010
0001
,
0100
0000
0000
0010
0000
0000
1000
0000
0000
0000
0000
0000
0010
0000
0000
0000
0000
0000
1010
0000
0000
0000
0000
0000
1001
0000
0000
0000
0000
0000
1001
0000
0000
0000
0000
0000
0110
0000
0000
0000
0000
0000
0010
0000
1000
0000
0001
0000
,
1000
0100
0010
0001
0100
0010
0100
0001
0010
0000
0001
0100
0010
0100
0010
1000
,
0001
0000
0000
0010
0000
0000
0001
0000
0000
0100
0000
0000
0010
0000
0000
1000
0000
0000
0100
0000
0000
1000
0000
0000
0010
0000
0000
0000
0000
0000
0100
0000
0000
0001
0000
0000
0010
0000
0000
0001
0000
0000
1000
0000
0001
0000
1000
0000
,
0001
0100
0010
1000
0100
0010
0001
0010
0100
0000
0100
1000
0001
1000
0100
0010
,
0001
0100
0010
1000
0010
1000
0001
0010
0100
0000
0010
0001
0100
0010
1000
0100
,
1000
0010
0100
0001
0010
0001
1000
0100
0010
0000
0100
0010
0001
0100
0010
1000
,
0010
0000
0000
0100
0000
0000
0010
0000
0000
1000
0000
0000
0100
0000
0000
0010
0000
0000
0001
0000
0000
0010
0000
0000
0100
0000
0000
0000
0000
0000
1000
0000
0000
0001
0000
0000
1000
0000
0000
0010
0000
0000
0100
0000
0010
0000
0100
0000
,
0010
1000
0001
0100
0010
1000
0100
0010
0001
1000
0001
1000
0001
1000
0100
0000
,
0110
0000
0000
0110
0000
0000
0011
0000
0000
0011
0000
0000
0001
0010
0100
1000
0010
0100
0001
1000
0001
1000
0000
0000
,
0110
0000
0010
1000
0001
1000
0010
0100
0001
0000
0001
1000
0100
0010
0001
0100
,
0010
0000
0000
1000
0000
0000
0100
0000
0000
1000
0000
0000
0010
0000
0000
0100
0000
0000
0001
0000
0000
0010
0000
0000
0001
0000
0000
0000
0000
0000
0001
0000
0000
0010
0000
0000
0100
0000
0000
0010
0000
0000
0001
0000
1000
0000
0001
0000
,
1000
0010
1000
0100
0010
0001
1000
0001
0100
0000
0100
0010
1000
0010
0100
0001
,
0010
0001
0010
0100
1000
0010
0100
0001
1000
0000
1000
0001
0100
0010
1000
0100
,
0010
0001
0100
0010
0100
0001
0010
0100
1000
0000
1000
0010
0100
0010
1000
0001
,
0100
0001
0010
0100
1000
0010
0100
0001
0100
0000
0100
0010
1000
0001
0010
0001
,
0100
0001
0010
0100
1000
0010
0100
0001
0010
0000
0010
0100
1000
0010
0100
0001
,
1000
0000
0000
0010
0000
0000
0100
0000
0000
0000
0000
0000
1010
0000
0000
0000
0000
0000
1010
0000
0000
0000
0000
0000
1001
0000
0000
0000
0000
0000
1001
0000
0000
0000
0000
0000
0011
0000
0000
0000
0000
0000
0001
0000
1000
0000
0001
0000
,
1000
0001
0100
0010
1000
0100
0010
0001
0100
0000
0100
0010
1000
0001
0010
0001
,
1000
0000
0000
0001
0000
0000
0010
0000
0000
0100
0000
0000
1000
0000
0000
0010
0000
0000
0100
0000
0000
0001
0000
0000
1000
0000
0000
0000
0000
0000
1000
0000
0000
0100
0000
0000
0010
0000
0000
0100
0000
0000
1000
0000
0001
0000
1000
0000
,
0001
0100
0010
1000
0010
0100
0001
0010
0100
0000
0100
0010
0001
1000
0010
0100
,
0001
0010
0001
0100
0010
1000
0100
0010
0001
0000
0001
0100
0010
0100
0001
1000
,
0100
1000
0010
0100
0001
0010
0100
0010
0001
0000
0001
0100
0010
1000
0100
1000
,
0010
0000
0000
0100
0000
0000
0010
0000
0000
1000
0000
0000
0100
0000
0000
1000
0000
0000
0001
0000
0000
0010
0000
0000
0100
0000
0000
0000
0000
0000
0011
0000
0000
0000
0000
0000
1100
0000
0000
0000
0000
0000
1000
0000
0001
0000
1000
0000
,
0001
0100
0010
1000
0001
0100
0010
1000
0100
0000
0100
0010
0001
0100
0001
1000
,
0100
0100
1001
1001
0011
0011
1001
1001
,
0110
0000
0000
0000
;
