#TITLE:La Campanella(who_cares973);
#SUBTITLE:;
#ARTIST:Franz Liszt;
#TITLETRANSLIT:;
#SUBTITLETRANSLIT:;
#ARTISTTRANSLIT:;
#CREDIT:;
#BANNER:la campanella bn.png;
#BACKGROUND:La Campanella bg.png;
#LYRICSPATH:;
#CDTITLE:WC cdtitle.png;
#MUSIC:Liszt La Campanella.mp3;
#OFFSET:-0.034;
#SAMPLESTART:54.480;
#SAMPLELENGTH:12.000;
#SELECTABLE:YES;
#BPMS:0.000=110.003,9.000=109.999,10.000=110.003,19.000=109.999,20.000=110.003,28.000=109.999,29.000=110.003,38.000=109.999,39.000=110.003,47.000=109.999,48.000=110.003,56.000=109.999,58.000=110.003,66.000=109.999,67.000=110.003,75.000=109.999,77.000=110.003,85.000=109.999,86.000=110.003,94.000=109.999,96.000=110.003,104.000=109.999,105.000=110.003,113.000=109.999,115.000=110.003,123.000=109.999,125.000=110.003,133.000=109.999,134.000=110.003,142.000=109.999,144.000=110.003,152.000=109.999,154.000=110.003,161.000=109.999,162.000=110.003,169.000=109.999,170.000=110.003,171.000=109.999,172.000=110.003,179.000=109.999,181.000=110.003,188.000=109.999,189.000=110.003,190.000=109.999,191.000=110.003,198.000=109.999,199.000=110.003,200.000=109.999,201.000=110.003,208.000=109.999,210.000=110.003,217.000=109.999,218.000=110.003,219.000=109.999,220.000=110.003,227.000=109.999,228.000=110.003,229.000=109.999,230.000=116.855,231.000=128.905,232.000=115.519,233.000=127.287,234.000=124.810,235.000=138.229,236.000=103.795,237.000=104.762,238.000=109.610,239.000=109.878,240.000=110.961,241.000=108.819,242.000=108.815,244.000=111.236,245.000=110.146,246.000=110.693,247.000=109.079,248.000=110.421,249.000=110.146,250.000=109.878,251.000=111.236,252.000=110.421,253.000=109.878,254.000=110.146,255.000=109.882,256.000=109.878,258.000=110.961,259.000=109.878,261.000=97.502,262.000=109.878,263.000=109.882,264.000=109.878,265.000=111.085,266.000=108.934,267.000=109.999,280.000=109.995,281.000=109.999,294.000=109.995,295.000=109.999,297.000=109.995,298.000=109.999,311.000=109.995,312.000=109.999,314.000=109.995,315.000=109.999,323.000=109.995,324.000=109.999,330.000=109.995,331.000=109.999,339.000=109.995,340.000=109.999,345.000=109.995,346.000=109.999,354.000=109.995,355.000=109.999,366.000=109.995,367.000=109.999,375.000=109.995,376.000=109.999,377.000=99.317,378.000=109.999,386.000=109.995,387.000=109.999,395.000=109.995,396.000=109.999,405.000=109.995,406.000=109.999,413.000=138.422,414.000=146.423,415.000=146.416,416.000=132.872,417.000=106.470,418.000=110.142,419.000=110.146,420.000=110.142,423.000=110.146,424.000=110.142,427.000=109.999,428.000=108.934,429.000=110.003,433.000=109.999,434.000=110.003,438.000=109.999,439.000=110.003,443.000=109.999,444.000=110.003,448.000=109.999,449.000=110.003,452.000=109.999,453.000=110.003;
#STOPS:;
#BGCHANGES:;
// cache tags:
#FIRSTBEAT:0.000;
#LASTBEAT:446.000;
#SONGFILENAME:Songs/Hard Songs Megapack Volume 9/La Campanella/La Campanella(who_cares973).sm;
#HASMUSIC:1;
#HASBANNER:1;
#MUSICLENGTH:247.515;
// end cache tags

//---------------dance-single - ----------------
#NOTES:
     dance-single:
     :
     Challenge:
     12:
     1.000,1.000,1.000,0.000,1.000,2257.000,590.000,0.000,0.000,38.000:
1000
1000
1000
0001
0001
0001
1000
1000
,
1000
0001
0001
0001
1000
0001
0001
1000
,
0001
0000
0000
0000
0000
0000
0000
0000
0000
0000
0000
0000
0000
0000
0000
0000
0000
0000
0000
0000
0000
0000
0000
0000
0001
0000
0000
0000
0000
0000
0000
0000
0000
0000
0000
0000
0000
0000
0000
0000
0000
0000
0000
0000
0000
0000
0000
0000
0000
0000
0000
0000
0000
0000
0000
0000
0000
0000
0000
0000
0000
0000
0000
0000
0000
0000
0000
0000
0000
0000
0000
0000
1000
0000
0000
0000
0000
0000
0000
0000
0000
0000
0000
0000
0100
0000
0000
0000
0000
0000
0000
0000
0000
0000
0000
0000
0100
0000
0000
0000
0000
0000
0000
0000
0000
0000
0000
0000
0001
0000
0000
0000
0000
0000
0000
0000
0000
0000
0000
0000
0010
0000
0000
0000
0000
0000
0000
0000
0000
0000
0000
0000
0001
0000
0000
0000
0000
0000
0000
0000
0000
0000
0000
0000
0100
0000
0000
0000
0000
0000
0000
0000
0000
0000
0000
0000
0001
0000
0000
0000
0000
0000
0000
0000
0000
0000
0000
0000
1000
0000
0000
0000
0000
0100
0000
0000
0000
0000
0000
0000
0001
0000
0000
0000
0000
0000
0000
0000
0000
0000
0000
0000
,
1000
0000
0000
0000
0000
0000
0000
0000
0000
0000
0000
0000
0001
0000
0000
0000
0000
0000
0000
0000
0000
0000
0000
0000
0010
0000
0000
0000
0000
0000
0000
0000
0000
0000
0000
0000
0001
0000
0000
0000
0000
0000
0000
0000
0000
0000
0000
0000
0010
0000
0000
0000
0000
0100
0000
0000
0000
0000
0000
0000
0001
0000
0000
0000
0000
0000
0000
0000
0000
0000
0000
0000
1000
0000
0000
0000
0000
0000
0000
0000
0000
0000
0000
0000
0001
0000
0000
0000
0000
0000
0000
0000
0000
0000
0000
0000
0100
0000
0000
0000
0000
0000
0000
0000
0000
0000
0000
0000
0001
0000
0000
0000
0000
0000
0000
0000
0000
0000
0000
0000
1000
0000
0000
0000
0000
0010
0000
0000
0000
0000
0000
0000
0001
0000
0000
0000
0000
0000
0000
0000
0000
0000
0000
0000
0100
0000
0000
0000
0000
0000
0000
0000
0000
0000
0000
0000
0001
0000
0000
0000
0000
0000
0000
0000
0000
0000
0000
0000
0100
0000
0000
0000
0000
0000
0000
0000
0000
0000
0000
0000
0010
0000
0000
0000
0000
0000
0000
0000
0000
0000
0000
0000
,
0001
0000
0000
0000
0000
0100
0000
0000
0000
0000
0000
0000
0010
0000
0000
0000
0000
0000
0000
0000
0000
0000
0000
0000
0100
0000
0000
0000
0000
0000
0000
0000
0000
0000
0000
0000
0010
0000
0000
0000
0000
0000
0000
0000
0000
0000
0000
0000
1000
0000
0000
0000
0000
0000
0000
0000
0000
0000
0000
0000
0010
0000
0000
0000
0000
0000
0000
0000
0000
0000
0000
0000
0001
0000
0000
0000
0000
1000
0000
0000
0000
0000
0000
0000
0010
0000
0000
0000
0000
0000
0000
0000
0000
0000
0000
0000
0100
0000
0000
0000
0000
0000
0000
0000
0000
0000
0000
0000
0010
0000
0000
0000
0000
0000
0000
0000
0000
0000
0000
0000
1000
0000
0000
0000
0000
0000
0000
0000
0000
0000
0000
0000
0010
0000
0000
0000
0000
0000
0000
0000
0000
0000
0000
0000
1000
0000
0000
0000
0000
0100
0000
0000
0000
0000
0000
0000
0010
0000
0000
0000
0000
0000
0000
0000
0000
0000
0000
0000
1000
0000
0000
0000
0000
0000
0000
0000
0000
0000
0000
0000
0010
0000
0000
0000
0000
0000
0000
0000
0000
0000
0000
0000
,
0100
0000
0000
0000
0000
0000
0000
0000
0000
0000
0000
0000
0010
0000
0000
0000
0000
0000
0000
0000
0000
0000
0000
0000
0101
0000
0000
0000
0000
0000
0000
0000
0000
0000
0000
0000
0010
0000
0000
0000
0000
0000
0000
0000
0000
0000
0000
0000
0100
0000
0000
0000
0000
0000
0000
0000
0000
0000
0000
0000
0010
0000
0000
0000
0000
0000
0000
0000
0000
0000
0000
0000
0010
0000
0000
0000
0000
0000
0000
0000
0000
0000
0000
0000
0100
0000
0000
0000
0000
0000
0000
0000
0000
0000
0000
0000
0100
0000
0000
0000
0000
0000
0000
0000
0000
0000
0000
0000
1000
0000
0000
0000
0000
0000
0000
0000
0000
0000
0000
0000
0100
0000
0000
0000
0000
0000
0000
0000
0000
0000
0000
0000
1000
0000
0000
0000
0000
0000
0000
0000
0000
0000
0000
0000
0010
0000
0000
0000
0000
0000
0000
0000
0000
0000
0000
0000
1000
0000
0000
0000
0000
0000
0000
0000
0000
0000
0000
0000
0001
0000
0000
0000
0000
0010
0000
0000
0000
0000
0000
0000
1000
0000
0000
0000
0000
0000
0000
0000
0000
0000
0000
0000
,
0001
0000
0000
0000
0000
0000
0000
0000
0000
0000
0000
0000
1000
0000
0000
0000
0000
0000
0000
0000
0000
0000
0000
0000
0100
0000
0000
0000
0000
0000
0000
0000
0000
0000
0000
0000
1000
0000
0000
0000
0000
0000
0000
0000
0000
0000
0000
0000
0010
0000
0000
0000
0000
0100
0000
0000
0000
0000
0000
0000
1000
0000
0000
0000
0000
0000
0000
0000
0000
0000
0000
0000
0001
0000
0000
0000
0000
0000
0000
0000
0000
0000
0000
0000
1000
0000
0000
0000
0000
0000
0000
0000
0000
0000
0000
0000
0010
0000
0000
0000
0000
0000
0000
0000
0000
0000
0000
0000
1000
0000
0000
0000
0000
0000
0000
0000
0000
0000
0000
0000
0001
0000
0000
0000
0000
0100
0000
0000
0000
0000
0000
0000
1000
0000
0000
0000
0000
0000
0000
0000
0000
0000
0000
0000
0010
0000
0000
0000
0000
0000
0000
0000
0000
0000
0000
0000
1000
0000
0000
0000
0000
0000
0000
0000
0000
0000
0000
0000
0010
0000
0000
0000
0000
0000
0000
0000
0000
0000
0000
0000
0100
0000
0000
0000
0000
0000
0000
0000
0000
0000
0000
0000
,
1000
0000
0000
0000
0000
0010
0000
0000
0000
0000
0000
0000
0100
0000
0000
0000
0000
0000
0000
0000
0000
0000
0000
0000
0010
0000
0000
0000
0000
0000
0000
0000
0000
0000
0000
0000
0100
0000
0000
0000
0000
0000
0000
0000
0000
0000
0000
0000
0001
0000
0000
0000
0000
0000
0000
0000
0000
0000
0000
0000
0100
0000
0000
0000
0000
0000
0000
0000
0000
0000
0000
0000
0010
0000
0000
0000
0000
0001
0000
0000
0000
0000
0000
0000
0100
0000
0000
0000
0000
0000
0000
0000
0000
0000
0000
0000
0001
0000
0000
0000
0000
0000
0000
0000
0000
0000
0000
0000
0010
0000
0000
0000
0000
0000
0000
0000
0000
0000
0000
0000
0100
0000
0000
0000
0000
0000
0000
0000
0000
0000
0000
0000
1000
0000
0000
0000
0000
0000
0000
0000
0000
0000
0000
0000
0110
0000
0000
0000
0000
0000
0000
0000
0000
0000
0000
0000
0100
0000
0000
0000
0000
0000
0000
0000
0000
0000
0000
0000
0001
0000
0000
0000
0000
0000
0000
0000
0000
0000
0000
0000
0010
0000
0000
0000
0000
0000
0000
0000
0000
0000
0000
0000
,
0100
0000
0000
0000
1000
0000
0000
0000
1001
0000
0000
0000
0100
0000
0000
0000
0010
0000
0000
0000
0001
0000
0000
0000
1000
0000
0000
0000
0100
0000
0000
0000
0001
0000
0000
0000
0100
0000
0000
0000
0001
0000
0000
0000
0100
0000
0000
0000
0001
0000
0000
0000
0100
0000
0000
0010
0100
0000
0000
0000
0001
0000
0000
0000
,
1100
0000
0000
0000
0000
0000
0000
0000
0000
0000
0000
0000
0001
0000
0000
0000
0000
0000
0000
0000
0000
0000
0000
0000
0010
0000
0000
0000
0000
0000
0000
0000
0000
0000
0000
0000
0001
0000
0000
0000
0000
0000
0000
0000
0000
0010
0000
0000
0100
0000
0000
0000
0000
0000
0000
0000
0000
0000
0000
0000
0001
0000
0000
0000
0000
0000
0000
0000
0000
0000
0000
0000
1010
0000
0000
0000
0000
0000
0000
0000
0000
0000
0000
0000
0001
0000
0000
0000
0000
0000
0000
0000
0000
0000
0000
0000
0100
0000
0000
0000
0000
0000
0000
0000
0000
0000
0000
0000
0001
0000
0000
0000
0000
0000
0000
0000
0000
1000
0000
0100
0010
0000
0000
0000
0000
0000
0000
0000
0000
0000
0000
0000
0001
0000
0000
0000
0000
0000
0000
0000
0000
0000
0000
0000
1100
0000
0000
0000
0000
0000
0000
0000
0000
0000
0000
0000
0001
0000
0000
0000
0000
0000
0000
0000
0000
0000
0000
0000
0100
0000
0000
0000
0000
0000
0000
0000
0000
0000
0000
0000
0010
0000
0000
0000
0000
0000
0000
0000
0000
0100
0000
0000
,
0001
0000
0000
0000
0010
0000
0000
0000
0101
0000
0000
0000
0010
0000
0000
0000
1000
0000
0000
0000
0010
0000
0000
1000
0100
0000
0000
0000
0010
0000
0000
0000
1001
0000
0000
0000
0010
0000
0000
0000
0100
0000
0000
0000
0010
0000
0000
0100
1000
0000
0000
0000
0010
0000
0000
0000
1100
0000
0000
0000
0010
0000
0000
0000
,
0100
0000
0000
0000
0010
0000
0000
0000
1001
0000
0000
0000
0010
0000
0000
0000
1100
0000
0000
0000
0100
0000
0000
0000
0100
0000
0000
0000
0010
0000
0000
0000
0010
0000
0000
0000
0001
0000
0000
0000
0010
0000
0000
0000
0001
0000
0000
0000
0100
0000
0000
0000
0001
0000
0000
0010
1000
0000
0000
0000
0001
0000
0000
0000
,
1010
0000
0000
0000
0000
0000
0000
0000
0000
0000
0000
0000
0001
0000
0000
0000
0000
0000
0000
0000
0000
0000
0000
0000
0100
0000
0000
0000
0000
0000
0000
0000
0000
0000
0000
0000
0001
0000
0000
0000
0000
0000
0000
0000
0000
1000
0000
0000
0100
0000
0000
0000
0000
0000
0000
0000
0000
0000
0000
0000
0001
0000
0000
0000
0000
0000
0000
0000
0000
0000
0000
0000
1100
0000
0000
0000
0000
0000
0000
0000
0000
0000
0000
0000
0001
0000
0000
0000
0000
0000
0000
0000
0000
0000
0000
0000
0010
0000
0000
0000
0000
0000
0000
0000
0000
0000
0000
0000
0001
0000
0000
0000
0000
0000
0000
0000
0000
1000
0000
0100
0010
0000
0000
0000
0000
0000
0000
0000
0000
0000
0000
0000
0001
0000
0000
0000
0000
0000
0000
0000
0000
0000
0000
0000
1100
0000
0000
0000
0000
0000
0000
0000
0000
0000
0000
0000
0001
0000
0000
0000
0000
0000
0000
0000
0000
0000
0000
0000
1010
0000
0000
0000
0000
0000
0000
0000
0000
0000
0000
0000
0100
0000
0000
0000
0000
0000
0000
0000
0000
0001
0000
0000
,
0010
1000
0011
1000
0101
1000
1001
0010
1000
0100
0010
0001
1010
0001
1000
0100
,
0010
0001
1100
0010
0001
0100
0010
1000
0100
0010
0001
0000
0000
0000
0000
0000
,
0000
0000
0000
0000
0001
0000
1010
0000
0001
0000
0110
0000
0001
0000
1010
0000
0001
0000
1100
0000
0001
0010
0100
0010
1100
0000
0001
0000
1100
0000
0001
0000
,
0010
0100
1000
0100
1010
0000
0001
0000
1010
0000
0001
0000
0001
0010
0100
0010
1100
0000
0001
0000
1000
0000
0101
0000
1000
0000
0011
0000
1000
0000
0101
0000
,
1000
0000
0110
0000
0010
0100
1000
0100
0011
0000
1000
0000
0011
0000
1000
0000
0001
0010
0100
0010
0101
0000
1000
0000
0101
0000
1000
0000
1000
0001
0010
0001
,
0110
0000
1000
0000
0001
0000
1100
0000
0001
0000
0110
0000
0001
0000
1010
0000
0001
0000
1100
0000
0100
1000
0001
1000
0011
0000
1000
0000
0011
0000
1000
0000
,
0010
0100
1000
0100
0011
0000
1000
0000
0011
0000
1000
0000
1100
0000
0110
0000
0101
0000
0001
0000
0011
0000
0101
0000
1010
0000
1100
0000
0110
0000
0001
0000
,
1100
1010
0110
0101
1001
0001
0011
0110
1100
0110
1001
0100
1100
0101
0110
1000
,
1100
0001
0110
0001
0011
0100
1001
0100
1001
0100
1001
0100
0011
1000
0101
1000
,
0110
1000
1010
1000
0110
1000
0101
1000
1100
0010
1001
0100
1010
0001
1100
0001
,
1100
0001
1100
0001
0011
1000
0110
0001
1010
1000
1100
0001
0110
1000
0011
0001
,
0110
0001
1100
0001
0110
0001
1100
0001
1010
0001
1010
0001
1100
0001
1010
0001
,
1001
0011
0101
1010
0101
0110
1100
1010
0101
0011
1100
0001
0100
0010
1001
0010
,
1100
0001
0110
0001
0110
0001
1010
0001
0001
0010
0100
1000
1001
0010
0101
0100
,
1000
0100
1000
0100
0001
0010
1000
0010
1000
0010
0001
0010
0100
0010
0100
0010
,
0001
1000
0010
0100
0001
1000
0010
0100
0001
1000
0010
0100
0001
0010
0001
0100
,
0001
1000
0001
0100
0001
0010
0001
1000
0001
0100
0001
0100
0001
0100
0001
0100
,
0001
0100
0001
0100
0001
0100
1000
0100
0001
0100
1000
0100
0001
0100
1000
0100
,
0001
0100
1000
0100
0001
0100
1010
0100
0001
0100
1000
0100
1001
0100
1000
0100
,
0001
0100
1010
0100
0001
0100
1000
0100
0011
0100
1000
0100
0001
0100
1010
0100
,
0001
0000
0100
0000
1000
0000
0100
0000
0011
0000
0100
0000
1000
0000
0100
0000
0001
0000
0100
0000
1010
0000
0100
0000
0001
0000
0100
0000
1000
0000
0100
0010
,
1001
0100
1000
0100
0001
0100
1010
0100
0001
0100
1000
0100
0011
0100
1000
0100
,
0001
0100
1001
0100
0001
0100
1000
0100
1001
1000
0101
1000
0011
1000
0101
1000
,
0100
0000
0000
0010
0000
0000
0001
0000
0000
1000
0000
0000
0101
0000
0000
1000
0000
0000
0100
0000
0000
0010
0000
0000
0001
0000
0000
1000
0000
0000
0100
0000
0000
1000
0000
0000
0010
0000
0000
0100
0000
0000
0101
0000
1000
0000
1000
0000
,
1000
1000
0010
0100
0100
1000
0001
0001
0010
0100
0100
1000
0010
0010
0001
0100
0100
0010
1000
1000
0100
0001
0001
0010
,
0100
0100
1000
0001
0001
0010
1000
1000
0010
1000
1000
0010
0001
0001
0100
0010
0010
1000
0100
0100
0010
1000
1000
0010
,
1000
1000
0001
0010
0010
1000
0100
0100
1000
0010
0010
0100
1000
1000
0001
0010
0010
0100
1000
0100
0100
0010
0010
0010
,
0001
0001
0010
0001
0001
1000
0100
0100
0010
1000
1000
0010
1000
1000
0001
0010
0010
1000
0100
0100
0010
1000
1000
0010
,
0100
0100
1000
0001
0001
0100
0010
0010
0001
0100
0100
1000
0010
0010
0001
0100
0100
0010
1000
1000
0100
1000
1000
0001
,
0100
0100
0001
0010
0010
0001
1000
1000
0001
0100
0100
0001
0010
0010
0001
1000
1000
0001
0100
0100
0001
0010
0010
0001
,
1000
1000
0001
0100
0100
0001
0100
0100
0010
0010
0010
0001
1000
1000
0010
0100
0100
0001
1000
1000
0100
0010
0010
0001
,
1000
0000
0000
0000
0000
0000
0000
0000
1000
0000
0000
0000
0000
0000
0000
0000
0100
0000
0000
0000
0000
0000
0000
0000
0000
0000
0000
0000
0000
0000
0000
0000
0000
0000
0000
0000
0000
0000
0000
0000
0000
0000
0000
0000
0000
0000
0000
0000
0000
0000
0000
0000
0000
0000
0000
0000
0000
0000
0000
0000
0000
0000
0000
0000
0000
0000
0000
0000
0000
0000
0000
0000
0001
0000
0000
0000
0000
0000
0000
0000
0000
0000
0000
0000
0110
0000
0000
0000
0000
0000
0000
0000
0000
0000
0000
0000
0001
0000
0000
0000
0000
0000
0000
0000
0000
0000
0000
0000
1010
0000
0000
0000
0000
0000
0000
0000
0000
0000
0000
0000
0001
0000
0000
0000
0000
0000
0000
0000
0000
0000
0000
0000
1100
0000
0000
0000
0000
0000
0000
0000
0000
0000
0000
0000
0001
0000
0000
0000
0000
0000
0000
0000
0000
0000
0000
0000
1001
0000
0000
0000
0000
0000
0000
0000
0000
0000
0000
0000
0010
0000
0000
0000
0000
0000
0100
0000
0000
0000
0000
0000
1000
0000
0000
0000
0000
0000
0100
0000
0000
0000
0000
0000
,
0011
0000
0000
0000
0000
0000
1000
0000
0000
0000
0000
0000
0100
0000
0000
0000
0000
0000
1000
0000
0000
0000
0000
0000
0101
0000
0000
0000
0000
0000
0010
0000
0000
0000
0000
0000
1000
0000
0000
0000
0000
0000
0010
0000
0000
0000
0000
0000
0100
0000
0000
0000
0000
0000
0010
0000
0000
0000
0000
0000
0100
0000
0000
0000
0000
0000
0010
0000
0000
0000
0000
0000
1001
0000
0000
0000
0000
0000
0100
0000
0000
0000
0000
0000
0010
0000
0000
0000
0000
0000
0100
0000
0000
0000
0000
0000
0011
0000
0000
0000
0000
0000
0000
0000
0100
0000
0000
0000
0000
0000
0000
0000
0010
0000
0000
0000
0000
0000
0000
0000
0101
0000
0000
0000
0000
0000
0000
0000
1000
0000
0000
0000
0000
0000
0000
0000
0010
0000
0000
0000
0000
0000
0000
0000
1100
0000
0000
0000
0000
0000
0000
0000
0000
0000
0000
0000
0000
0000
0000
0000
0000
0000
0000
0000
0000
0000
0000
0000
1000
0000
0000
0000
0000
0000
0000
0000
0000
0000
0000
0000
0011
0000
0000
0000
0000
0000
0000
0000
0000
0000
0000
0000
,
1000
0000
0101
0000
1000
0000
0110
0000
1000
0000
1001
0000
1000
0001
0010
0100
0001
0010
0001
0010
0100
0010
0100
0010
1000
0010
1000
0010
1000
0100
1000
0100
,
0010
0000
0000
0000
0000
0000
0000
0000
0100
0000
0000
0000
0000
0000
0000
0000
0010
0000
0000
0000
0000
0000
0000
0000
0001
0000
0000
0000
0000
0000
0000
0000
0100
0000
0000
0000
0000
0000
0000
0000
0001
0000
0000
0000
0000
0000
0000
0000
0010
0000
0000
0000
0000
0000
0000
0000
0000
0000
0000
0000
0000
0000
0000
0000
0000
0000
0000
0000
0000
0000
0000
0000
0001
0000
0000
0000
0000
0000
0000
0000
0000
0000
0000
0000
0011
0000
0000
0000
0000
0000
0000
0000
0000
0000
0000
0000
0010
0000
0000
0000
0000
0000
0000
0000
0000
0000
0000
0000
0110
0000
0000
0000
0000
0000
0000
0000
0000
0000
0000
0000
0100
0000
0000
0000
0000
0000
0000
0000
0000
0000
0000
0000
1100
0000
0000
0000
0000
0000
0000
0000
0000
0000
0000
0000
0001
0000
0000
0000
0000
0000
0000
0000
0000
0000
0000
0000
0101
0000
0000
0000
0000
0000
0000
0000
0000
0000
0000
0000
1000
0000
0000
0000
0000
0000
0100
0000
0000
0000
0000
0000
0010
0000
0000
0000
0000
0000
0100
0000
0000
0000
0000
0000
,
1000
0000
0000
0000
0000
0000
0100
0000
0000
0000
0000
0000
1000
0000
0000
0000
0000
0000
0100
0000
0000
0000
0000
0000
0010
0000
0000
0000
0000
0000
0100
0000
0000
0000
0000
0000
0010
0000
0000
0000
0000
0000
0100
0000
0000
0000
0000
0000
0001
0000
0000
0000
0000
0000
0010
0000
0000
0000
0000
0000
0001
0000
0000
0000
0000
0000
0010
0000
0000
0000
0000
0000
0100
0000
0000
0000
0000
0000
0000
0000
0010
0000
0000
0000
0000
0000
0000
0000
0010
0000
0000
0000
0000
0000
0000
0000
0010
0000
0000
0000
0000
0000
0000
0000
0010
0000
0000
0000
0000
0000
0000
0000
0010
0000
0000
0000
0000
0000
0000
0000
0010
0000
0000
0000
0000
0000
1000
0000
0000
0000
0000
0000
0001
0000
0000
0000
0000
0000
1000
0000
0000
0000
0000
0000
0001
0000
0000
0000
0000
0000
1000
0000
0000
0000
0000
0000
0001
0000
0000
0000
0000
0000
1000
0000
0000
0000
0000
0000
0001
0000
0000
0000
0000
0000
1000
0000
0000
0000
0000
0000
0001
0000
0000
0000
0000
0000
1000
0000
0000
0000
0000
0000
,
0001
0010
0001
0010
0001
0010
0001
0010
0001
0010
0001
0010
1000
0010
1000
0010
1000
0010
1000
0010
1000
0010
1000
0010
1000
0100
1000
0100
1000
0100
1000
0100
,
1000
0000
0000
0000
0000
0000
0001
0000
0000
0000
0000
0000
0010
0000
0000
0000
0000
0000
0001
0000
0000
0000
0000
0000
0100
0000
0000
0000
0000
0001
0000
0000
0000
0000
0100
0000
0000
0000
0000
0001
0000
0000
0000
0000
0100
0000
0000
0000
0000
0000
0000
0000
0000
0000
0100
0000
0000
0000
0000
0000
0001
0000
0000
0000
0000
0000
0100
0000
0000
0000
0000
0000
0000
0000
0000
0000
0000
0000
0010
0000
0000
0000
0000
0000
0001
0000
0000
0000
0000
0000
0010
0000
0000
0000
0000
0000
0000
0000
0000
0000
0000
0000
0010
0000
0000
0000
0000
0000
0100
0000
0000
0000
0000
0000
0010
0000
0000
0000
0100
0000
0001
0000
0000
0000
0000
0000
0010
0000
0000
0000
0000
0000
0001
0000
0000
0000
0000
0000
0010
0000
0000
0000
1000
0000
0100
0000
0000
0000
0000
0000
0010
0000
0000
0000
0000
0100
0000
0000
0000
0000
0010
0000
0000
0000
0000
0000
1000
0000
0001
0000
0000
0000
0000
0000
0100
0000
0000
0000
0000
0000
1000
0000
0000
0000
0000
0000
0100
0000
0000
0000
0000
0000
,
0001
0100
0001
0100
0010
1000
0010
1000
0100
1000
0100
1000
0010
0100
0010
0100
0010
0001
0010
0001
0100
0001
0100
0001
1000
0000
0000
0000
0001
0010
0001
0100
,
0001
0000
0010
0000
0001
0000
0010
0001
1000
0000
0100
0000
0010
0000
0100
1000
0010
0000
0100
0000
0010
0000
0100
0001
1000
0000
0010
0000
0100
0000
0010
0000
0001
0000
0010
0000
0001
0000
0010
0000
0001
0000
0100
0000
0001
0000
0100
0000
0001
0000
1000
0000
0001
0000
1000
0000
0100
0000
0001
0000
0100
0000
0001
0000
,
1000
0010
1000
0010
1000
0100
1000
0100
1000
0000
0000
0000
0010
1000
0010
1000
0001
0100
0001
0100
0001
0100
0001
0100
0001
0100
0001
0100
0001
1000
0100
0010
,
0001
1000
0100
0010
0001
1000
0100
0010
0001
1000
0100
0010
1001
0010
0100
1000
0001
0010
0100
1000
0001
0010
0100
1000
0001
0010
0100
1001
0000
0000
0000
1100
,
0010
0100
0010
1001
0010
0100
0010
0101
1000
0001
1000
0110
1000
0001
1000
0101
1000
0001
1000
0011
1000
0100
0010
0001
1000
0100
0010
0001
1000
0100
0010
0001
,
1000
0100
0010
1001
0010
0100
1000
0001
0010
0100
1000
0001
0010
0100
1000
0001
0010
0100
1001
0010
0100
0001
1000
0010
0100
0001
1000
0010
0100
0001
1000
0010
,
0100
0000
0000
0000
0000
0000
0001
0000
0000
0000
0000
0000
0100
0000
0000
0000
0000
0000
1001
0000
0000
0000
0000
0000
0010
0000
0000
0000
0000
0000
0100
0000
0000
0000
0000
0000
1000
0000
0000
0000
0000
0000
0001
0000
0000
0000
0000
0000
0010
0000
0000
0000
0000
0000
0100
0000
0000
0000
0000
0000
1000
0000
0000
0000
0000
0000
0001
0000
0000
0000
0000
0000
0010
0000
0000
0000
0000
0000
0100
0000
0000
0000
0000
0000
1000
0000
0000
0000
0000
0000
0001
0000
0000
0000
0000
0000
0010
0000
0000
0000
0000
0000
0000
0100
0000
0000
0000
0000
0000
0000
0010
0000
0000
0000
0000
0000
0000
1001
0000
0000
0000
0000
0000
0100
0000
0000
0000
0000
0000
0000
0010
0000
0000
0000
0000
0000
0000
0100
0000
0000
0000
0000
0000
0000
0010
0000
0000
0000
0000
0000
0000
0000
0001
0000
0000
0000
0000
0000
0000
0000
1000
0000
0000
0000
0000
0000
0000
0000
0100
0000
0000
0000
0000
0000
0000
0000
0010
0000
0000
0000
0000
0000
0000
0000
0001
0000
0000
0000
0000
0000
0000
0000
,
1000
0000
0000
0000
0000
0000
0000
0000
0100
0000
0000
0000
0000
0000
0000
0000
0010
0000
0000
0000
0000
0000
0000
0000
0001
0000
0000
0000
0000
0000
0000
0000
1000
0000
0000
0000
0000
0000
0000
0000
0100
0000
0000
0000
0000
0000
0000
0000
1010
0000
0000
0000
0000
0000
0000
0000
0000
0001
0000
0000
0000
0000
0000
0000
0000
0000
0000
0010
0000
0000
0000
0000
0000
0000
0000
0000
0000
0100
0000
0000
0000
0000
0000
0000
0000
0000
0000
1000
0000
0000
0000
0000
0000
0000
0000
0000
0001
0000
0000
0000
0000
0000
0000
0000
0000
0000
0010
0000
0000
0000
0000
0000
0000
0000
0000
0000
0100
0000
0000
0000
0000
0000
0000
0000
0000
1000
0000
0000
0000
0000
0000
0000
0000
0000
0000
0001
0000
0000
0000
0000
0000
0000
0000
0000
0010
0000
0000
0000
0000
0000
0000
0000
0000
0000
0000
0100
0000
0000
0000
0000
0000
0000
0000
0000
0000
0000
1000
0000
0000
0000
0000
0000
0000
0000
0000
0000
0001
0000
0000
0000
0000
0000
0000
0000
0000
0000
0000
0000
0000
0000
0000
0000
,
0010
0000
0100
0000
1000
0000
0001
0000
0010
0000
0100
0000
1000
0000
0001
0010
0100
1000
0010
0100
1000
0001
0100
1000
0001
0010
1000
0001
0010
0100
0001
0010
,
0100
1000
0010
0100
1000
0001
0100
1000
0001
0010
1000
0001
0010
0100
0001
0010
0100
1000
0010
0100
1000
0001
0100
1000
0001
0010
1000
0001
0010
0100
0001
0010
,
0100
1000
0001
1000
0001
1000
0100
1000
0100
1000
0010
1000
0010
1000
0010
0100
0010
0100
0001
0100
0001
0100
0001
0010
0001
0010
0001
1000
0001
1000
0100
1000
,
0010
0100
0001
0010
0100
1000
0010
0100
0001
0010
0100
1000
0010
0100
0001
0010
0100
1000
0010
0100
0001
0010
0100
1000
0010
0100
0001
0010
0100
1000
0010
0100
,
1000
0100
0010
0001
1000
0100
0010
0001
1000
0001
1000
0010
1000
0001
1000
0010
1000
0001
1000
0010
1000
0001
1000
0010
1000
0001
0010
0100
0010
0100
0010
0100
,
0010
0100
0010
0100
0010
0100
0010
0100
0010
0100
0010
0100
0010
0100
0010
0100
0010
0100
0010
0100
0010
0100
0010
0100
0010
0100
0010
0100
0010
0100
0010
0100
,
0010
0100
0010
0100
0010
0100
0010
0100
0010
0100
0010
0100
0010
0100
0010
0100
1010
0100
0010
0100
0011
0100
0010
0100
0011
0100
0010
0100
1010
0100
0010
0100
,
1001
0010
0100
0010
1100
0010
0100
0010
0101
0010
0100
0010
1100
0010
0100
0010
0101
0010
0100
0010
1001
0100
0010
0100
0011
0100
0010
0100
1010
0100
0010
0100
,
1001
0010
0100
0010
0101
0010
0100
0010
1100
0010
0100
0010
0101
0010
0100
0010
1100
0010
0100
0010
0101
0010
0100
0010
1100
0010
0100
0010
1001
0100
0010
0100
,
1010
0100
0010
0100
1001
0010
0100
0010
0101
0010
0100
0010
1100
0010
0100
0010
0101
0010
0100
0010
1001
0100
0010
0100
0011
0100
0010
0100
1001
0010
0100
0010
,
1100
0000
0000
0000
0000
0000
0010
0000
0000
0000
0000
0000
0100
0000
0000
0000
0000
0000
0010
0000
0000
0000
0000
0000
1100
0000
0000
0000
0000
0000
0010
0000
0000
0000
0000
0000
1000
0000
0000
0000
0000
0000
0000
0000
0000
0000
0000
0000
1010
0000
0000
0000
0000
0000
0000
0000
0001
0000
0000
0000
0000
0000
0000
0000
0010
0000
0000
0000
0000
0000
0000
0000
0110
0000
0000
0000
0000
0000
0001
0000
0000
0000
0000
0000
0010
0000
0000
0000
0000
0000
0100
0000
0000
0000
0000
0000
1001
0000
0000
0000
0000
0000
0010
0000
0000
0000
0000
0000
1000
0000
0000
0000
0000
0000
0000
0000
0000
0000
0000
0000
1100
0000
0000
0000
0000
0000
0000
0000
0010
0000
0000
0000
0000
0000
0000
0000
1000
0000
0000
0000
0000
0000
0000
0000
0110
0000
0000
0000
0000
0000
0001
0000
0000
0000
0000
0000
0010
0000
0000
0000
0000
0000
0100
0000
0000
0000
0000
0000
1001
0000
0000
0000
0000
0000
0100
0000
0000
0000
0000
0000
1000
0000
0000
0000
0000
0000
0000
0000
0000
0000
0000
0000
,
1001
0000
0000
0000
0000
0000
0000
0000
0100
0000
0000
0000
0000
0000
0000
0000
1000
0000
0000
0000
0000
0000
0000
0000
1010
0000
0000
0000
0000
0000
0001
0000
0000
0000
0000
0000
0100
0000
0000
0000
0000
0000
1000
0000
0000
0000
0000
0000
0011
0000
0000
0000
0000
0000
0100
0000
0000
0000
0000
0000
0010
0000
0000
0000
0000
0000
0000
0000
0000
0000
0000
0000
1010
0000
0000
0000
0000
0000
0000
0000
0100
0000
0000
0000
0000
0000
0000
0000
0010
0000
0000
0000
0000
0000
0000
0000
0101
0000
0000
0000
0000
0000
0010
0000
0000
0000
0000
0000
0100
0000
0000
0000
0000
0000
1000
0000
0000
0000
0000
0000
0110
0000
0000
0000
0000
0000
0000
0000
0000
0000
0000
0000
0101
0000
0000
0000
0000
0000
0000
0000
0000
0000
0000
0000
0011
0000
0000
0000
0000
0000
0000
0000
0000
0000
0000
0000
0000
0000
0000
0000
0000
0000
0000
0000
0000
0000
0000
0000
1100
0000
0000
0000
0000
0000
0010
0000
0000
0000
0000
0000
0001
0000
0000
0000
0000
0000
0100
0000
0000
0000
0000
0000
,
1010
0000
0110
0000
0101
0000
0000
0000
1010
0000
1000
0010
0001
0000
0000
0000
1010
0100
1000
0100
1001
0010
0001
0010
1001
0010
0001
0010
1100
0010
1000
0010
,
0101
0010
1000
0010
0101
0010
1000
0010
1001
0100
1000
0100
1010
0100
1000
0100
1001
0010
0100
0010
0101
0010
0001
0010
1001
0010
1000
0010
0101
1000
0100
1000
,
0101
1000
0100
1000
0011
0100
0001
0100
1010
0100
0010
1000
0101
0010
0100
0010
1001
0100
1000
0100
1010
0001
0010
0100
1010
0100
1000
0010
1001
0100
0001
0100
,
1010
0100
0010
0001
1010
0100
1000
0010
1100
0010
0100
0010
1001
0010
0100
0010
0101
0010
0001
0100
0011
1000
0001
1000
0011
1000
0001
1000
0101
1000
0010
1000
,
0110
1000
0100
1000
0110
1000
0100
1000
0101
1000
0010
1000
0011
1000
0001
1000
0011
1000
0001
1000
0110
1000
0100
1000
0011
1000
0010
1000
0110
1000
0100
1000
,
0101
1000
0010
1000
0011
1000
0001
1000
0110
1000
0100
1000
0101
1000
0010
1000
0011
0100
0010
0001
1000
0100
0010
0001
1000
0100
0010
0001
1000
0100
0010
0001
,
1000
0000
0000
0000
0000
0000
0100
0000
0000
0000
0000
0000
0010
0000
0000
0000
0000
0000
0001
0000
0000
0000
0000
0000
1000
0000
0000
0000
0000
0000
0100
0000
0000
0000
0000
0000
0010
0000
0000
0000
0000
0000
0001
0000
0000
0000
0000
0000
0010
0000
0000
0000
0000
0000
1001
0000
0000
0000
0000
0000
0100
0000
0000
0000
0000
0000
0001
0000
0000
0000
0000
0000
1000
0000
0000
0000
0000
0000
0100
0000
0000
0000
0000
0000
0001
0000
0000
0000
0000
0000
0010
0000
0000
0000
0000
0000
0100
0000
0000
0000
0000
0000
0010
0000
0000
0000
0000
0000
0100
0000
0000
0000
0000
0000
1000
0000
0000
0000
0000
0000
0001
0000
0000
0000
0000
0000
0010
0000
0000
0000
0000
0000
0100
0000
0000
0000
0000
0000
1000
0000
0000
0000
0000
0000
0001
0000
0000
0000
0000
0000
0010
0000
0000
0000
0000
0000
0100
0000
0000
0000
0000
0000
1000
0000
0000
0000
0000
0000
0001
0000
0000
0000
0000
0000
0010
0000
0000
0000
0000
0000
0100
0000
0000
0000
1000
0000
0000
0000
0001
0000
0000
0000
,
0010
0100
1000
0001
0100
0010
1000
0100
0001
0010
0000
0000
0000
0000
0000
0000
0000
0000
1001
0000
0000
1001
0000
0000
1001
0000
0000
1001
0000
0000
1001
0000
0000
0011
0000
0000
1000
0000
0000
1010
0000
0000
0100
0000
0000
0110
0000
0000
,
1000
0101
0100
1010
1000
1001
0100
0011
1000
1100
1010
1001
0101
0000
0101
0101
,
0101
0101
0101
1010
1000
1100
0100
0101
1000
0011
0100
1010
1000
0101
0100
1001
,
1000
0010
1000
0010
0001
0000
0011
0011
0011
0011
1001
0101
1000
0110
0100
0101
,
1000
0011
0100
1010
1000
0101
0100
1100
1010
0011
0011
0101
0110
1010
1100
0101
,
0101
1001
0110
1010
1100
1001
1001
1010
0110
1100
1010
1100
1100
1010
0011
1100
,
0000
1100
1100
0110
0110
1010
1010
0101
0101
0011
0011
0001
0000
0011
0011
0110
,
0110
1100
1100
1010
1010
1001
1001
0101
0000
1001
1001
1010
1010
1100
1100
1001
,
1001
0101
0101
0011
0000
0011
0011
0110
0110
1010
1010
0110
0110
1001
1001
0011
,
0000
0101
0101
0110
0110
1010
1010
1001
1001
0101
0101
1100
0000
1100
1000
0110
,
0100
1001
1010
1100
1001
0101
1010
1100
0000
1010
1000
0011
0010
1100
0100
0001
,
0001
0010
0010
0001
0000
1010
0010
1100
0100
0001
0010
0100
1000
0101
0011
1001
,
0110
1100
1001
0101
0011
0110
1010
1001
0101
0110
1010
1100
0011
0110
1100
0101
,
0110
1010
1001
1010
1100
0011
0101
1001
1010
1100
0011
0110
1100
0101
0110
1010
,
1001
1010
1100
1001
0000
1000
1000
0100
0100
0010
0010
0001
0001
1000
1000
0100
,
0100
0010
0010
0001
0001
1000
1100
0100
0110
0010
0011
0001
1001
1000
1100
0001
,
0110
0000
0000
0000
0000
0000
0000
0000
0000
0000
0000
0000
1000
0000
0000
0000
0000
0000
0000
0000
0000
0000
0000
0000
0110
0000
0000
0000
0000
0000
0000
0000
0000
0000
0000
0000
0001
0000
0000
0000
0000
0000
0000
0000
0000
0000
0000
0000
0110
0000
0000
0000
0000
0000
0000
0000
0000
0000
0000
1000
0000
0000
0000
0000
0000
0000
0000
0000
0000
0000
0110
0000
0000
0000
0000
0000
0000
0000
0000
0000
0000
0001
0000
0000
0000
0000
0000
0000
0000
0000
0000
0000
0000
0000
0000
0000
0110
0000
0000
0000
0000
0000
0000
0000
0000
0000
0000
0000
0001
0000
0000
0000
0000
0000
0000
0000
0000
0000
0000
0000
0110
0000
0000
0000
0000
0000
0000
0000
0000
0000
0000
0000
0001
0000
0000
0000
0000
0000
0000
0000
0000
0000
0000
0000
1010
0000
0000
0000
0000
0000
0000
0000
0000
0000
0000
0000
0001
0000
0000
0000
0000
0000
0000
0000
0000
0000
0000
0000
1100
0000
0000
0000
0000
0000
0000
0000
0000
0000
0000
0000
0001
0000
0000
0000
0000
0000
0000
0000
0000
0000
0000
0000
,
0110
0001
0110
0001
1010
0001
1100
0001
0110
0001
1010
0001
1100
0001
0110
0001
,
0001
0001
0001
0001
0001
0001
0001
0001
0001
0001
0001
0001
0001
0001
0001
1001
,
0001
0101
0001
0001
0001
0010
0010
1001
0001
0110
0110
0110
0010
1100
0010
0110
,
0110
0110
1000
1010
0100
0101
0101
0101
0001
1001
0010
0011
0011
0011
0100
0101
,
0010
1001
1001
1001
1000
1010
0100
1100
1100
1100
0001
0101
0001
1000
1000
0100
,
0010
0001
0001
0001
0001
0010
0010
1100
0100
1100
1100
1010
0010
1001
1000
1001
,
1001
0101
0100
0011
0010
1001
1001
1001
1001
1001
1001
1001
1001
1001
0011
1100
,
0011
1001
0101
1010
0101
1100
0011
1100
0110
0011
0110
1010
0101
1010
1100
0110
,
1100
0000
0000
1001
0000
0000
0110
0000
0000
1001
0000
0000
0101
0000
0000
0000
1010
0000
0000
0000
0101
0000
0000
0000
1001
0000
0000
0000
0000
0000
0000
0000
0000
0000
0000
0000
0100
0000
0000
0000
0000
0000
0000
0000
0000
0000
0000
0000
,
1000
0000
0000
0000
0110
0000
1001
0100
1010
1100
0101
0100
1010
0010
0110
1010
,
0011
0100
1001
0100
0011
1010
0110
0010
1001
0100
1010
1100
0011
0000
0101
0010
,
1001
1010
0110
0010
0110
0001
1010
1100
0011
0010
0101
0010
0011
1010
0110
0001
,
1100
0010
0101
1010
1011
0000
1110
1101
0111
0000
0111
1011
1110
1011
1110
0000
,
1111
0000
1110
1101
0111
0000
0111
1011
1110
1011
1110
0000
1001
0000
0111
1101
,
1110
0000
1101
0000
0111
1011
1110
0000
0111
0000
0111
1101
1110
0000
1011
0000
,
0000
1011
0111
1011
0111
1011
1110
0000
,
0000
1111
0000
0000
1111
0000
0000
0000
;
