#TITLE:If Trees Could Speak;
#SUBTITLE:;
#ARTIST:The Flashbulb;
#TITLETRANSLIT:;
#SUBTITLETRANSLIT:;
#ARTISTTRANSLIT:;
#CREDIT:;
#BANNER:;
#BACKGROUND:;
#LYRICSPATH:;
#CDTITLE:ninjaTitle[1].png;
#MUSIC:08 if trees could speak.mp3;
#OFFSET:-0.020;
#SAMPLESTART:30.080;
#SAMPLELENGTH:15.000;
#SELECTABLE:YES;
#BPMS:0.000=100.000;
#STOPS:;
#BGCHANGES:;
// cache tags:
#FIRSTBEAT:8.000;
#LASTBEAT:176.000;
#SONGFILENAME:Songs/new/ITCS/ITCS.sm;
#HASMUSIC:1;
#HASBANNER:0;
#MUSICLENGTH:108.068;
// end cache tags

//---------------dance-single - Blank----------------
#NOTES:
     dance-single:
     Blank:
     Hard:
     10:
     0.654,0.753,0.315,0.167,0.874,443.000,34.000,18.000,0.000,1.000:


0000
0000
0000
0000
,
0000
0000
0000
0000
,
0001
0100
1000
0001
0010
0010
0100
0001
1000
0010
1000
0001
0100
0100
0001
0001
,
1000
0000
0000
0100
0000
0000
0010
0000
0000
0001
0000
0000
0100
0000
0000
0100
0000
0000
0001
0000
0000
1000
0000
0000
0010
0000
0000
0100
0000
0000
0001
0000
0000
0100
0000
0000
0001
0000
0000
0000
0001
0000
0000
0000
0001
0000
0000
0000
,
0010
0000
0100
1000
0000
0100
1000
0000
0001
0000
0100
0001
0000
0100
0001
0000
,
0100
0000
0010
0100
0000
0010
0100
0000
0001
0000
1000
0001
0000
1000
0001
0000
,
1000
0100
1000
0010
0000
0100
0010
0000
0100
0000
0001
0010
0000
0001
1000
0000
,
0010
0000
0000
0000
0000
0000
0000
0000
0000
0000
0000
0000
1000
0000
0000
0000
0000
0000
0000
0000
0000
0000
0000
0000
0000
0000
0000
0000
0000
0000
0000
0000
0000
0000
0000
0000
0001
0000
0000
0000
0000
0000
0000
0000
0000
0000
0000
0000
0010
0000
0000
0000
0000
0000
0000
0000
0000
0000
0000
0000
0000
0000
0000
0000
0000
0000
0000
0000
0000
0000
0000
0000
0001
0000
0000
0000
0000
0000
0000
0000
0000
0000
0000
0000
0100
0000
0000
0000
0000
0000
0000
0000
0000
0000
0000
0000
0000
0000
0000
0000
0000
0000
0000
0000
0000
0000
0000
0000
0010
0000
0000
0000
0000
0000
0000
0000
0000
0000
0000
0000
0100
0000
0000
0000
0000
0000
0000
0000
0000
0000
0000
0000
0000
0000
0000
0000
0000
0000
0000
0000
0000
0000
0000
0000
0010
0000
0000
0000
0000
0000
0000
0000
0000
0000
0000
0000
0001
0000
0000
0000
0000
0000
0000
0000
0000
0000
0000
0000
0010
0000
0000
0000
0000
0000
0001
0000
0000
0000
0000
0000
0010
0000
0000
0000
0001
0000
0000
0000
0100
0000
0000
0000
,
0010
0000
1000
0100
0000
0010
0001
0000
0100
0000
0001
0100
0000
0010
1000
0000
,
0001
0000
0100
0010
0000
1000
0001
0000
0100
0000
0010
0001
0000
1000
0100
0202
,
1303
0000
0100
0001
0000
0010
0001
0000
1000
0010
0100
0010
0000
1000
0100
0100
,
0010
0000
0000
0000
0000
0000
0000
0000
0000
0000
0000
0000
0000
0000
0000
0000
0000
0000
0000
0000
0000
0000
0000
0000
0001
0000
0000
0000
0000
0000
0000
0000
0000
0000
0000
0000
0100
0000
0000
0000
0000
0000
0000
0000
0000
0000
0000
0000
0010
0000
0000
0000
0000
0000
0000
0000
0000
0000
0000
0000
0001
0000
0000
0000
0000
0000
0000
0000
0000
0000
0000
0000
0000
0000
0000
0000
0000
0000
0000
0000
0000
0000
0000
0000
0000
0000
0000
0000
0000
0000
0000
0000
0000
0000
0000
0000
0000
0000
0000
0000
0000
0000
0000
0000
0000
0000
0000
0000
0000
0000
0000
0000
0000
0000
0000
0000
0000
0000
0000
0000
0000
0000
0000
0000
0000
0000
0000
0000
0000
0000
0000
0000
0000
0000
0000
0000
0000
0000
0000
0000
0000
0000
0000
0000
0100
0000
0000
0000
0000
0000
0000
0000
0000
0000
0000
0000
0100
0000
0000
0000
0000
0000
0000
0000
0000
0000
0000
0000
0010
0000
0000
0000
0000
0000
1000
0000
0000
0000
0000
0000
0001
0000
0000
0000
1000
0000
0000
0000
0010
0000
0000
0000
,
0100
0000
0100
0001
0101
0000
0010
0000
1100
0001
0100
0100
1001
0000
0010
0000
,
1100
0000
0001
0001
1001
0000
0100
0000
0110
0100
0010
0000
0101
0100
0000
0000
,
1001
0000
1000
0100
0011
0000
1000
0000
1100
1000
0000
0000
0101
0000
0000
0000
,
1100
0000
0001
0100
1100
0000
0001
0000
1100
0001
0100
0000
0011
0010
0000
0000
,
1001
0000
0000
0000
0000
0000
0000
0000
0000
0000
0000
0000
1001
0000
0000
0000
0000
0000
0000
0000
0000
0000
0000
0000
1001
0000
0000
0000
0000
0000
0000
0000
0000
0000
0000
0000
1001
0000
0000
0000
0000
0000
0000
0000
0000
0000
0000
0000
0010
0000
0000
0000
0000
0000
0200
0000
0000
0000
0000
0000
0000
0000
0000
0000
0000
0000
0000
0000
0000
0000
0000
0000
0301
0000
0000
0000
0000
0000
0000
0000
0010
0000
0000
0000
0000
0000
0000
0000
0100
0000
0000
0000
0000
0000
0000
0000
0010
0000
0000
0000
0000
0000
0000
0000
0000
0000
0000
0000
0001
0000
0000
0000
0000
0000
0000
0000
0000
0000
0000
0000
1000
0000
0000
0000
0000
0000
0000
0000
0000
0000
0000
0000
0010
0000
0000
0000
0000
0000
0000
0000
0000
0000
0000
0000
0100
0000
0000
0000
0000
0000
0000
0000
0000
0000
0000
0000
0000
0000
0000
0000
0000
0000
0000
0000
0000
0000
0000
0000
0010
0000
0000
0000
0000
0000
0000
0000
0000
0000
0000
0000
0000
0000
0000
0000
0000
0000
0000
0000
0000
0000
0000
0000
,
0011
0000
0100
0010
1001
0000
0010
0000
1100
0100
1000
0000
1100
0100
1000
0000
,
1001
0000
1000
0100
0101
0000
1000
0000
0110
0100
0000
0001
0011
0000
0010
0000
,
1001
0000
0000
0000
0000
0000
0100
0000
0000
0000
0000
0000
1010
0000
0000
0000
0000
0000
1000
0000
0000
0000
0000
0000
0101
0000
0000
0000
0000
0000
0101
0000
0000
0000
0000
0000
1001
0010
0001
0010
0001
0010
0001
0000
0000
0000
0000
0000
,
0102
0010
2003
0100
,
3020
0000
0000
0000
0001
0000
0030
0000
0010
1000
0001
0001
1000
1000
0100
0100
,
0002
0010
0203
1000
,
0302
0000
0000
0000
0010
0000
0000
0000
0103
0000
0000
0000
1000
0100
0010
0010
,
0002
0010
2003
0010
,
3200
0000
0000
0000
1000
0000
0300
0000
0001
0010
0100
0100
0001
0001
0010
0010
,
2000
0000
0000
0000
0000
0200
0000
0000
0000
0000
0000
0000
0000
0000
0000
0000
,
0000
0000
0000
3300
,
0010
0001
1000
0010
0100
0001
0100
0010
1000
0100
0010
0001
0100
0010
1000
0100
,
1000
0001
0100
0010
0100
0001
1000
0100
0010
0001
0100
0010
2000
0000
0000
0000
,
3001
0100
0010
1000
0010
0100
0001
1000
0100
0010
0001
0100
0010
1000
0001
0100
,
0001
1000
0100
0001
0100
0010
0001
0100
0010
1000
0001
1000
0010
0010
0000
1000
,
0001
0100
0001
1000
0100
0010
0001
0100
0010
1000
0100
1000
0001
0100
0010
0100
,
0001
1000
0100
0010
0001
0100
0010
1000
0100
1000
0001
0100
0020
0000
0000
0000
,
1030
0001
0100
0001
1000
0100
0010
0001
0100
0010
1000
0100
1000
0001
0100
1000
,
0100
0001
1000
0100
0010
0001
0100
0010
1000
0100
1000
0001
0100
0100
0000
0000
,
0001
0100
0010
0100
0001
1000
0100
0010
0001
0100
0010
1000
0100
1000
0001
0100
,
0010
0100
0001
1000
0100
0010
0001
0100
0010
1000
0100
1000
0002
0000
0000
0000
,
0103
0001
1000
0100
0010
0001
0100
0010
1000
0100
1000
0001
0100
0010
0100
0001
,
1000
0100
0010
0001
0100
0010
1000
0100
1000
0001
0100
0010
0100
0001
0000
1000
,
0100
0010
0001
1000
,
0001
1000
0010
0000
,
0010
1000
0001
1000
,
0100
0020
0000
0000
,
0030
0000
0000
0000
;

//---------------dance-single - HEAVY----------------
#NOTES:
     dance-single:
     HEAVY:
     Challenge:
     11:
     0.825,0.916,1.000,0.176,0.874,443.000,162.000,19.000,0.000,4.000:

0000
0000
0000
0000
,
0000
0000
0000
0000
,
0001
0100
1000
0001
0010
0010
0100
0001
1000
0010
1000
0001
0100
0100
0001
0001
,
1000
0000
0000
0100
0000
0000
0010
0000
0000
0001
0000
0000
0100
0000
0000
0100
0000
0000
0001
0000
0000
1000
0000
0000
0010
0000
0000
0100
0000
0000
0001
0000
0000
0100
0000
0000
0011
0000
0000
0000
0011
0000
0000
0000
0011
0000
0000
0000
,
1001
0000
0100
1001
0000
0100
1001
0000
0011
0000
0100
0011
0000
0100
0011
0000
,
1100
0000
0010
1100
0000
0010
1100
0000
0101
0000
1000
0101
0000
1000
0101
0000
,
1001
0100
1000
0011
0000
0100
0011
0000
0110
0000
0001
0110
0000
0001
1010
0000
,
0010
0000
0000
0000
0000
0000
0000
0000
0000
0000
0000
0000
1100
0000
0000
0000
0000
0000
0000
0000
0000
0000
0000
0000
0000
0000
0000
0000
0000
0000
0000
0000
0000
0000
0000
0000
0001
0000
0000
0000
0000
0000
0000
0000
0000
0000
0000
0000
1010
0000
0000
0000
0000
0000
0000
0000
0000
0000
0000
0000
0000
0000
0000
0000
0000
0000
0000
0000
0000
0000
0000
0000
0001
0000
0000
0000
0000
0000
0000
0000
0000
0000
0000
0000
1100
0000
0000
0000
0000
0000
0000
0000
0000
0000
0000
0000
0000
0000
0000
0000
0000
0000
0000
0000
0000
0000
0000
0000
0010
0000
0000
0000
0000
0000
0000
0000
0000
0000
0000
0000
0101
0000
0000
0000
0000
0000
0000
0000
0000
0000
0000
0000
0000
0000
0000
0000
0000
0000
0000
0000
0000
0000
0000
0000
0010
0000
0000
0000
0000
0000
0000
0000
0000
0000
0000
0000
0001
0000
0000
0000
0000
0000
0000
0000
0000
0000
0000
0000
0010
0000
0000
0000
0000
0000
0001
0000
0000
0000
0000
0000
0010
0000
0000
0000
0001
0000
0000
0000
0100
0000
0000
0000
,
0010
0000
1000
0101
0000
0010
1001
0000
0110
0000
0001
1100
0000
0010
1100
0000
,
0011
0000
0100
0011
0000
1000
0011
0000
1100
0000
0010
0101
0000
1000
0110
0202
,
1313
0000
0100
1001
0000
0010
0101
0000
1100
0010
0100
0011
0000
1000
0100
0100
,
0010
0000
0000
0000
0000
0000
0000
0000
0000
0000
0000
0000
0000
0000
0000
0000
0000
0000
0000
0000
0000
0000
0000
0000
0001
0000
0000
0000
0000
0000
0000
0000
0000
0000
0000
0000
0100
0000
0000
0000
0000
0000
0000
0000
0000
0000
0000
0000
0010
0000
0000
0000
0000
0000
0000
0000
0000
0000
0000
0000
0001
0000
0000
0000
0000
0000
0000
0000
0000
0000
0000
0000
0000
0000
0000
0000
0000
0000
0000
0000
0000
0000
0000
0000
0000
0000
0000
0000
0000
0000
0000
0000
0000
0000
0000
0000
0000
0000
0000
0000
0000
0000
0000
0000
0000
0000
0000
0000
0000
0000
0000
0000
0000
0000
0000
0000
0000
0000
0000
0000
0000
0000
0000
0000
0000
0000
0000
0000
0000
0000
0000
0000
0000
0000
0000
0000
0000
0000
0000
0000
0000
0000
0000
0000
0100
0000
0000
0000
0000
0000
0000
0000
0000
0000
0000
0000
0100
0000
0000
0000
0000
0000
0000
0000
0000
0000
0000
0000
0010
0000
0000
0000
0000
0000
1000
0000
0000
0000
0000
0000
0001
0000
0000
0000
1000
0000
0000
0000
0010
0000
0000
0000
,
0100
0000
0100
0001
0101
0000
0010
0000
1100
0011
0100
0100
1001
0000
0011
0000
,
1100
0000
0001
0011
1001
0000
0100
0000
0110
1100
0010
0000
0101
1100
0000
0000
,
1001
0000
1100
0100
0011
0000
1001
0000
1100
1001
0000
0000
0101
0000
0000
0000
,
1100
0000
0001
0101
1100
0000
0011
0000
1100
0101
0100
0000
0011
0110
0000
0000
,
1001
0000
0000
0000
0000
0000
0000
0000
0000
0000
0000
0000
1001
0000
0000
0000
0000
0000
0000
0000
0000
0000
0000
0000
1001
0000
0000
0000
0000
0000
0000
0000
0000
0000
0000
0000
1001
0000
0000
0000
0000
0000
0000
0000
0000
0000
0000
0000
0010
0000
0000
0000
0000
0000
0200
0000
0000
0000
0000
0000
0000
0000
0000
0000
0000
0000
0000
0000
0000
0000
0000
0000
0301
0000
0000
0000
0000
0000
0000
0000
0010
0000
0000
0000
0000
0000
0000
0000
0100
0000
0000
0000
0000
0000
0000
0000
1010
0000
0000
0000
0000
0000
0000
0000
0000
0000
0000
0000
0011
0000
0000
0000
0000
0000
0000
0000
0000
0000
0000
0000
1000
0000
0000
0000
0000
0000
0000
0000
0000
0000
0000
0000
0010
0000
0000
0000
0000
0000
0000
0000
0000
0000
0000
0000
0110
0000
0000
0000
0000
0000
0000
0000
0000
0000
0000
0000
0000
0000
0000
0000
0000
0000
0000
0000
0000
0000
0000
0000
1010
0000
0000
0000
0000
0000
0000
0000
0000
0000
0000
0000
0000
0000
0000
0000
0000
0000
0000
0000
0000
0000
0000
0000
,
0011
0000
0100
0110
1001
0000
0011
0000
1100
0110
1000
0000
1100
0110
1000
0000
,
1001
0000
1000
0110
0101
0000
1000
0000
0110
1100
0000
1001
0011
0000
0110
0000
,
1001
0000
0000
0000
0000
0000
0101
0000
0000
0000
0000
0000
1010
0000
0000
0000
0000
0000
1100
0000
0000
0000
0000
0000
0101
0000
0000
0000
0000
0000
0101
0000
0000
0000
0000
0000
1001
0010
0001
0010
0001
0010
0001
0000
0000
0000
0000
0000
,
0102
0010
2003
0100
,
3020
0000
0000
0000
0001
0000
0030
0000
0010
1000
0001
0001
1000
1000
0100
0100
,
0002
0010
0203
1000
,
0302
0000
0000
0000
0010
0000
0000
0000
0103
0000
0000
0000
1000
0100
0010
0010
,
0002
0010
2003
0010
,
3200
0000
0000
0000
1000
0000
0300
0000
0001
0010
0100
0100
0001
0001
0010
0010
,
2000
0000
0000
0000
0000
0200
0000
0000
0000
0000
0000
0000
0000
0000
0000
0000
,
0000
0000
0000
3300
,
0110
0001
1000
0010
1100
0001
0100
0010
1001
0100
0010
0001
1100
0010
1000
0100
,
1010
0001
0100
0010
1100
0001
1000
0100
1010
0001
0100
0010
2100
0000
0000
0000
,
3011
0100
0010
1000
0011
0100
0001
1000
0101
0010
0001
0100
0011
1000
0001
0100
,
0011
1000
0100
0001
1100
0010
0001
0100
0011
1000
0001
1000
0110
0010
0000
1000
,
0011
0100
0001
1000
0101
0010
0001
0100
0011
1000
0100
1000
0011
0100
0010
0100
,
0011
1000
0100
0010
1001
0100
0010
1000
0110
1000
0001
0100
1020
0000
0000
0000
,
1130
0001
0100
0001
1010
0100
0010
0001
1100
0010
1000
0100
1010
0001
0100
1000
,
0110
0001
1000
0100
1010
0001
0100
0010
1001
0100
1000
0001
0110
0100
0000
0000
,
0011
0100
0010
0100
0011
1000
0100
0010
1001
0100
0010
1000
0110
1000
0001
0100
,
1010
0100
0001
1000
0101
0010
0001
0100
0011
1000
0100
1000
0102
0000
0000
0000
,
0113
0001
1000
0100
1010
0001
0100
0010
1001
0100
1000
0001
1100
0010
0100
0001
,
1010
0100
0010
0001
1100
0010
1000
0100
1010
0001
0100
0010
1100
0001
0000
1000
,
0101
0110
0011
1010
,
0011
1100
0011
0000
,
0110
1100
0101
1100
,
0110
2020
0000
0000
,
3030
0000
0000
0000
;
