#TITLE:Ω;
#SUBTITLE:;
#ARTIST:Max Dragon;
#TITLETRANSLIT:Omega;
#SUBTITLETRANSLIT:;
#ARTISTTRANSLIT:;
#CREDIT:;
#BANNER:Omega-bn.png;
#BACKGROUND:Omega-bg.png;
#LYRICSPATH:;
#CDTITLE:AngelofDeath.png;
#MUSIC:Omega.mp3;
#OFFSET:-0.033;
#SAMPLESTART:30.100;
#SAMPLELENGTH:12.500;
#SELECTABLE:YES;
#BPMS:0.000=87.500,14.000=43.750,14.500=87.500,15.000=175.000,16.000=349.999,136.000=299.999,144.000=349.999,328.000=299.999,336.000=349.999,400.000=175.000,408.000=120.000,480.000=87.500,481.000=175.000,483.000=349.999;
#STOPS:;
#BGCHANGES:;
// cache tags:
#FIRSTBEAT:0.000;
#LASTBEAT:676.000;
#SONGFILENAME:Songs/IzzySM Keyboard Mega Pack/omega/Omega.sm;
#HASMUSIC:1;
#HASBANNER:1;
#MUSICLENGTH:150.987;
// end cache tags

//---------------dance-single - ----------------
#NOTES:
     dance-single:
     :
     Challenge:
     11:
     0.980,1.000,0.729,0.146,0.487,904.000,110.000,22.000,0.000,0.000:  // measure 1
1001
0000
0000
0000
0000
0000
0000
0000
0000
0000
0000
0000
0000
0000
0000
0000
0200
0000
0000
0000
0000
0000
1300
0000
0100
0000
0000
1000
0000
0000
0100
0000
,  // measure 2
1001
0000
0000
0000
0000
0000
0000
0000
0020
0000
0000
0000
0000
0030
0000
0000
,  // measure 3
1001
0000
0000
0000
0000
0000
0000
0000
0000
0000
0000
0000
0000
0000
0000
0000
0200
0000
0000
0000
0000
0000
1300
0000
0100
0000
0000
0010
0000
0000
0001
0000
,  // measure 4
1001
0000
0200
0000
,  // measure 5
1300
0100
1000
0010
1000
0000
0000
0000
,  // measure 6
0001
0100
0001
0010
0001
0000
0000
0000
,  // measure 7
0100
0010
0100
0000
0010
0100
0010
0000
,  // measure 8
0000
0000
0000
0000
1000
0100
0010
0000
,  // measure 9
1000
0100
1000
0000
0001
0010
0001
0000
,  // measure 10
0100
0010
0100
0010
0100
0000
1001
0000
,  // measure 11
0200
0000
0000
0000
0300
0000
0000
1100
,  // measure 12
0000
0101
0000
0000
1010
0000
0100
0000
,  // measure 13
0011
1000
0010
0100
0001
0000
0000
0000
,  // measure 14
0001
0010
0100
1000
0010
0000
0000
0000
,  // measure 15
1000
0100
0010
0000
0001
0010
0100
0000
,  // measure 16
0200
0000
0000
0000
1300
0100
0010
0000
,  // measure 17
1100
0010
0101
0000
0001
1000
0001
0000
,  // measure 18
0001
0100
0010
1000
0001
0000
2100
0000
,  // measure 19
0000
0000
0000
0000
,  // measure 20
0000
0000
3000
0000
,  // measure 21
0001
1000
0100
0010
0001
0000
0001
1000
,  // measure 22
0100
0010
0001
0000
0000
0000
0000
0000
,  // measure 23
1000
0001
0010
0100
1000
0000
0001
0100
,  // measure 24
0010
1000
0001
0010
0100
0000
0100
0000
,  // measure 25
1001
0100
0010
0100
0010
0000
1000
0100
,  // measure 26
1000
0100
1000
0000
0000
0000
0000
0000
,  // measure 27
0001
1000
0001
1000
0001
0000
0001
0010
,  // measure 28
0100
1000
0010
0100
0001
1000
0100
0010
,  // measure 29
0001
0010
0100
0010
0001
0000
1000
0010
,  // measure 30
1000
0010
1000
0000
0000
0000
0000
0000
,  // measure 31
0001
1000
0010
0100
0001
0000
1000
0001
,  // measure 32
0100
0010
1000
0100
0010
0001
1000
0010
,  // measure 33
0100
1000
0001
1000
0001
0000
0001
1000
,  // measure 34
0001
1000
0001
0000
0000
0000
0000
0000
,  // measure 35
0001
0010
0100
1000
0100
0000
1000
0001
,  // measure 36
1000
0010
0100
0001
0010
0100
1000
0100
,  // measure 37
0010
0001
0000
0000
1000
0100
0000
0100
,  // measure 38
1000
0010
0001
0000
,  // measure 39
1100
0000
0001
0000
1000
0010
0000
0100
,  // measure 40
0001
1100
1001
0000
,  // measure 41
1100
0000
0010
0000
0100
0010
0000
0010
,  // measure 42
0100
0000
0100
0000
1000
0001
0000
0001
,  // measure 43
1000
0000
0100
0000
0100
1000
0000
1000
,  // measure 44
0100
1100
0110
0000
,  // measure 45
1000
0100
1000
0000
1000
0100
1000
0000
,  // measure 46
0001
0010
0001
0000
0001
0010
0001
0000
,  // measure 47
0001
0010
0001
0010
0001
1000
0001
1000
,  // measure 48
0001
0010
0100
1000
0010
0100
0001
1000
,  // measure 49
0100
1000
0100
1000
0010
0000
0100
0001
,  // measure 50
0100
0010
0100
0001
1000
0000
0001
0010
,  // measure 51
0001
0010
0100
1000
0010
0100
0001
1000
,  // measure 52
0100
0010
0001
0100
0010
1000
0001
1000
,  // measure 53
0020
0100
0130
0000
,  // measure 54
0000
1100
0000
0101
,  // measure 55
0000
0000
0100
1000
0100
0000
0101
0000
,  // measure 56
1010
0000
1100
0000
,  // measure 57
1001
0000
0010
0100
0001
0000
1000
0010
,  // measure 58
0100
0101
0100
1001
,  // measure 59
0010
0100
0001
0000
1100
0000
1001
0000
,  // measure 60
1100
0000
1001
0000
,  // measure 61
1100
0000
0001
0100
0001
0000
1000
0010
,  // measure 62
1000
0101
0000
1010
,  // measure 63
0000
0000
0001
1000
0010
0000
1100
0000
,  // measure 64
1001
0000
0110
0000
,  // measure 65
1100
0000
0001
0010
0100
0000
0000
0000
,  // measure 66
1100
1001
0000
1100
,  // measure 67
0001
1000
0001
0000
0100
0000
1000
0010
,  // measure 68
0100
0001
1000
0100
0010
0001
0010
0100
,  // measure 69
0011
1000
0100
1000
0010
0000
0000
0000
,  // measure 70
0001
0010
0001
0100
0001
0000
0000
0000
,  // measure 71
1000
0001
1000
0000
0001
1000
0001
0000
,  // measure 72
0000
0000
0000
0000
1000
0100
0010
0000
,  // measure 73
0001
0010
0100
0000
1000
0010
0100
0000
,  // measure 74
0001
0100
0010
0100
0010
0000
1100
0000
,  // measure 75
0001
0010
0001
1000
0001
0000
1100
0000
,  // measure 76
1000
0001
1000
0010
0100
0000
1001
0000
,  // measure 77
0010
0100
0010
0100
0010
0000
0000
0000
,  // measure 78
1000
0001
1000
0001
1000
0000
0000
0000
,  // measure 79
0001
1000
0001
0000
1000
0001
1000
0000
,  // measure 80
2002
0000
3003
0000
0010
0100
0010
0000
,  // measure 81
0100
1000
0100
0000
0100
0001
0100
0000
,  // measure 82
0100
0010
0001
1000
0100
0000
1100
0000
,  // measure 83
0001
0010
0100
0010
0000
0000
0100
1000
,  // measure 84
0000
0010
0001
0000
0000
0000
0100
0000
,  // measure 85
1000
0100
0000
0010
0001
0000
0100
1000
,  // measure 86
0000
1000
0100
0000
1001
0000
0101
0000
,  // measure 87
0010
0100
0000
0100
0010
0000
0001
1000
,  // measure 88
0000
1000
0001
0000
1100
0000
0011
0000
,  // measure 89
1000
0010
0000
0100
0001
0000
0001
0100
,  // measure 90
0000
0010
1000
0000
0110
0000
1001
0000
,  // measure 91
0001
0010
0000
1000
0100
0000
0100
1000
,  // measure 92
0000
0010
0001
0000
1010
0000
0101
0000
,  // measure 93
1000
0100
0000
0010
0001
0000
0010
0100
,  // measure 94
0000
0100
1000
0000
1100
0000
0011
0000
,  // measure 95
1000
0100
0000
0100
0010
0000
0010
0001
,  // measure 96
0000
0001
0010
0000
1010
0000
0101
0000
,  // measure 97
0001
0010
0000
0010
0100
0000
0100
1000
,  // measure 98
0000
1000
0100
0000
0011
0000
0110
0000
,  // measure 99
1000
0100
0000
0100
0010
0000
0001
1000
,  // measure 100
0000
1000
0001
0100
0010
0100
0010
0100
,  // measure 101
1001
0000
0000
0000
1000
0100
0000
0100
0010
0000
0010
0001
0000
0001
1000
0000
,  // measure 102
1000
0100
0000
0100
0010
0000
0000
1001
0000
0000
0000
0000
0000
0110
0000
0000
,  // measure 103
2002
0000
0000
0000
,  // measure 104
3003
0000
0000
0000
,  // measure 105
0000
0000
0000
0000
0000
0000
0000
0000
0000
1000
0100
0010
,  // measure 106
0001
0000
1100
0000
1001
0010
0000
1000
0100
0100
0010
0100
,  // measure 107
1000
0000
0100
0010
0001
0100
0001
1000
0010
0100
0001
0100
,  // measure 108
1000
0100
0010
0001
1000
0010
0100
0001
0010
0100
0100
0010
,  // measure 109
1000
1000
0100
0010
0010
0100
1000
0000
0000
0100
0100
0010
,  // measure 110
1000
0100
0010
0001
1000
0010
0100
0001
0010
1100
1100
0010
,  // measure 111
1001
0000
0100
1000
0010
1100
1100
0010
0100
0001
0010
0100
,  // measure 112
1000
0001
0100
0010
1000
0100
0010
0001
1000
0100
1000
0001
,  // measure 113
0010
0100
1000
0010
0100
0010
0100
0000
0000
1001
0100
0001
,  // measure 114
0010
0100
1000
0100
0010
0100
0001
0100
0010
1100
1100
0010
,  // measure 115
1001
0000
0100
1100
0010
0100
0001
0010
0100
1010
1010
0100
,  // measure 116
1001
0000
0100
0001
1000
0110
0001
1000
0000
0110
0110
1000
,  // measure 117
0011
0100
1010
1010
0100
0011
0000
0100
1000
0011
0011
0100
,  // measure 118
0010
0000
0000
1000
0010
0100
0001
0000
0100
1010
1010
0100
,  // measure 119
1001
0000
0100
1001
0000
0110
0000
0000
0000
1000
0010
0100
,  // measure 120
1001
0000
0110
0000
1100
0011
1000
0010
0000
1010
0100
0001
,  // measure 121
2000
0000
0000
0000
,  // measure 122
3001
1000
0001
1000
0001
0000
1000
0001
,  // measure 123
1000
0001
1000
0000
0001
0010
0100
1000
,  // measure 124
0100
0000
0001
0010
0100
1000
0100
0000
,  // measure 125
0001
0010
0100
1000
0010
0100
0001
1000
,  // measure 126
0100
0010
0001
0000
0010
1000
0001
0010
,  // measure 127
0100
0000
1000
0010
0100
0001
0010
0000
,  // measure 128
0001
0100
0010
0000
1000
0100
1000
0000
,  // measure 129
0010
0100
0010
0000
0001
1000
0001
0000
,  // measure 130
1000
0100
0010
0100
0010
0000
0001
0010
,  // measure 131
0100
0010
0100
0000
1000
0010
1000
0010
,  // measure 132
1000
0100
0010
0000
0001
0100
0001
0000
,  // measure 133
0010
0100
0010
0000
1000
0001
1000
0000
,  // measure 134
0001
0010
0100
1000
0010
0100
0001
0010
,  // measure 135
0100
1000
0100
0000
0010
0001
0100
0010
,  // measure 136
1000
0100
0010
0001
1000
0010
0100
0001
,  // measure 137
1000
0001
1000
0010
1000
0100
1000
0000
,  // measure 138
2002
0000
3003
0000
,  // measure 139
0100
0000
1000
0100
0000
1000
0100
0000
,  // measure 140
0001
0000
0001
0010
0000
0001
0010
0000
,  // measure 141
0010
0000
0010
0100
0000
0010
0100
0000
,  // measure 142
2002
0000
3003
0000
,  // measure 143
0100
0000
1000
0100
0000
1000
0100
0000
,  // measure 144
1001
0000
0001
0010
0000
0001
0010
0000
,  // measure 145
1001
0000
0100
0001
1000
0010
0100
0001
,  // measure 146
2000
0000
3000
0000
,  // measure 147
0100
0000
1000
0100
0000
1000
0100
0000
,  // measure 148
1010
0000
0100
0001
0000
0100
0001
0000
,  // measure 149
0101
0000
0010
1000
0000
0010
1000
0000
,  // measure 150
1001
0100
0001
1000
,  // measure 151
0101
0010
1000
0100
,  // measure 152
1010
0100
0010
0001
,  // measure 153
0110
1000
0001
1000
,  // measure 154
0010
0000
0000
0000
0000
0001
0000
0000
0000
0000
0100
0000
0000
0000
0000
0000
0000
0000
0000
0000
0000
0000
0000
0000
0000
0000
0000
0000
0000
0000
0000
0000
,  // measure 155
1000
0000
0000
0000
0000
0010
0000
0000
0000
0000
0100
0000
0000
0000
0000
0000
0000
0000
0000
0000
0000
0000
0000
0000
0000
0000
0000
0000
0000
0000
0000
0000
,  // measure 156
0100
0000
0000
0000
0000
0001
0000
0000
0000
0000
0010
0000
0000
0000
0000
0000
0000
0000
0000
0000
0000
0000
0000
0000
0000
0000
0000
0000
0000
0000
0000
0000
,  // measure 157
0010
0000
0000
0000
0000
1000
0000
0000
0000
0000
0010
0000
0000
0000
0000
0000
0000
0000
0000
0000
0000
0000
0000
0000
0000
0000
0000
0000
0000
0000
0000
0000
,  // measure 158
0001
0000
0000
0000
0000
1000
0000
0000
0000
0000
0001
0000
0000
0000
0000
0000
0000
0000
0000
0000
0000
0000
0000
0000
0000
0000
0000
0000
0000
0000
0000
0000
,  // measure 159
1000
0000
0000
0000
0000
0010
0000
0000
0000
0000
1000
0000
0000
0000
0000
0000
0000
0000
0000
0000
0000
0000
0000
0000
0000
0000
0000
0000
0000
0000
0000
0000
,  // measure 160
0001
0000
0000
0000
0000
0100
0000
0000
0000
0000
0001
0000
0000
0000
0000
0000
0000
0000
0000
0000
0000
0000
0000
0000
0000
0000
0000
0000
0000
0000
0000
0000
,  // measure 161
0010
0000
0000
0000
0000
1000
0000
0000
0000
0000
0010
0000
0000
0000
0000
0000
0000
0000
0000
0000
0000
0000
0000
0000
0000
0000
0000
0000
0000
0000
0000
0000
,  // measure 162
0100
0000
0000
0000
0000
0100
0000
0000
0000
0000
0010
0000
0000
0000
0000
0000
0000
0000
0000
0000
0000
0000
0000
0000
0000
0000
0000
0000
0000
0000
0000
0000
,  // measure 163
0001
0000
0000
0000
0000
0001
0000
0000
0000
0000
0010
0000
0000
0000
0000
0000
0000
0000
0000
0000
0000
0000
0000
0000
0000
0000
0000
0000
0000
0000
0000
0000
,  // measure 164
1000
0000
0000
0000
0000
0100
0000
0000
0000
0000
0010
0000
0000
0000
0000
0000
0000
0000
0000
0000
0000
0000
0000
0000
0000
0000
0000
0000
0000
0000
0000
0000
,  // measure 165
0001
0000
0000
0000
0000
1000
0000
0000
0000
0000
0010
0000
0000
0000
0000
0000
0001
0000
0000
0000
0000
1000
0000
0000
0000
0000
0010
0000
0000
0000
0000
0000
,  // measure 166
0002
0000
0003
0000
,  // measure 167
0020
0000
0030
0000
,  // measure 168
0010
0000
0000
0000
0000
0010
0000
0000
0000
0000
0010
0000
0000
0000
0000
0000
0100
0000
0000
0000
0000
0100
0000
0000
0000
0000
0100
0000
0000
0000
0000
0000
,  // measure 169
2002
0000
0000
0000
,  // measure 170
3003
0000
0000
0000
;
