#TITLE:Sonic 1 - Green Hills Act 2;
#SUBTITLE:;
#ARTIST:Paul Stetich;
#TITLETRANSLIT:;
#SUBTITLETRANSLIT:;
#ARTISTTRANSLIT:;
#CREDIT:owenviau1;
#BANNER:../owenviau1 Simfiles 5-bn.png;
#BACKGROUND:../owenviau1 Simfiles 5-bg.png;
#LYRICSPATH:;
#CDTITLE:../ov1_title.png;
#MUSIC:54323_newgrounds_sonic_.mp3;
#OFFSET:-0.035;
#SAMPLESTART:63.000;
#SAMPLELENGTH:29.999;
#SELECTABLE:YES;
#DISPLAYBPM:186.000;
#BPMS:0.000=185.997,3.000=186.024,4.000=185.997,8.000=186.024,9.000=185.997,13.000=186.024,14.000=185.997,18.000=186.024,19.000=185.997,23.000=186.024,24.000=185.997,28.000=186.024,29.000=185.997,34.000=186.024,35.000=185.997,39.000=186.024,40.000=185.997,44.000=186.024,45.000=185.997,49.000=186.024,50.000=185.997,54.000=186.024,55.000=185.997,59.000=186.024,60.000=185.997,65.000=186.024,66.000=185.997,70.000=186.024,71.000=185.997,75.000=186.011,76.000=185.997,80.000=186.011,81.000=185.997,85.000=186.011,86.000=185.997,90.000=186.011,91.000=185.997,96.000=186.011,97.000=185.997,101.000=186.011,102.000=185.997,106.000=186.011,107.000=185.997,111.000=186.011,112.000=185.997,116.000=186.011,117.000=185.997,121.000=186.011,122.000=185.997,127.000=186.011,128.000=185.997,132.000=186.011,133.000=185.997,137.000=186.011,138.000=185.997,142.000=186.011,143.000=185.997,147.000=186.011,148.000=185.997,152.000=186.011,153.000=185.997,158.000=186.011,159.000=185.997,163.000=186.011,164.000=185.997,168.000=186.011,169.000=185.997,173.000=186.011,174.000=185.997,178.000=186.011,179.000=185.997,183.000=186.011,184.000=185.997,189.000=186.011,190.000=185.997,194.000=186.011,195.000=185.997,199.000=186.011,200.000=185.997,204.000=186.011,205.000=185.997,209.000=186.011,210.000=185.997,214.000=186.011,215.000=185.997,220.000=186.011,221.000=185.997,225.000=186.011,226.000=185.997,230.000=186.011,231.000=185.997,235.000=186.011,236.000=185.997,240.000=186.011,241.000=185.997,245.000=186.011,246.000=185.997,251.000=186.011,252.000=185.997,256.000=186.011,257.000=185.997,261.000=186.011,262.000=185.997,266.000=186.011,267.000=185.997,271.000=186.011,272.000=185.997,276.000=186.011,277.000=185.997,282.000=186.011,283.000=185.997,287.000=186.011,288.000=185.997,292.000=186.011,293.000=185.997,297.000=186.011,298.000=185.997,302.000=186.011,303.000=185.997,307.000=186.011,308.000=185.997,313.000=186.011,314.000=185.997,318.000=186.011,319.000=185.997,323.000=186.011,324.000=185.997,328.000=186.011,329.000=185.997,333.000=186.011,334.000=185.997,338.000=186.011,339.000=185.997,344.000=186.011,345.000=185.997,349.000=186.011,350.000=185.997,354.000=186.011,355.000=185.997,359.000=186.011,360.000=185.997,364.000=186.011,365.000=185.997,369.000=186.011,370.000=185.997,375.000=186.011,376.000=185.997,380.000=186.011,381.000=185.997,385.000=186.011,386.000=185.997,390.000=186.011,391.000=185.997,395.000=186.011,396.000=185.997,400.000=186.011,401.000=185.997,406.000=186.011,407.000=185.997,411.000=186.011,412.000=185.997,416.000=186.011,417.000=185.997,421.000=186.011,422.000=185.997,426.000=186.011,427.000=185.997,431.000=186.011,432.000=185.997,437.000=186.011,438.000=185.997,442.000=186.011,443.000=185.997,447.000=186.011,448.000=185.997,452.000=186.011,453.000=185.997,457.000=186.011,458.000=185.997,462.000=186.011,463.000=185.997,468.000=186.011,469.000=185.997,473.000=186.011,474.000=185.997,478.000=186.011,479.000=185.997,483.000=186.011,484.000=185.997,488.000=186.011,489.000=185.997,493.000=186.011,494.000=185.997,499.000=186.011,500.000=185.997,504.000=186.011,505.000=185.997,509.000=186.011,510.000=185.997,514.000=186.011,515.000=185.997,519.000=186.011,520.000=185.997,524.000=186.011,525.000=185.997,530.000=186.011,531.000=185.997,535.000=186.011,536.000=185.997,540.000=186.011,541.000=185.997,545.000=186.011,546.000=185.997,550.000=186.011,551.000=185.997,555.000=186.011,556.000=185.997,561.000=186.011,562.000=185.997,566.000=186.011,567.000=185.997,571.000=186.011,572.000=185.997,576.000=186.011,577.000=185.997,581.000=186.011,582.000=185.997,586.000=186.011,587.000=185.997,592.000=186.011,593.000=185.997,597.000=186.011,598.000=185.997,602.000=186.011,603.000=185.997,607.000=186.011,608.000=185.997,612.000=186.011,613.000=185.997,617.000=186.011,618.000=185.997,623.000=186.011,624.000=185.997,628.000=186.011,629.000=185.997,633.000=186.011,634.000=185.997,638.000=186.011,639.000=185.997,643.000=186.011,644.000=185.997,648.000=186.011,649.000=185.997,654.000=186.011,655.000=185.997,659.000=186.011,660.000=185.997,664.000=186.011,665.000=185.997,669.000=186.011,670.000=185.997,674.000=186.011,675.000=185.997,679.000=186.011,680.000=185.997,685.000=186.011,686.000=185.997,690.000=186.011,691.000=185.997;
#STOPS:;
#BGCHANGES:;
// cache tags:
#FIRSTBEAT:0.000;
#LASTBEAT:687.000;
#SONGFILENAME:Songs/owenviau1 Simfiles 5/Sonic 1 - Green Hills Act 2 - [owenviau1] v1.3/Sonic 1 - Green Hills Act 2.sm;
#HASMUSIC:1;
#HASBANNER:1;
#MUSICLENGTH:223.268;
// end cache tags

//---------------dance-single - ----------------
#NOTES:
     dance-single:
     :
     Hard:
     12:
     1.000,1.000,0.170,0.882,0.486,1461.000,38.000,197.000,0.000,0.000:
0000
0000
0000
0000
,
1000
0100
0010
0001
1000
0010
0100
0001
,
0010
0001
1000
0001
0100
0010
1000
0100
,
0010
0001
1000
0010
1000
0100
0010
0001
,
0100
0010
1000
0001
0010
0001
1000
0001
,
0100
0010
1000
0100
0010
0001
0100
0010
,
1000
0100
1000
0010
0100
0001
0010
0001
,
1000
0001
0100
0010
1000
0100
0010
0001
,
0100
0001
0010
0100
1000
0010
0100
0001
,
1000
0100
0010
0001
0100
0010
1000
0001
,
0010
0001
0100
0010
1000
0100
0010
0001
,
0100
0010
1000
0001
0010
0001
0100
0001
,
1000
0010
1000
0100
0010
0001
0100
0010
,
1000
0001
0010
0001
1000
0001
0100
0010
,
1000
0100
0010
0001
0100
0010
1000
0001
,
0010
0001
0100
0010
1000
0100
0010
0001
,
0100
0010
1000
0001
1000
0010
0100
0001
,
0101
0010
0100
1000
0001
0100
0010
1000
,
0100
1000
0001
1000
0010
0100
0001
0010
,
0100
1000
0010
0100
0001
1000
0100
1000
,
0010
0100
0001
0010
0001
1000
0001
0100
,
0010
1000
0100
0010
0001
0010
0100
1000
,
0010
0100
0001
1000
0100
0010
0001
0100
,
0010
1000
0001
0010
0001
1000
0001
0100
,
0010
1000
0010
0001
1000
0001
0010
0100
,
1000
0100
1000
0100
1000
0001
1000
0001
0100
0010
0100
0010
0100
0001
0100
0001
,
1000
0001
1000
0001
0010
0001
0010
0001
0100
0001
0200
0320
2030
3000
0002
0003
,
1000
0010
1000
0010
0100
0001
0100
0001
1000
0100
1000
0100
0010
0001
0010
0001
,
1000
0010
1000
0010
0100
0001
0100
0001
1000
0010
2000
3200
0320
0030
0002
0003
,
1000
0001
1000
0001
0100
0010
0100
0010
0100
0001
0100
0001
1000
0010
1000
0010
,
0100
0010
0100
0010
1000
0001
1000
0001
2000
3200
0320
0032
2003
3000
0020
0030
,
1000
0100
1000
0100
1000
0001
1000
0001
0100
0010
0100
0010
0100
0010
2000
3000
,
0000
0000
0002
0003
0020
0030
0200
0300
2000
3002
0203
0320
2030
3000
0002
0003
,
1000
0100
0010
0001
0100
1000
0001
0010
,
0001
0100
0010
1000
0001
1000
0100
0010
,
0001
0010
0100
1000
0010
0100
0001
1000
,
0100
0010
0001
1000
0010
0100
0010
1000
,
0001
0100
0010
0100
0001
0010
0100
1000
,
0010
0100
0001
0010
0001
1000
0010
0100
,
0001
0010
0100
1000
0010
0100
0001
1000
,
0001
0010
0001
0100
0010
1000
0001
1000
,
0100
1000
0001
0100
0010
1000
0100
0010
,
0001
1000
0010
0100
0001
0010
0100
1000
,
0010
0100
0001
0010
0001
0100
0010
1000
,
0100
1000
0010
0100
0001
1000
0100
0010
,
0001
1000
0100
0010
0001
1000
0001
0100
0001
0010
0100
1000
0010
1000
0001
1000
,
0010
0100
0001
0010
0001
0100
0001
1000
0001
0010
0100
1000
0010
1000
0001
1000
,
0100
0010
0001
1000
0010
0100
0001
0010
0100
1000
0010
0100
0001
1000
0001
0010
,
0001
0100
0010
1000
0100
1000
0001
0010
0100
1000
0010
0100
0001
1000
0001
0010
,
0100
1000
0001
0010
0100
1000
0010
0001
,
0100
0010
1000
0001
0100
0010
0100
0001
,
0010
0100
1000
0010
1000
0001
0010
0001
,
1000
0010
0100
0001
0010
0100
1000
0010
,
0100
0001
1000
0001
0010
0001
1000
0010
,
0100
0010
1000
0100
1000
0001
0100
0010
,
1000
0100
0010
0001
0100
0010
1000
0100
,
1000
0010
0100
0001
1000
0100
0010
0001
,
0100
0001
0010
0100
1000
0010
0100
0001
,
1000
0001
0010
0001
0100
0010
1000
0100
,
1000
0010
0100
0001
1000
0001
0010
0001
,
1000
0010
0100
0001
0010
0100
1000
0010
,
0100
0001
1000
0001
0010
0001
0100
0010
,
1000
0100
1000
0010
0100
0001
1000
0001
,
0010
0001
1000
0010
0100
0001
1000
0001
,
0010
0001
0100
0010
1000
0001
0010
0100
,
1000
0010
0100
0001
1000
0001
0010
0001
,
1000
0010
0100
0001
0010
0100
1000
0010
,
0100
0001
1000
0001
0010
0001
1000
0010
,
0100
0001
0010
0100
1000
0010
0100
0001
,
1000
0001
0010
0001
1000
0010
0100
0001
,
0010
0100
1000
0010
1000
0001
0010
0100
,
1000
0100
0010
0001
1000
0001
0010
0100
1000
0001
1000
0100
0010
0001
1000
0001
,
0010
0100
1000
0001
1000
0100
0010
0001
1000
0001
0010
0100
1000
0001
1000
0100
,
0010
0001
1000
0001
0100
0010
0100
0001
,
0010
0001
1000
0001
0100
0010
1000
0100
,
0010
0001
1000
0010
1000
0100
0010
0001
,
0100
0010
1000
0001
0010
0001
1000
0001
,
0100
0010
1000
0100
0010
0001
0100
0010
,
1000
0100
1000
0010
0100
0001
0010
0001
,
1000
0001
0100
0010
1000
0100
0010
0001
,
0100
0001
0010
0100
1000
0010
0100
0001
,
1001
0100
0010
0001
0100
0010
1000
0001
,
0010
0001
0100
0010
1000
0100
0010
0001
,
0100
0010
1000
0001
0010
0001
0100
0001
,
1000
0010
1000
0100
0010
0001
0100
0010
,
1000
0001
0010
0001
1000
0001
0100
0010
,
1000
0100
0010
0001
0100
0010
1000
0001
,
0010
0001
0100
0010
1000
0100
0010
0001
,
0100
0010
1000
0001
1000
0010
0100
0001
,
1000
0100
1000
0100
1000
0001
1000
0001
0100
0010
0100
0010
0100
0001
0100
0001
,
1000
0001
1000
0001
0010
0001
0010
0001
0100
0001
0200
0320
2030
3000
0002
0003
,
1000
0010
1000
0010
0100
0001
0100
0001
1000
0100
1000
0100
0010
0001
0010
0001
,
1000
0010
1000
0010
0100
0001
0100
0001
1000
0010
2000
3200
0320
0030
0002
0003
,
1000
0001
1000
0001
0100
0010
0100
0010
0100
0001
0100
0001
1000
0010
1000
0010
,
0100
0010
0100
0010
1000
0001
1000
0001
2000
3200
0320
0032
2003
3000
0020
0030
,
1000
0100
1000
0100
1000
0001
1000
0001
0100
0010
0100
0010
0100
0010
2000
3000
,
0000
0000
0002
0003
0020
0030
0200
0300
2000
3002
0203
0320
2030
3000
0002
0003
,
1000
0100
0010
0001
1000
0010
0100
0001
,
0010
0001
1000
0001
0100
0010
1000
0100
,
0010
0001
0100
0010
0100
0001
1000
0010
,
0100
0010
1000
0001
1000
0100
1000
0010
,
0100
0001
0010
0001
0100
0001
1000
0001
,
0100
0010
1000
0100
0010
0001
0100
0010
,
1000
0001
0010
0001
0100
0010
1000
0100
,
0010
0001
0100
0010
1000
0010
0100
0001
,
0010
0100
1000
0010
0100
0001
1000
0001
,
0010
0001
0100
0010
1000
0100
0010
0001
,
0100
0010
1000
0100
1000
0001
0010
0001
,
1000
0010
1000
0001
0100
0001
1000
0010
,
0100
0001
1000
0100
0010
0001
1000
0100
,
1000
0010
0100
0001
0010
0001
1000
0001
,
0100
0010
1000
0100
0010
0001
0100
0010
,
1000
0001
0010
0001
1000
0010
0100
0001
,
2000
3000
2000
3000
0200
0300
0020
0030
0002
0003
0002
0003
0020
0030
0200
0300
,
2000
3000
2000
3000
0020
0030
0200
0300
0002
0003
0002
0003
2000
3000
0002
0003
,
0020
0030
0020
0030
0200
0300
2000
3000
0200
0300
0200
0300
0020
0030
0002
0003
,
2000
3000
2000
3000
0020
0030
0200
0300
0002
0003
0002
0003
2000
3000
0020
0030
,
0200
0300
0200
0300
0002
0003
2000
3000
0020
0030
0020
0030
2000
3000
0002
0003
,
2000
3000
2000
3000
0200
0300
0020
0030
0200
0300
0200
0300
0002
0003
2000
3000
,
0020
0030
0020
0030
0200
0300
2000
3000
0002
0003
0002
0003
0200
0300
0020
0030
,
2000
3000
2000
3000
0002
0003
0200
0300
0020
0030
0020
0030
2000
3000
0200
0300
,
1001
0001
1000
0010
0100
0001
0010
0100
,
1000
0010
1000
0001
0100
0001
0010
0100
,
1000
0001
0100
0010
1000
0100
0010
0001
,
0100
0010
1000
0100
1000
0010
0100
0001
,
0010
0100
1000
0010
0100
0001
1000
0001
,
0010
0001
0100
0010
1000
0001
0010
0100
,
1000
0100
0010
0001
1000
0001
0100
0010
1000
0010
0100
0001
0100
0010
1000
0100
,
0010
0001
0010
0100
1000
0010
1000
0100
0010
0001
0100
0010
1000
0100
0010
0001
,
1000
0010
1000
0001
0100
0010
0100
0001
,
0010
0001
1000
0001
0100
0010
1000
0100
,
0010
0001
1000
0010
1000
0100
0010
0001
,
0100
0010
1000
0001
0010
0001
1000
0001
,
0100
0010
1000
0100
0010
0001
0100
0010
,
1000
0100
1000
0010
0100
0001
0010
0001
,
1000
0001
0100
0010
1000
0100
0010
0001
,
0100
0001
0010
0100
1000
0010
0100
0001
,
1001
0100
0010
0001
0100
0010
1000
0001
,
0010
0001
0100
0010
1000
0100
0010
0001
,
0100
0010
1000
0001
0010
0001
0100
0001
,
1000
0010
1000
0100
0010
0001
0100
0010
,
1000
0001
0010
0001
1000
0001
0100
0010
,
1000
0100
0010
0001
0100
0010
1000
0001
,
0010
0001
0100
0010
1000
0100
0010
0001
,
0100
0010
1000
0001
1000
0010
0100
0001
,
1000
0100
1000
0100
1000
0001
1000
0001
0100
0010
0100
0010
0100
0001
0100
0001
,
1000
0001
1000
0001
0010
0001
0010
0001
0100
0001
0200
0320
2030
3000
0002
0003
,
1000
0010
1000
0010
0100
0001
0100
0001
1000
0100
1000
0100
0010
0001
0010
0001
,
1000
0010
1000
0010
0100
0001
0100
0001
1000
0010
2000
3200
0320
0030
0002
0003
,
1000
0001
1000
0001
0100
0010
0100
0010
0100
0001
0100
0001
1000
0010
1000
0010
,
0100
0010
0100
0010
1000
0001
1000
0001
2000
3200
0320
0032
2003
3000
0020
0030
,
1000
0100
1000
0100
1000
0001
1000
0001
0100
0010
0100
0010
0100
0010
2000
3000
,
0000
0000
0002
0003
0020
0030
0200
0300
2000
3002
0203
0320
2030
3000
0002
0003
,
0000
0000
2200
3300
0000
0220
0330
0000
,
0022
0033
0000
2200
3300
0000
2002
3003
,
0220
0330
2200
3300
0000
0022
0033
0000
,
0004
4000
0000
0000
0000
0000
0000
0000
,
0000
3003
0220
0330
0000
0202
0303
0000
,
2020
3030
0220
0330
0000
0202
0303
0000
,
0022
0033
2200
3300
0000
0004
4000
0000
,
0000
0000
0000
0000
,
3003
0000
2200
3300
0000
0202
0303
0000
,
0220
0330
0000
2002
3003
0000
2200
3300
,
2002
3003
0022
0033
0000
2020
3030
0000
,
0040
0400
0000
0000
0000
0000
0000
0000
,
0330
0000
0022
0033
0000
0220
0330
0000
,
2200
3300
0202
0303
0000
0220
0330
0000
,
0202
0303
2020
3030
0000
0004
0400
0000
,
0000
0000
0000
0000
,
0000
0000
0000
2300
,
0000
0003
0000
0000
,
0000
0000
0000
3000
,
0000
0000
0000
0000
,
0000
0000
0000
0000
;

//---------------dance-single - ----------------
#NOTES:
     dance-single:
     :
     Challenge:
     15:
     1.000,1.000,0.470,0.596,1.000,2349.000,105.000,133.000,0.000,0.000:
1000
0100
1000
0100
1000
0100
1000
0100
0010
0001
0010
0001
0010
0001
0010
0001
,
1000
0010
0100
0001
1000
0100
0010
0001
0100
0001
1000
0010
0100
0001
0010
0100
,
1000
0001
0010
0001
1000
0010
1000
0100
0010
0001
0100
0001
1000
0010
1000
0001
,
0100
0010
1000
0001
1000
0100
0010
0100
1000
0001
0100
0010
0100
0001
1000
0010
,
0100
0010
1000
0001
1000
0100
0010
0001
0010
0100
1000
0010
0100
0001
0100
0010
,
1001
0100
0010
0001
1000
0001
0100
0010
1000
0001
0010
0100
1000
0100
0010
0001
,
1000
0100
1000
0010
0100
0001
0100
0010
1000
0100
0010
0001
0010
0100
1000
0001
,
0100
0010
1000
0010
0100
0001
0100
0010
1000
0100
0010
0001
0010
0100
1000
0001
,
0010
0100
1000
0001
0100
0010
1000
0010
0100
0001
0010
0100
1000
0001
0100
0010
,
1001
0010
0100
0001
1000
0100
0010
0001
1000
0010
1000
0001
0100
0001
1000
0100
,
0010
0001
0010
0100
1000
0001
0010
0001
1000
0010
1000
0100
0010
0001
1000
0001
,
0100
0001
0010
0100
1000
0010
1000
0001
1000
0100
0010
0001
0100
0001
1000
0010
,
1000
0001
0100
0010
1000
0100
0010
0001
0100
0010
0100
0001
1000
0001
0100
0001
,
0010
0100
1000
0010
1000
0001
0100
0010
1000
0100
0010
0001
0010
0100
1000
0001
,
0100
0010
1000
0100
0010
0001
0100
0001
1000
0010
1000
0100
0010
0001
0010
0100
,
1000
0001
0100
0001
1000
0010
0100
0001
0010
0100
1000
0100
0010
0001
1000
0010
,
0100
0001
1000
0001
0100
0010
1000
0001
0010
0100
1000
0001
0100
0001
1000
0001
,
1001
1000
0001
0010
0100
1000
0100
0010
0001
0100
0010
1000
0100
0010
0001
1000
,
0010
0100
0001
0010
0100
1000
0001
0010
0100
0001
1000
0010
0100
0010
1000
0001
,
0100
0010
0100
0001
1000
0100
0010
0001
1000
0010
1000
0001
0100
0001
0010
0100
,
1000
0010
1000
0001
0100
0001
1000
0100
0010
0001
0010
0100
1000
0010
0100
0001
,
1000
0100
0010
0001
0100
0010
1000
0010
0100
0001
1000
0001
0010
0001
0100
0001
,
1000
0010
1000
0001
0100
0010
1000
0100
1000
0010
0100
0001
0010
0001
0100
0010
,
1000
0100
0010
0001
0100
0001
1000
0001
0010
0100
1000
0100
0010
0001
1000
0010
,
0100
0001
0010
0100
1000
0010
0100
0001
1000
0100
0010
0001
0100
0001
0010
0100
,
1000
0100
1000
0100
1000
0001
1000
0001
0100
0010
0100
0010
0100
0001
0100
0001
,
1000
0001
1000
0001
0010
0001
0010
0001
0100
0001
0200
0320
2030
3000
0002
0003
,
1000
0010
1000
0010
0100
0001
0100
0001
1000
0100
1000
0100
0010
0001
0010
0001
,
1000
0010
1000
0010
0100
0001
0100
0001
1000
0010
2000
3200
0320
0030
0002
0003
,
1000
0001
1000
0001
0100
0010
0100
0010
0100
0001
0100
0001
1000
0010
1000
0010
,
0100
0010
0100
0010
1000
0001
1000
0001
2000
3200
0320
0032
2003
3000
0020
0030
,
1000
0100
1000
0100
1000
0001
1000
0001
0100
0010
0100
0010
0100
0010
2000
3000
,
0000
0000
2000
3000
0002
0003
2000
3000
0200
0302
0203
0320
2030
3000
0020
0030
,
0001
1000
0001
0010
0100
1000
0100
0010
0001
0100
0010
1000
0100
0010
0001
1000
,
0010
0100
0001
0010
0100
1000
0001
0010
0100
0001
1000
0010
0100
0010
1000
0001
,
0100
0010
0100
0001
1000
0100
0010
0001
1000
0010
1000
0001
0100
0001
0010
0100
,
1000
0010
1000
0001
0100
0001
1000
0100
0010
0001
0010
0100
1000
0010
0100
0001
,
1000
0100
0010
0001
0100
0010
1000
0010
0100
0001
1000
0001
0010
0001
0100
0001
,
1000
0010
1000
0001
0100
0010
1000
0100
1000
0010
0100
0001
0010
0001
0100
0010
,
1000
0100
0010
0001
0100
0001
1000
0001
0010
0100
1000
0100
0010
0001
1000
0010
,
0100
0001
0010
0100
1000
0010
0100
0001
1000
0100
0010
0001
0100
0001
0010
0100
,
1000
0001
0010
0100
1000
0001
1000
0100
0010
0001
1000
0010
0100
0010
0001
1000
,
0010
0100
0001
0010
0100
1000
0001
0010
0100
0001
1000
0010
0100
0010
1000
0001
,
0100
0010
0100
0001
1000
0100
0010
0001
1000
0010
1000
0001
0100
0001
0010
0100
,
1000
0010
1000
0001
0100
0001
1000
0100
0010
0001
0010
0100
1000
0010
0100
0001
,
1000
0100
0010
0001
0100
0010
1000
0010
0100
0001
1000
0001
0010
0001
0100
0001
,
1000
0010
1000
0001
0100
0010
1000
0100
1000
0010
0100
0001
0010
0001
0100
0010
,
1000
0100
0010
0001
0100
0001
1000
0001
0010
0100
1000
0100
0010
0001
1000
0010
,
0100
0001
0010
0100
1000
0010
0100
0001
1000
0100
0010
0001
0100
0001
0010
0100
,
1001
0001
1000
0010
0100
0001
1000
0100
0010
0001
0100
0010
1000
0001
0010
0100
,
1000
0010
0100
0001
0010
0001
1000
0010
0100
0001
1000
0010
0100
0010
1000
0001
,
0100
0010
0100
0001
1000
0100
0010
0001
1000
0010
1000
0001
0100
0001
0010
0100
,
1000
0010
1000
0001
0100
0001
1000
0100
0010
0001
0010
0100
1000
0010
0100
0001
,
1000
0100
0010
0001
0100
0010
1000
0010
0100
0001
1000
0001
0010
0001
0100
0001
,
1000
0010
1000
0001
0100
0010
1000
0100
1000
0010
0100
0001
0010
0001
0100
0010
,
1000
0100
0010
0001
0100
0001
1000
0001
0010
0100
1000
0100
0010
0001
1000
0010
,
0100
0001
0010
0100
1000
0010
0100
0001
1000
0100
0010
0001
0100
0001
0010
0100
,
1000
0001
0010
0100
1000
0001
1000
0100
0010
0001
1000
0010
0100
0010
0001
1000
,
0010
0100
0001
0010
0100
1000
0001
0010
0100
0001
1000
0010
0100
0010
1000
0001
,
0100
0010
0100
0001
1000
0100
0010
0001
1000
0010
1000
0001
0100
0001
0010
0100
,
1000
0010
1000
0001
0100
0001
1000
0100
0010
0001
0010
0100
1000
0010
0100
0001
,
1000
0100
0010
0001
0100
0010
1000
0010
0100
0001
1000
0001
0010
0001
0100
0001
,
1000
0010
1000
0001
0100
0010
1000
0100
1000
0010
0100
0001
0010
0001
0100
0010
,
1000
0100
0010
0001
0100
0001
1000
0001
0010
0100
1000
0100
0010
0001
1000
0010
,
0100
0001
0010
0100
1000
0010
0100
0001
1000
0100
0010
0001
0100
0001
0010
0100
,
1000
0001
1000
0100
0010
0001
0100
0010
1000
0001
1000
0001
0010
0100
0001
1000
,
0010
0100
0001
0010
0100
1000
0001
0010
0100
0001
1000
0010
0100
0010
1000
0001
,
0100
0010
0100
0001
1000
0100
0010
0001
1000
0010
1000
0001
0100
0001
0010
0100
,
1000
0010
1000
0001
0100
0001
1000
0100
0010
0001
0010
0100
1000
0010
0100
0001
,
1000
0100
0010
0001
0100
0010
1000
0010
0100
0001
1000
0001
0010
0001
0100
0001
,
1000
0010
1000
0001
0100
0010
1000
0100
1000
0010
0100
0001
0010
0001
0100
0010
,
1000
0100
0010
0001
0100
0001
1000
0001
0010
0100
1000
0100
0010
0001
1000
0010
,
0100
0001
0010
0100
1000
0010
0100
0001
1000
0100
0010
0001
0100
0001
0010
0100
,
1001
0001
0010
0100
1000
0001
1000
0100
0010
0001
1000
0010
0100
0010
0001
1000
,
0010
0100
0001
0010
0100
1000
0001
0010
0100
0001
1000
0010
0100
0010
1000
0001
,
0100
0010
0100
0001
1000
0100
0010
0001
1000
0010
1000
0001
0100
0001
0010
0100
,
1000
0010
1000
0001
0100
0001
1000
0100
0010
0001
0010
0100
1000
0010
0100
0001
,
1000
0100
0010
0001
0100
0010
1000
0010
0100
0001
1000
0001
0010
0001
0100
0001
,
1000
0010
1000
0001
0100
0010
1000
0100
1000
0010
0100
0001
0010
0001
0100
0010
,
1000
0100
0010
0001
0100
0001
1000
0001
0010
0100
1000
0100
0010
0001
1000
0010
,
0100
0001
0010
0100
1000
0010
0100
0001
1000
0100
0010
0001
0100
0001
0010
0100
,
1000
0001
1000
0010
0100
0001
1000
0100
0010
0001
0100
0010
1000
0001
0010
0100
,
1000
0010
0100
0001
0010
0001
1000
0010
0100
0001
1000
0010
0100
0010
1000
0001
,
0100
0010
0100
0001
1000
0100
0010
0001
1000
0010
1000
0001
0100
0001
0010
0100
,
1000
0010
1000
0001
0100
0001
1000
0100
0010
0001
0010
0100
1000
0010
0100
0001
,
1000
0100
0010
0001
0100
0010
1000
0010
0100
0001
1000
0001
0010
0001
0100
0001
,
1000
0010
1000
0001
0100
0010
1000
0100
1000
0010
0100
0001
0010
0001
0100
0010
,
1000
0100
0010
0001
0100
0001
1000
0001
0010
0100
1000
0100
0010
0001
1000
0010
,
0100
0001
0010
0100
1000
0010
0100
0001
1000
0100
0010
0001
0100
0001
1000
0001
,
1000
0100
1000
0100
1000
0001
1000
0001
0100
0010
0100
0010
0100
0001
0100
0001
,
1000
0001
1000
0001
0010
0001
0010
0001
0100
0001
0200
0320
2030
3000
0002
0003
,
1000
0010
1000
0010
0100
0001
0100
0001
1000
0100
1000
0100
0010
0001
0010
0001
,
1000
0010
1000
0010
0100
0001
0100
0001
1000
0010
2000
3200
0320
0030
0002
0003
,
1000
0001
1000
0001
0100
0010
0100
0010
0100
0001
0100
0001
1000
0010
1000
0010
,
0100
0010
0100
0010
1000
0001
1000
0001
2000
3200
0320
0032
2003
3000
0020
0030
,
1000
0100
1000
0100
1000
0001
1000
0001
0100
0010
0100
0010
0100
0010
2000
3000
,
0000
0000
2000
3000
0002
0003
2000
3000
0200
0302
0203
0320
2030
3000
0020
0030
,
1000
0100
0010
0001
0100
0001
1000
0001
0010
0100
1000
0100
0010
0001
1000
0010
,
0100
0001
0010
0100
1000
0010
0100
0001
1000
0100
0010
0001
0100
0001
0010
0100
,
1000
0001
0010
0100
1000
0001
1000
0100
0010
0001
1000
0010
0100
0010
0001
1000
,
0010
0100
0001
0010
0100
1000
0001
0010
0100
0001
1000
0010
0100
0010
1000
0001
,
0100
0010
0100
0001
1000
0100
0010
0001
1000
0010
1000
0001
0100
0001
0010
0100
,
1000
0010
1000
0001
0100
0001
1000
0100
0010
0001
0010
0100
1000
0010
0100
0001
,
1000
0100
0010
0001
0100
0010
1000
0010
0100
0001
1000
0001
0010
0001
0100
0001
,
1000
0010
1000
0001
0100
0010
1000
0100
1000
0010
0100
0001
0010
0001
0100
0010
,
1000
0100
0010
0001
0100
0001
1000
0001
0010
0100
1000
0100
0010
0001
1000
0010
,
0100
0001
0010
0100
1000
0010
0100
0001
1000
0100
0010
0001
0100
0001
0010
0100
,
1000
0100
0010
0001
0100
0001
1000
0001
0010
0100
1000
0100
0010
0001
1000
0010
,
0100
0001
0010
0100
1000
0010
0100
0001
1000
0100
0010
0001
0100
0001
0010
0100
,
1000
0001
0010
0100
1000
0001
1000
0100
0010
0001
1000
0010
0100
0010
0001
1000
,
0010
0100
0001
0010
0100
1000
0001
0010
0100
0001
1000
0010
0100
0010
1000
0001
,
0100
0010
0100
0001
1000
0100
0010
0001
1000
0010
1000
0001
0100
0001
0010
0100
,
1000
0010
1000
0001
0100
0001
1000
0100
0010
0001
0010
0100
1000
0010
0100
0010
,
1001
1010
0110
0101
0110
1001
1100
0011
,
0101
0110
1100
1010
0011
0101
0110
1001
,
0110
0011
1100
0011
1010
0101
1010
0110
,
0011
1100
0110
0011
0101
0110
1001
1010
,
0011
1100
0110
1001
0011
0110
1100
0011
,
0110
1001
1100
0110
0011
0101
1010
0011
,
1100
0101
0011
1010
0110
1001
0110
1001
,
0011
1001
1010
1001
0110
1100
0011
0110
,
1001
0000
0100
0010
0001
0000
0100
0010
1000
0000
0001
0100
0010
0000
1000
0010
,
0100
0000
0001
0010
0001
0000
0100
0010
0100
0000
1000
0100
1000
0000
1000
0100
,
0010
0000
0100
0010
0001
0000
0001
0100
0010
0000
0100
0010
1000
0000
0100
0010
,
0001
0000
0100
1000
0100
0000
0010
0001
0010
0000
0100
0010
0100
0000
0001
0010
,
0100
0000
0010
0100
1000
0000
0100
0010
0001
0000
0010
0001
1000
0000
0100
0010
,
1000
0000
0001
0100
0010
0000
1000
0100
0010
0000
0001
0100
0010
0000
0001
1000
,
0010
0100
0001
1000
0100
0010
0001
0100
0001
0010
0100
1000
0010
1000
0100
0010
,
0001
0100
0010
1000
0001
0100
0010
1000
0100
0010
0001
1000
0100
0010
0001
1000
,
1001
0001
1000
0100
0010
0001
1000
0010
0100
0001
1000
0001
0010
0001
0100
0001
,
1000
0010
1000
0001
0100
0010
1000
0100
1000
0010
0100
0001
0010
0001
0100
0010
,
1000
0100
0010
0001
0100
0001
1000
0001
0010
0100
1000
0100
0010
0001
1000
0010
,
0100
0001
0010
0100
1000
0010
0100
0001
1000
0100
0010
0001
0100
0001
0010
0100
,
1000
0100
0010
0001
0100
0010
1000
0010
0100
0001
1000
0001
0010
0001
0100
0001
,
1000
0010
1000
0001
0100
0010
1000
0100
1000
0010
0100
0001
0010
0001
0100
0010
,
1000
0100
0010
0001
0100
0001
1000
0001
0010
0100
1000
0100
0010
0001
1000
0010
,
0100
0001
0010
0100
1000
0010
0100
0001
1000
0100
0010
0001
0100
0001
0010
0100
,
1000
0100
0010
0001
0100
0010
1000
0010
0100
0001
1000
0001
0010
0001
0100
0001
,
1000
0010
1000
0001
0100
0010
1000
0100
1000
0010
0100
0001
0010
0001
0100
0010
,
1000
0100
0010
0001
0100
0001
1000
0001
0010
0100
1000
0100
0010
0001
1000
0010
,
0100
0001
0010
0100
1000
0010
0100
0001
1000
0100
0010
0001
0100
0001
0010
0100
,
1000
0100
0010
0001
0100
0010
1000
0010
0100
0001
1000
0001
0010
0001
0100
0001
,
1000
0010
1000
0001
0100
0010
1000
0100
1000
0010
0100
0001
0010
0001
0100
0010
,
1000
0100
0010
0001
0100
0001
1000
0001
0010
0100
1000
0100
0010
0001
1000
0010
,
0100
0001
0010
0100
1000
0010
0100
0001
1000
0100
0010
0001
0100
0001
0010
0100
,
1000
0100
1000
0100
1000
0001
1000
0001
0100
0010
0100
0010
0100
0001
0100
0001
,
1000
0001
1000
0001
0010
0001
0010
0001
0100
0001
0200
0320
2030
3000
0002
0003
,
1000
0010
1000
0010
0100
0001
0100
0001
1000
0100
1000
0100
0010
0001
0010
0001
,
1000
0010
1000
0010
0100
0001
0100
0001
1000
0010
2000
3200
0320
0030
0002
0003
,
1000
0001
1000
0001
0100
0010
0100
0010
0100
0001
0100
0001
1000
0010
1000
0010
,
0100
0010
0100
0010
1000
0001
1000
0001
2000
3200
0320
0032
2003
3000
0020
0030
,
1000
0100
1000
0100
1000
0001
1000
0001
0100
0010
0100
0010
0100
0010
2000
3000
,
0000
0000
2000
3000
0002
0003
2000
3000
0200
0302
0203
0320
2030
3000
0020
0030
,
0000
0000
2200
3300
0000
0220
0330
0000
,
0022
0033
0000
2200
3300
0000
2002
3003
,
0220
0330
2200
3300
0000
0022
0033
0000
,
0004
4000
0000
0000
0000
0000
0000
0000
,
0000
3003
0220
0330
0000
0202
0303
0000
,
2020
3030
0220
0330
0000
0202
0303
0000
,
0022
0033
2200
3300
0000
0004
4000
0000
,
0000
0000
0000
0000
,
3003
0000
2200
3300
0000
0202
0303
0000
,
0220
0330
0000
2002
3003
0000
2200
3300
,
2002
3003
0022
0033
0000
2020
3030
0000
,
0040
0400
0000
0000
0000
0000
0000
0000
,
0330
0000
0022
0033
0000
0220
0330
0000
,
2200
3300
0202
0303
0000
0220
0330
0000
,
0202
0303
2020
3030
0000
0004
0400
0000
,
0000
0000
0000
0000
,
0000
0000
0000
2300
,
0000
0003
0000
0000
,
0000
0000
0000
3000
,
0000
0000
0000
0000
,
0000
0000
0000
0000
;
