#TITLE:Weballergy;
#SUBTITLE:;
#ARTIST:Sonata Arctica;
#TITLETRANSLIT:;
#SUBTITLETRANSLIT:;
#ARTISTTRANSLIT:;
#CREDIT:;
#BANNER:weballergy-bn.png;
#BACKGROUND:weballergy-bg.png;
#LYRICSPATH:;
#CDTITLE:;
#MUSIC:Weballergy.mp3;
#OFFSET:0.040;
#SAMPLESTART:27.420;
#SAMPLELENGTH:12.000;
#SELECTABLE:YES;
#BPMS:0.000=164.640;
#STOPS:;
#BGCHANGES:;
// cache tags:
#FIRSTBEAT:0.500;
#LASTBEAT:625.500;
#SONGFILENAME:Songs/toune 4/Weballergy/Weballergy.sm;
#HASMUSIC:1;
#HASBANNER:1;
#MUSICLENGTH:231.531;
// end cache tags

//---------------dance-single - ----------------
#NOTES:
     dance-single:
     :
     Hard:
     9:
     1.000,1.000,0.881,0.212,1.000,1969.000,204.000,49.000,0.000,6.000:

0000
0000
0010
0001
0010
0100
1000
0010
0100
0001
0100
0010
1000
0100
0010
0100
,
1000
0010
0100
0001
0100
0010
0100
0001
0010
0100
1000
0010
0100
0001
1000
0100
,
1000
0010
0100
0001
0010
0001
0100
0010
0100
1000
0100
0010
0001
0010
0100
0010
,
0001
0100
0010
1000
0010
0100
0001
1000
0010
0100
0010
1000
0100
0010
0001
0010
,
0001
1000
0100
1000
0010
0100
0010
0100
0010
0001
0010
0100
1000
0100
0010
0001
,
1000
0100
0010
0001
0100
0010
1000
0010
0100
0010
1000
0001
0010
0001
1000
0100
,
0010
0100
1000
0001
0100
0010
1000
0001
0100
0010
0100
0001
1000
0100
0010
0100
,
1000
0100
0010
0001
0010
0100
0010
0001
0100
0010
0100
0010
1000
0100
0010
0001
,
0100
0010
1000
0100
1000
0001
0010
0001
0010
0100
0010
0001
0010
0100
1000
0100
,
0010
0001
1000
0010
0100
0010
1000
0001
0100
0010
0100
0001
0010
0100
1000
0100
,
0010
0100
0010
0001
0100
0010
1000
0100
1000
0100
1000
0100
0010
0001
0010
0100
,
1000
0010
0100
0001
1000
0001
1000
0100
0010
0100
1000
0001
0100
0010
0100
0001
,
0010
0100
1010
0000
0010
0100
0010
0000
1001
0000
1010
0000
0010
0000
0101
0000
,
0100
1010
1000
0101
0100
0011
0010
1100
,
0001
1000
0010
1010
0010
0101
0010
1100
,
0001
0110
0100
1001
0010
0101
1000
0011
,
0010
0100
0001
0110
1000
0011
0010
1010
,
0100
0101
0010
1001
0001
0110
1000
0011
,
1010
0101
0010
0101
1010
0110
0001
0010
,
1000
0101
0010
1100
0100
1001
0010
0101
,
0022
0000
0033
0000
1100
0101
0010
0110
,
0001
1010
0100
0011
0010
1001
0001
0110
,
0010
0001
0010
1100
0010
0101
0100
1010
,
0001
0110
1000
0011
0100
1100
0010
1001
,
0010
0100
0001
1001
0010
1100
0100
0110
,
1000
0101
0010
0011
0001
1100
0010
0001
,
0010
1100
0010
0101
0110
0011
1000
0010
,
1100
0110
0100
0011
1010
1001
0010
0110
,
0101
0000
1010
0000
0100
0010
1000
0100
0010
0001
0100
0010
1000
0010
0100
0001
,
0010
0100
0010
0001
1000
0100
0010
0100
1000
0001
0010
0001
1000
0010
1000
0100
,
0010
0001
1000
0010
0100
0001
0100
0010
0100
0001
0100
0010
0100
0001
0010
0100
,
1000
0100
0010
0001
0010
0100
1000
0100
0010
0100
1000
0010
0100
0010
1000
0001
,
1000
0001
0010
0100
0010
0100
0010
0001
0010
0100
1000
0100
1000
0100
0010
0001
,
0100
0010
1000
0100
0010
0100
1000
0001
0100
0010
0100
0001
0010
0100
1000
0001
,
0010
0100
1000
0010
0100
0001
0100
0010
0100
0001
1000
0001
0010
0001
1000
0100
,
0010
0001
1000
0010
1000
0001
0100
0001
0010
0100
0010
0100
1000
0100
0010
0001
,
0010
0100
1001
0000
0100
0000
0001
0000
0110
0000
0101
0000
1000
0000
0110
0000
,
0010
1001
0100
1100
0001
1010
0100
0011
,
0010
0001
0100
1100
0010
0101
0100
0110
,
0010
0101
0010
1100
0001
1001
1000
0110
,
0100
0010
1000
0101
0010
0011
0100
1010
,
0110
0101
1000
0110
0001
1100
0010
0001
,
1000
0110
0010
0101
1001
1010
0001
0100
,
1000
1100
0010
0101
0001
0110
1000
1100
,
0220
0000
0330
0000
0101
0110
0001
1100
,
0010
1001
0100
0110
1000
1001
0010
0101
,
0010
1000
0100
1100
0010
0101
1000
0110
,
0010
1001
0001
1010
0100
0110
1000
0101
,
0010
0100
1000
0011
0010
1100
0001
1010
,
0001
0110
0100
1100
0010
0101
0100
0010
,
1000
1100
0010
0101
0110
1001
0100
0010
,
1001
0011
0010
1100
1001
0101
0001
1010
,
0100
0000
0110
0000
0001
0100
0010
0100
0001
0010
0100
1000
0100
0010
0100
1000
,
0001
1000
0001
1000
0010
0100
0001
0010
0100
0010
0001
1000
0010
1000
0001
0010
,
0001
1000
0100
1000
0001
0100
0010
1000
0100
0010
0001
1000
0100
0010
0001
0100
,
0010
1000
0010
0100
0010
0100
0010
1000
0100
0010
0001
0010
0100
0010
0001
0010
,
0100
0010
0001
1000
0100
1000
0001
0010
0100
1000
0001
0100
0001
1000
0100
0010
,
0001
1000
0100
1000
0001
0100
0010
0100
0001
0010
0100
1000
0100
0010
0100
0010
,
0100
0010
0001
0010
0100
1000
0010
0100
0001
1000
0010
1000
0001
1000
0001
0100
,
0001
1000
0100
0010
0001
0010
0100
1000
0010
0100
0001
0010
0100
1000
0010
0100
,
0001
0100
2020
0000
0000
0000
3030
0000
0000
0000
1000
0100
0010
0001
0010
0100
,
1000
0010
0100
0001
0010
0100
1000
0010
0100
0010
1000
0001
0010
0001
0100
0010
,
1000
0100
1000
0001
1000
0100
1000
0001
0100
0010
1000
0100
0010
0001
0100
0010
,
1000
0010
0100
0001
0010
0100
0010
0001
0100
0010
1000
0010
0100
0010
1000
0001
,
0100
0001
0100
0001
1000
0010
1000
0100
0010
0100
0010
0001
0010
0100
1000
0100
,
0010
0001
0100
0010
1000
0100
0010
0001
0010
0100
0010
0001
1000
0001
0100
0001
,
1000
0100
0011
0000
0000
0000
0000
0000
0000
0000
1000
0100
1000
0001
0100
0001
,
0010
0100
1000
0010
0100
0001
0100
0010
1000
0001
0010
0001
1000
0010
0100
0001
,
1000
0010
0100
0001
0010
0100
1000
0100
0010
0100
1000
0001
0010
0100
0010
0001
,
1000
0100
1000
0001
0100
0010
0100
0001
0010
0100
1000
0010
0100
0010
0100
0001
,
0100
0010
1000
0100
0010
0100
1000
0010
0100
0001
1000
0001
1000
0001
0100
0010
,
0100
0001
0010
0001
0100
0001
1000
0100
0010
0001
0010
0100
1000
0010
0100
0010
,
0000
0000
1000
0010
0100
0010
1000
0000
0000
0000
0010
0001
0100
0010
1000
0000
,
0000
0000
1000
0100
0010
0001
0100
0010
1000
0001
0100
0010
0100
0001
1000
0100
,
0010
0001
0100
0010
1000
0010
0100
0000
0000
0000
1000
0100
0010
0001
1000
0000
,
0000
0000
0001
0100
0010
1000
0100
0010
0100
1000
0001
0010
0100
0010
0001
1000
,
0001
0100
0001
1000
0100
0010
0001
0000
0000
0000
0010
0100
0001
0100
0010
0000
,
0000
0000
1000
0100
0010
0001
1000
0100
1000
0001
0100
0001
1000
0010
1000
0100
,
0010
0001
0100
0010
1000
0010
0100
0000
0000
0000
0001
0010
0100
1000
0100
0000
,
0000
0000
0001
0010
0100
1000
0100
1000
0100
0010
0011
0000
0000
0000
2002
0000
,
0000
3003
1000
0100
0010
0001
0100
0010
,
1000
0000
0200
0000
0000
0000
0000
0000
0002
0000
0300
0000
0000
0003
0000
0000
,
0000
0000
0010
0100
1000
0001
0100
0001
1000
0010
1000
0100
0010
0001
0100
0010
,
0100
0001
0010
0100
1000
0001
0010
0100
1000
0010
0100
0001
0100
0010
1000
0100
,
0010
2002
0000
0000
0000
0000
3003
0000
0110
0000
0202
0000
0000
0000
0303
0000
,
1010
0000
2002
0000
0000
0000
3003
0000
0011
0000
0220
0000
0000
0330
0000
0000
,
1000
0100
0010
0001
0100
0001
0010
0100
1000
0010
0100
0001
0010
0100
0010
0001
,
1000
0001
1000
0010
1000
0100
0010
0001
1000
0100
1000
0001
0010
0100
2000
0000
,
3000
0000
0001
0010
0001
0010
0001
0000
0000
0000
1000
0010
0100
0001
0100
0000
,
0000
0000
1000
0100
0010
0001
1000
0001
0010
0100
1000
0010
0100
0001
1000
0100
,
1000
0001
0010
0100
1000
0010
0100
0000
0000
0000
1000
0001
0100
0001
1000
0000
,
0000
0000
1000
0100
0010
0001
0100
0010
1000
0010
0100
0001
0010
0100
1000
0100
,
0010
0100
1000
0010
0100
0001
0010
0000
0000
0000
0100
1000
0010
0100
0001
0000
,
0000
0000
0001
0010
0001
0010
0100
1000
0100
0010
0001
1000
0010
0100
0001
0010
,
0001
0010
0100
1000
0100
1000
0100
0000
0000
0000
0010
0100
0010
0100
1000
0000
,
0000
0000
0001
1000
0001
1000
0010
0100
0001
1000
0001
0000
0000
0000
0220
0330
,
0000
0000
2000
0000
3000
0000
0001
0010
0100
1000
0100
0010
0001
0100
0010
1000
,
0100
1000
0020
0030
0100
0010
0100
0010
0001
0100
0010
1000
0010
0100
0010
1000
,
0001
1000
0100
1000
0001
0010
0100
1000
0100
0010
0001
0100
0010
1000
0010
0100
,
0001
0010
0001
1000
0100
1000
0010
0100
0010
0100
0020
0000
0000
0000
2000
0000
,
3030
0000
0000
1000
0100
0010
0001
1000
0100
0010
0001
0010
0100
1000
0010
0100
0001
0010
0100
1000
0100
0010
0001
0000
,
1000
0100
0010
0001
1000
0100
1000
0001
0100
0010
1000
0001
0100
0001
1000
0001
,
0100
0001
0010
0100
1000
0010
0100
0001
0100
0010
1000
0100
1000
0100
1000
0001
,
0010
0100
1000
0010
0100
0001
1000
0001
1000
0010
0100
0010
1000
0100
0010
0001
,
0010
0000
0000
0100
0000
0000
2000
0000
0000
0100
0000
0000
3010
0000
0000
0001
0000
0000
0010
0000
0000
0000
0000
0000
0000
0000
0000
0000
0000
0000
0000
0000
0000
0000
0000
0000
1000
0000
0100
0000
0010
0000
0001
0000
0010
0000
0100
0000
,
1000
0100
0000
0110
0000
0000
0011
0000
0000
1100
0000
0000
1001
0000
0000
0012
0000
0000
0000
0000
0000
0000
0000
0000
,
1023
0000
0000
2130
0000
3210
0000
0000
,
0321
0000
0000
2031
0000
3201
0000
0300
,
0010
0102
0000
0000
1003
0120
0000
0030
,
0001
0000
1200
0000
0000
0000
0300
0000
0000
0000
1000
0100
0010
0001
0100
0001
,
0010
0100
1000
0010
0100
0010
2000
0000
0000
0000
3010
0100
0010
0100
0001
1000
,
0100
1000
0001
0010
0100
1000
0010
0100
0001
1000
0100
0010
0100
1000
0001
0100
,
0001
0010
0100
1000
0010
0100
0001
0100
0010
1000
0100
1000
0001
0010
0001
0100
,
0010
1000
0100
0010
0100
1000
0010
0100
0001
0100
0022
0000
0000
0000
0000
0033
,
2200
0000
0000
0000
0000
3300
0220
0000
0000
0330
0202
0000
0000
0303
1001
0000
,
0022
0000
0000
0000
0000
0000
0000
0000
0033
0000
1000
0100
1000
0100
1000
0100
,
0010
0001
0010
0001
0010
0001
0010
0100
1000
0010
0100
0001
1000
0010
0100
0001
,
0100
0010
0100
0001
1000
0100
0010
0100
1000
0010
0100
0001
0100
0010
0100
0001
,
1000
0010
1000
0001
1000
0001
1000
0100
1000
0010
0100
0010
1000
0100
1000
0001
,
0010
0100
0010
0001
0100
0010
1000
0100
0010
0001
0010
0100
1000
0010
0100
0001
,
0100
0010
1000
0010
0100
0001
0010
0100
0010
0001
1000
0100
0010
0100
1000
0010
,
0100
0010
0100
0001
1000
0100
0010
0001
0010
0100
1000
0000
0000
0000
1001
0010
,
0100
0001
1010
0100
0010
0001
1010
0100
1000
0010
1100
0001
0010
0100
1001
0010
,
0100
0010
1100
0001
0010
0100
0110
0001
1000
0100
0011
0100
0010
0001
0010
0100
,
1010
0001
0110
0100
1000
0100
0010
0001
0110
0010
1001
0010
0100
0010
1100
0001
,
0010
0100
1010
0001
1000
0100
0011
0100
1010
0101
0010
0001
1000
0011
1000
0001
,
0010
0100
0011
0100
1000
0100
1010
0001
0010
0101
1010
0100
0010
0001
1010
0100
,
1000
0001
0110
0001
0010
0100
1010
0001
1000
0010
1100
0001
0010
0100
0010
0100
,
1010
0001
1100
0010
1000
0100
0010
1000
0100
0010
1001
0100
0010
0100
1001
0010
,
0100
0000
0000
1000
0000
0000
0100
0000
0010
0000
0001
0000
1000
0000
0100
0000
0010
0000
0001
0000
0100
0000
0010
0000
1000
0000
0010
0000
0100
0000
0001
0000
0000
0000
0000
0000
0000
0000
0000
0000
0000
0000
0000
0000
0000
0000
0000
0000
,
0000
0000
1000
0100
0010
0001
1000
0010
0100
0001
0010
0100
1000
0001
0010
0001
,
1000
0010
1000
0010
1000
0100
0010
0001
0100
0010
0100
0010
0001
0100
0010
1000
,
0010
0100
0010
1000
0100
0010
0001
0010
0100
0010
0001
0010
0100
1000
0010
0100
,
0010
1000
0001
0100
0001
1000
0100
0010
0100
1000
0010
0100
0001
0010
0100
0010
,
0001
1000
0001
0100
0010
0100
0010
0100
0001
0100
0001
0100
0001
0010
0100
1000
,
0010
0100
0001
0100
0010
1000
0100
0010
0001
0010
1001
0000
0000
0000
0000
0000
,
0000
0000
0010
0001
0100
0010
1000
0100
1000
0010
0100
0001
0010
0100
1000
0001
,
0100
0010
1000
0010
0100
0001
0100
0010
0100
0001
1000
0001
1000
0010
0100
0010
,
0001
0010
0100
1000
0010
0100
0001
0010
0100
1000
0001
1000
0100
0010
0001
0100
,
0010
0100
0001
1000
0100
0010
0100
1000
0100
0010
0001
0100
0010
1000
0001
1000
,
0010
1000
0001
0100
0001
1000
0100
1000
0001
0010
0100
0010
0001
1000
0100
0010
,
0001
0100
0010
1000
0010
0100
0001
0010
0100
1000
0110
0000
0000
0000
0000
0000
,
0000
0000
0001
0010
0100
1000
0001
1000
0010
1000
0001
0010
0100
1000
0010
0100
,
0001
1000
0100
0010
0100
1000
0010
0100
0001
0010
0001
0100
0010
0100
0001
1000
,
0100
1000
0001
0100
0001
0010
0100
1000
0001
0100
0010
1000
0100
0010
0001
0010
,
0100
1000
0010
0100
0001
0100
0010
1000
0100
0010
0001
1000
0001
0010
0100
1000
,
0001
0010
0100
0010
0001
0100
0010
1000
0100
0010
0001
1000
0001
0100
0010
1000
,
0001
0100
0010
1000
0100
0010
0001
0100
0010
0100
1001
0000
0000
0000
0000
0000
,
0000
0000
0100
1000
0010
0100
0001
0010
0100
1000
0010
0100
0010
1000
0001
0010
,
0001
0010
0001
1000
0010
1000
0001
0010
0100
1000
0010
0100
0010
1000
0001
0010
,
0100
0010
0001
1000
0100
0010
0100
1000
0001
0100
0010
1000
0001
1000
0001
0010
,
0001
0100
0010
1000
0100
0010
0001
0010
0100
1000
0010
0100
0001
0010
0100
0010
,
0001
1000
0010
0100
0010
1000
0001
0100
0001
1000
0100
1000
0010
0100
0010
1000
,
0010
1000
0001
0010
0100
1000
0100
0000
0000
0000
1000
0100
0010
0001
0010
0000
,
0000
0000
0000
0000
1000
0001
0100
0001
0010
0000
1100
0000
0110
0000
0101
0000
,
1010
0101
1001
0110
1100
0011
1010
0110
,
0011
2002
0000
3003
0000
0000
0000
0000
;
