#TITLE:Laughing at Old People;
#SUBTITLE:;
#ARTIST:ARTIST;
#TITLETRANSLIT:;
#SUBTITLETRANSLIT:;
#ARTISTTRANSLIT:;
#CREDIT:;
#BANNER:;
#BACKGROUND:;
#LYRICSPATH:;
#CDTITLE:monst3rjoe - cdtitle.png;
#MUSIC:03_laughing_at_old_people.ogg;
#OFFSET:-0.012;
#SAMPLESTART:19.901;
#SAMPLELENGTH:12.000;
#SELECTABLE:YES;
#BPMS:0.000=194.700,65.479=18.430,66.125=18.570,66.250=194.700,69.750=389.400,70.250=194.700,73.750=389.400,74.250=194.700,156.750=4000.000,156.833=7000.000;
#STOPS:64.250=0.010
,64.500=0.010
,64.750=0.010
,65.000=0.732
,65.375=0.752
,65.396=0.848
,65.417=0.924
,65.438=1.071
,69.750=0.077
,73.750=0.077
,77.500=0.308
,114.000=0.577
,114.167=0.616
,114.333=0.617
,114.500=0.616
,114.667=0.616
,114.833=0.617
,115.000=0.616
,115.167=0.616
,115.333=0.617
,115.500=0.616
,115.667=0.616
,115.833=0.039
,115.875=0.001
,121.625=-0.155
,122.917=0.040
,123.000=0.120
,124.000=-0.180
,127.250=-0.385
,129.000=0.076
,143.500=0.007
,144.000=0.007
,144.500=0.007
,144.750=0.010
,145.000=0.010
,148.500=-2.465
,156.667=1.100
;
#BGCHANGES:;
// cache tags:
#FIRSTBEAT:4.000;
#LASTBEAT:158.000;
#SONGFILENAME:Songs/SSSC Pack 2/Laughing at old people - [Monst3rjoe]/NEW BLANSIKS.sm;
#HASMUSIC:1;
#HASBANNER:0;
#MUSICLENGTH:60.055;
// end cache tags

//---------------dance-single - Blank----------------
#NOTES:
     dance-single:
     Blank:
     Challenge:
     16:
     0.992,1.000,0.250,0.150,1.000,385.000,15.000,9.000,99.000,5.000:

0000
0000
0000
0000
,
0001
0000
0010
0000
0011
0000
0001
0100
0010
0000
0000
0010
4000
0000
0000
0000
,
3400
0000
0000
0000
0000
0000
0000
0000
0000
0000
0000
0000
0310
0000
0000
0000
0000
0000
0001
0000
0000
0000
0000
0000
1001
0000
0000
0000
0000
0000
0000
0000
0000
0001
0000
0000
1000
0000
0000
0100
0000
0000
0010
0000
0000
0000
0001
0000
,
0000
1000
0000
1000
0000
0001
0100
0001
0100
0001
1000
0001
1000
0001
1000
0100
1000
0100
1000
0100
0010
0001
0010
0001
,
0010
0000
0001
0100
0010
1000
0100
0010
0001
M0MM
0001
0100
0010
1000
0100
0010
,
0001
M0MM
0001
0100
0010
1000
0100
0010
0001
M0MM
0001
0100
0010
1000
0100
0010
,
0001
M0MM
0001
0100
0010
1000
0100
0010
0001
M0MM
0001
0100
0010
1000
0100
0010
,
0001
M0MM
0001
0100
0010
1000
0100
0010
0001
M0MM
0001
0100
0010
1000
0100
0010
,
0001
0100
0001
1000
0001
0010
0001
1000
0001
0100
0001
1000
0001
0010
0001
0000
,
0100
0010
0100
0001
1000
0000
0010
0000
0110
0000
0100
0001
1000
0001
0010
0100
,
1000
0000
0001
0000
0001
1000
0010
1000
0010
1000
0001
1000
0001
1000
0001
0010
0001
0010
0001
0010
0100
1000
0100
1000
,
0100
0000
1000
0010
0100
0001
0010
0100
1000
MM0M
1000
0010
0100
0001
0010
0100
,
1000
MM0M
1000
0010
0100
0001
0010
0100
1000
MM0M
1000
0010
0100
0001
0010
0100
,
1000
MM0M
1000
0010
0100
0001
0010
0100
1000
MM0M
1000
0010
0100
0001
0010
0100
,
1000
MM0M
1000
0010
0100
0001
0010
0100
1000
MM0M
1000
0010
0100
0001
0010
0100
,
1000
0000
1000
0010
0100
0001
0010
0100
4000
0000
0000
0000
0000
0000
0000
0000
,
0000
0000
0000
0000
0000
0000
0000
0000
0000
0000
0000
0000
0000
0000
0000
0000
0000
0000
0000
0000
0000
0000
0000
0000
0000
0000
0000
0000
0000
0000
0000
0000
0000
0000
0000
0000
0000
0000
0000
0000
3000
0000
0000
0000
0000
0000
0000
0000
0022
0033
0000
0000
0000
0000
0000
0000
0000
0000
0000
0000
0000
0000
0000
0000
0000
0000
2002
3113
2002
3113
0000
2002
0000
0000
0000
0000
0000
0000
0000
0000
0000
0000
0000
0000
0000
0000
0000
0000
0000
0000
0000
0000
0000
0000
0000
0000
0000
0000
0000
0000
0000
0000
3003
0000
0000
0000
0000
0000
0100
0000
0000
0000
0000
0000
0000
0000
0000
0000
0000
0000
1000
0000
0000
0000
0000
0000
0000
0000
0000
0000
0000
0000
0100
0000
0000
0000
0000
0000
0000
0000
0000
0000
0000
0000
0010
0000
0000
0000
0000
0000
0000
0000
0000
0000
0000
0000
0100
0000
0000
0000
0000
0000
0000
0000
0000
0000
0000
0000
0010
0000
0000
0000
0000
0000
0000
0000
0000
0000
0000
0000
0100
0000
0000
0000
0000
0000
0000
0000
0000
0000
0000
0000
,
0010
0100
0010
0100
0010
0100
0010
0001
M0MM
0100
0010
0100
0010
0100
0010
1000
,
0010
0100
0010
0100
0010
0100
0010
1000
M0MM
0100
0010
0100
0010
0100
1000
0100
,
0010
0000
0000
0100
0000
0000
0000
0000
0MM0
0000
0000
0000
0000
0000
0000
0000
M00M
0000
0000
0000
0MM0
0000
0000
0000
0001
0000
0000
0000
0000
0000
0011
0000
0000
0000
0000
0000
0001
0000
0000
0100
0000
0000
0010
0000
0000
0000
0000
0000
,
0000
0010
4000
0000
0000
0000
3111
0000
0001
0100
0010
1000
0100
0010
0001
M0MM
,
0001
0100
0010
1000
0100
0010
0001
M0MM
0001
0100
0010
1000
0100
0010
0001
M0MM
,
0001
0100
0010
1000
0100
0010
0004
0MM0
0000
0000
1103
0000
1110
0000
1111
0000
,
0100
0000
0000
0000
0000
0000
1000
0000
0000
0100
0000
0000
0010
0000
0000
0000
0001
0000
0000
0000
1000
0000
0000
0000
1000
0000
0000
0000
0001
0000
0100
0000
0001
0000
0100
0000
0001
0000
1000
0000
0001
0000
1000
0000
0001
0000
1000
0000
,
0100
0000
1000
0000
0100
0000
1000
0000
0100
0000
0010
0000
0001
0000
0010
0000
0001
0000
0010
0000
0000
0000
0000
0000
0001
0000
0000
0100
0000
0000
0010
0000
0000
1000
0000
0000
0100
0000
0000
0010
0000
0000
0001
0000
0000
M0MM
0000
0000
,
0001
0000
0000
0100
0000
0000
0010
0000
0000
1000
0000
0000
0100
0000
0000
0010
0000
0000
0001
0000
0000
0000
0001
0000
0000
0000
0100
0000
0001
0000
0100
0000
0001
0000
0100
0000
0001
0000
1000
0000
0001
0000
1000
0000
0001
0000
1000
0000
,
0100
1000
0100
1000
0100
0010
0001
0010
0001
0010
0000
0100
0000
1000
0000
0010
0000
0000
0100
0000
0000
0010
0000
0000
,
0100
0000
0000
0010
0000
0000
0100
0000
0000
0001
0000
0001
0000
0100
0001
0100
0001
0100
0001
1000
0001
1000
0001
1000
,
0001
0010
0001
0010
0100
1000
0100
1000
0000
0000
0000
0000
0000
0000
0000
0000
0000
0000
0000
0000
0000
0000
0000
0000
,
0MM0
0000
M00M
0MM0
0000
0000
0000
0000
0000
0000
0000
0000
,
0000
0000
0000
0000
0000
0000
0000
0000
0000
0000
0000
0000
0000
MMM0
0000
0000
0000
0001
0000
0000
0000
0000
0000
0000
0000
0000
0000
0000
0000
0000
0000
0000
,
MMM0
0000
0000
0000
0000
0001
0000
0000
0000
0000
0000
0000
0000
0000
0000
0000
0000
0000
0000
0000
0000
0000
0000
0000
0000
0000
MMM0
0000
0000
0000
0000
0000
,
0000
0001
0000
0000
0000
0000
MMM1
0000
,
0000
0000
MMM1
0000
,
0000
0000
0000
MMM2
0000
0000
0000
0000
,
0000
0000
0000
0000
,
0000
0000
0000
0000
,
0000
0003
0000
0000
,
0000
0000
0000
0000
,
0000
0000
0000
000M
0000
0000
0MM0
0000
0000
0000
M00M
0000
0MM0
0000
0000
0000
0000
0000
0000
0000
0000
0000
0000
0000
;
