#TITLE:WARRIORS;
#SUBTITLE:;
#ARTIST:Ikusawa Yuichi;
#TITLETRANSLIT:;
#SUBTITLETRANSLIT:;
#ARTISTTRANSLIT:;
#CREDIT:;
#BANNER:warriors.png;
#BACKGROUND:warriors-bg.png;
#LYRICSPATH:;
#CDTITLE:;
#MUSIC:warriors.mp3;
#OFFSET:-6.977;
#SAMPLESTART:61.800;
#SAMPLELENGTH:12.000;
#SELECTABLE:YES;
#BPMS:0.000=138.000;
#STOPS:;
#BGCHANGES:;
// cache tags:
#FIRSTBEAT:0.000;
#LASTBEAT:228.000;
#SONGFILENAME:Songs/mongol/warriors/warriors.sm;
#HASMUSIC:1;
#HASBANNER:1;
#MUSICLENGTH:108.303;
// end cache tags

//---------------dance-single - ----------------
#NOTES:
     dance-single:
     :
     Easy:
     4:
     0.266,0.316,0.240,0.074,0.000,168.000,26.000,8.000,0.000,0.000:  // measure 1
1000
0000
0000
0001
0000
0000
0100
0000
,  // measure 2
0000
0000
0010
1000
,  // measure 3
0002
0000
0000
0003
,  // measure 4
0100
0000
0001
0100
,  // measure 5
1000
0000
0000
0010
0000
0000
1000
0000
,  // measure 6
0000
0001
1000
0100
,  // measure 7
0001
0020
0000
0000
,  // measure 8
0000
0000
0000
0130
,  // measure 9
1001
0100
1000
0100
,  // measure 10
1001
0010
0001
0010
,  // measure 11
1000
0100
0010
0001
,  // measure 12
0100
1000
0001
0010
,  // measure 13
1001
0010
1000
0010
,  // measure 14
1001
0100
0001
0100
,  // measure 15
1000
0100
0010
0100
,  // measure 16
0001
0010
1000
0001
,  // measure 17
0011
1000
1100
0010
,  // measure 18
0110
1000
0001
0100
,  // measure 19
1000
0000
0000
0010
,  // measure 20
0010
0000
0000
0010
,  // measure 21
1001
0100
1001
1000
,  // measure 22
0101
0010
1000
0100
,  // measure 23
0001
0000
0000
1000
,  // measure 24
1000
0000
0000
0000
,  // measure 25
0011
0000
0000
0000
,  // measure 26
1100
0000
0000
0000
,  // measure 27
1001
0000
0000
0000
,  // measure 28
0110
0000
0000
0000
,  // measure 29
0001
0000
0101
0000
,  // measure 30
1000
0000
1100
0000
,  // measure 31
0010
0000
0100
0110
,  // measure 32
1001
0000
0010
0001
,  // measure 33
0100
0000
0000
1010
,  // measure 34
0000
0000
1000
0100
,  // measure 35
0002
0000
0000
0000
,  // measure 36
2000
3003
1000
0100
,  // measure 37
0001
0100
1000
0010
,  // measure 38
0001
0010
1000
0100
,  // measure 39
1000
0100
0001
0010
,  // measure 40
1000
0011
0010
1000
,  // measure 41
0100
0000
0000
0101
,  // measure 42
0000
0000
1000
1000
,  // measure 43
2000
0000
0000
0000
,  // measure 44
0020
3030
0001
0010
,  // measure 45
0100
1000
1000
0100
,  // measure 46
0010
0001
0001
0010
,  // measure 47
0100
1000
1000
0100
,  // measure 48
0010
0001
1000
0001
,  // measure 49
0110
1000
0100
1000
,  // measure 50
0110
0010
0001
0010
,  // measure 51
0010
1000
0001
0100
,  // measure 52
1000
0100
0010
0001
,  // measure 53
1001
0010
1000
0100
,  // measure 54
1001
0010
0001
0100
,  // measure 55
1000
0010
0001
0100
,  // measure 56
0001
0100
0010
1000
,  // measure 57
2002
0000
0000
0000
,  // measure 58
3003
0000
0000
0000
;

//---------------dance-single - ----------------
#NOTES:
     dance-single:
     :
     Medium:
     7:
     0.384,0.421,0.388,0.092,0.005,239.000,42.000,10.000,0.000,0.000:  // measure 1
1001
0000
0000
0110
0000
0000
1001
0000
,  // measure 2
0000
0000
0000
1000
0010
0000
0001
0100
,  // measure 3
0002
0000
0000
0000
,  // measure 4
1003
0000
0000
0000
0010
0000
1000
0001
,  // measure 5
0100
0000
0010
0100
0000
0010
0000
0001
,  // measure 6
1000
0000
0100
0010
0000
1000
0000
1000
,  // measure 7
0000
0100
2000
0000
0000
0000
0000
0000
,  // measure 8
0000
0000
0000
3000
,  // measure 9
0101
0000
0100
0000
0010
0001
0100
0000
,  // measure 10
1100
0000
0001
0000
0010
1000
0100
0000
,  // measure 11
0011
0000
0100
0000
0010
1000
0001
0000
,  // measure 12
1010
0000
0010
0000
0100
0001
1000
0000
,  // measure 13
0110
0000
1000
0000
0010
0100
0010
0000
,  // measure 14
0110
0000
0001
0000
0100
0010
0100
0000
,  // measure 15
1001
0000
0010
0000
1000
0001
1000
0000
,  // measure 16
1001
0000
0100
0000
0001
1000
0001
0000
,  // measure 17
1000
1100
0001
0101
,  // measure 18
1000
0000
1100
0000
0010
0100
0010
1000
,  // measure 19
0000
0001
0100
0000
0000
0000
0000
0001
,  // measure 20
0100
0100
0100
1000
,  // measure 21
0010
1001
0100
1001
,  // measure 22
0010
0000
1001
0000
0010
1000
0001
0100
,  // measure 23
0000
1000
0100
1000
0000
0000
0000
1000
,  // measure 24
0010
0010
0010
0001
,  // measure 25
0011
1000
0100
1000
,  // measure 26
1010
0001
0100
0001
,  // measure 27
1100
0010
0001
0010
,  // measure 28
0101
0010
1000
0010
,  // measure 29
0110
0000
0100
0000
0010
1000
0001
0000
,  // measure 30
1001
0000
1000
0000
0010
0001
0100
0000
,  // measure 31
0110
0000
0010
0000
0100
0001
1000
0000
,  // measure 32
1001
0000
0000
0000
0010
1000
0001
0100
,  // measure 33
0010
1000
0001
0110
,  // measure 34
0000
0000
0000
1000
0010
0000
0001
1000
,  // measure 35
0200
0000
0000
0000
,  // measure 36
0020
0000
0330
0000
0001
0000
1000
0100
,  // measure 37
1000
0000
0010
0100
0000
0001
0000
0010
,  // measure 38
1000
0000
0100
1000
0000
0001
0000
0010
,  // measure 39
0000
1000
0200
0000
0000
0300
1000
0100
,  // measure 40
0000
0000
1001
0000
1000
0100
0010
0001
,  // measure 41
1000
1000
0010
0101
,  // measure 42
0000
0000
0000
0010
0001
0000
1000
0100
,  // measure 43
0002
0000
0000
0000
,  // measure 44
2000
0000
3003
0000
0100
0000
0010
1000
,  // measure 45
0001
0000
0001
1000
0000
0010
0000
0100
,  // measure 46
0010
0000
0010
0100
0000
1000
0000
0001
,  // measure 47
0000
0010
2000
0000
0000
3000
0010
0001
,  // measure 48
0000
0000
0000
0000
0110
0000
0000
0000
1000
0000
0000
1000
0000
0000
1000
0000
,  // measure 49
0101
0000
1000
0000
0010
0001
0100
0000
,  // measure 50
1100
0000
0001
0000
0100
1000
0010
0000
,  // measure 51
0011
0000
0010
0000
1000
0001
0100
0000
,  // measure 52
1010
0000
0100
0000
0001
1000
0010
0000
,  // measure 53
0110
0000
1001
0000
0010
1000
0001
0000
,  // measure 54
1001
0000
0110
0000
0100
0001
1000
0000
,  // measure 55
1010
0000
0101
0000
0010
0001
0100
0000
,  // measure 56
0011
0000
1100
0000
0100
1000
0010
0000
,  // measure 57
0220
0000
0000
0000
,  // measure 58
0330
0000
0000
0000
;

//---------------dance-single - ----------------
#NOTES:
     dance-single:
     :
     Hard:
     9:
     0.538,0.526,0.388,0.120,0.245,353.000,42.000,13.000,0.000,0.000:  // measure 1
1010
0000
0000
0101
0000
0000
1010
0000
,  // measure 2
0000
0000
0000
1000
0001
0000
0001
1000
,  // measure 3
0002
0100
0100
0100
,  // measure 4
0103
0000
0000
0000
1001
0000
0010
0100
,  // measure 5
0010
0000
1000
0001
0000
0110
0000
0001
,  // measure 6
1000
0000
0100
0010
0000
1100
0000
0101
,  // measure 7
0000
1001
2002
0000
0000
0000
0000
0000
,  // measure 8
0000
0000
0000
3003
,  // measure 9
1000
0100
1000
0000
0010
0000
0001
0000
0100
0000
0010
0000
1000
0000
0001
0000
,  // measure 10
0010
0001
0010
0000
0010
0000
1000
0000
0100
0000
0001
0000
0010
0000
1000
0000
,  // measure 11
0100
0010
0100
0000
1000
0000
0001
0000
0010
0000
0100
0000
1000
0000
0001
0000
,  // measure 12
0001
1000
0001
0000
0010
0000
1000
0000
0100
0000
0001
0000
1001
0000
0000
0000
,  // measure 13
0010
1000
0010
0000
0001
0000
0100
0000
1000
0000
0010
0000
0001
0000
1000
0000
,  // measure 14
1000
0100
1000
0000
0001
0000
0010
0000
1000
0000
0100
0000
0010
0000
1000
0000
,  // measure 15
0100
0001
0100
0000
0010
0000
1000
0000
0001
0000
0010
0000
0100
0000
1000
0000
,  // measure 16
0001
0010
0001
0000
0010
0000
1000
0000
0100
0000
0010
0000
1001
0000
0000
0000
,  // measure 17
1000
0100
0000
0100
1000
0000
0010
0000
0001
0100
0000
0100
0001
0000
0010
0000
,  // measure 18
0100
0010
0000
0010
0100
0000
0001
0000
1000
0000
0010
0000
0100
0000
0001
0000
,  // measure 19
0000
1000
0100
0000
0000
0000
0000
0001
,  // measure 20
1000
0000
0000
1000
0000
0000
1000
0000
0011
0000
0000
0000
1010
0000
0000
0000
,  // measure 21
0001
0010
0000
0010
0001
0000
1000
0000
1000
0010
0000
0010
1000
0000
0100
0000
,  // measure 22
0001
1000
0000
1000
0001
0000
1000
0000
0010
0000
0100
0000
0001
0000
0010
0000
,  // measure 23
0000
0000
1000
0000
0010
0000
1000
0000
0000
0000
0000
0000
0000
0000
0010
0100
,  // measure 24
0010
0000
0000
0010
0000
0000
0010
0000
0000
0000
0000
0000
0110
0000
0000
0000
,  // measure 25
1010
0000
0000
0001
0010
0000
0000
0010
1000
0000
0000
1000
0001
0000
0000
0000
,  // measure 26
1100
0000
0000
0100
0001
0000
0000
0001
0010
0000
0000
0010
1000
0000
0000
0000
,  // measure 27
0101
0000
0000
0001
0010
0000
0000
0010
1000
0000
0000
1000
0100
0000
0000
0000
,  // measure 28
0011
0000
0000
0010
1000
0000
0000
1000
0100
0000
0000
0100
0001
0000
0000
0000
,  // measure 29
1001
0000
0000
0000
0010
0000
1000
0000
0001
0100
0001
0100
0010
0000
0000
0000
,  // measure 30
0110
0000
0000
0000
1000
0000
0001
0000
0010
0100
0010
0100
1000
0000
0000
0000
,  // measure 31
1001
0000
0000
0000
1000
0000
0001
0000
0010
1000
0010
1000
0100
0000
0000
0000
,  // measure 32
2002
0000
3003
0000
1000
0100
0001
0100
,  // measure 33
1001
0000
0000
0000
0010
0000
0000
0000
1000
0001
1000
0000
0110
0000
0000
0000
,  // measure 34
0000
0000
0000
0010
1000
0000
0001
0100
,  // measure 35
0020
0100
0100
0100
,  // measure 36
0200
0000
0330
0000
1001
0000
0010
1000
,  // measure 37
0001
0000
1000
0010
0000
0110
0000
0001
,  // measure 38
0010
0000
0001
0100
0000
1100
0000
1001
,  // measure 39
0000
0010
0002
0000
0000
0003
0010
0001
,  // measure 40
0000
0000
0000
0000
1001
0000
0000
0000
0010
0000
1000
0000
0001
0000
0010
0100
,  // measure 41
0000
0000
0000
0000
1000
0000
0000
0000
0010
0100
0010
0000
1001
0000
0000
0000
,  // measure 42
0000
0000
0000
0100
0001
0000
1000
0010
,  // measure 43
0200
0001
0001
0001
,  // measure 44
0002
0000
0303
0000
0011
0000
0010
1000
,  // measure 45
0100
0000
0100
1000
0000
0101
0000
0010
,  // measure 46
0001
0000
0001
0010
0000
1010
0000
0011
,  // measure 47
0000
0110
2000
0000
0000
3000
0010
1000
,  // measure 48
0000
0000
0000
0000
0101
0000
0000
0000
1010
0000
0000
1010
0000
0000
1010
0000
,  // measure 49
0010
0001
0010
0000
0010
0000
1000
0000
0001
0000
0100
0000
0010
0000
1000
0000
,  // measure 50
1000
0010
1000
0000
1000
0000
0100
0000
0001
0000
0010
0000
1000
0000
0100
0000
,  // measure 51
0100
1000
0100
0000
0001
0000
0010
0000
0100
0000
0010
0000
1000
0000
0001
0000
,  // measure 52
0001
0100
0001
0000
0001
0000
1000
0000
0010
0000
0100
0000
1100
0000
0000
0000
,  // measure 53
0010
0100
0010
0000
1000
0000
0001
0000
0010
0000
0100
0000
1000
0000
0001
0000
,  // measure 54
1000
0001
1000
0000
1000
0000
0001
0000
0010
0000
0100
0000
1000
0000
0010
0000
,  // measure 55
0100
0010
0100
0000
0001
0000
1000
0000
0010
0000
0100
0000
1000
0000
0001
0000
,  // measure 56
0001
1000
0001
0000
0010
0000
1000
0000
0001
0000
0100
0000
0110
0000
0000
0000
,  // measure 57
2002
0000
0000
0000
,  // measure 58
3003
0000
0000
0000
;
