#TITLE:Ashita no te;
#SUBTITLE:- Witchblade Ending;
#ARTIST:Noto Mamiko;
#TITLETRANSLIT:;
#SUBTITLETRANSLIT:;
#ARTISTTRANSLIT:;
#CREDIT:;
#BANNER:Ashita-logo.jpg;
#BACKGROUND:Ashita-bg.jpg;
#LYRICSPATH:;
#CDTITLE:cdtitle02.png;
#MUSIC:Witchblade_-_Ashita_no_Te_(TV_Size).mp3;
#OFFSET:2.020;
#SAMPLESTART:63.212;
#SAMPLELENGTH:12.000;
#SELECTABLE:YES;
#BPMS:0.000=91.980;
#STOPS:;
#BGCHANGES:3.063=Witchblade Ending.avi=1.000=0=0=1,
141.000=Ashita-bg.jpg=1.000=1=0=1,
99999=-nosongbg-=1.000=0=0=0 // don't automatically add -songbackground-
;
// cache tags:
#FIRSTBEAT:12.000;
#LASTBEAT:139.000;
#SONGFILENAME:Songs/Otaku's Dream 1st Anime Mix/Tweety3187 - Ashita no te (Witchblade ED)/Trance.sm;
#HASMUSIC:1;
#HASBANNER:1;
#MUSICLENGTH:89.652;
// end cache tags

//---------------dance-single - ----------------
#NOTES:
     dance-single:
     :
     Hard:
     9:
     0.784,0.795,1.000,0.268,0.457,306.000,162.000,24.000,0.000,0.000:
0000
0000
0000
0000
,
0000
0000
0000
0000
,
0000
0000
0000
0000
,
1001
0000
0010
0000
1100
0000
0010
0100
0011
1000
0100
0000
1010
0000
0001
0010
,
1100
0000
0010
0000
1001
0000
0100
0001
1010
0100
0010
0000
0101
0000
0010
1000
,
0101
0000
1000
0000
0101
0000
0010
1000
1100
0001
0010
0000
1100
0000
0012
0000
,
0000
0000
1000
0000
1003
0000
0100
0010
1100
0001
0010
0000
1001
0100
0010
1000
,
0011
0000
0110
0000
1100
0000
0010
1000
0011
0000
0101
0000
0100
0000
1010
0001
,
0100
0000
0110
0000
1001
0000
0011
0012
0100
1000
0103
0000
0010
0100
0010
0100
,
1001
0000
0110
0000
1100
0000
0001
1000
0110
0000
0011
0000
0100
0000
1001
0010
,
0100
0000
1010
0000
1010
0000
0110
2001
0010
0100
3001
0000
0001
0010
0100
1000
,
0011
0000
1100
0000
1010
0000
1100
0001
0010
0000
0011
0000
0101
1000
0011
1000
,
0110
0000
1010
0000
0110
0000
1010
0010
0101
0000
2010
0000
3001
0000
0110
1001
,
0210
0000
0301
0000
0012
0000
1003
0110
1001
0000
2001
0000
0010
3000
0110
0000
,
1010
0000
0110
0210
0001
0000
0010
0301
1010
0100
0001
0000
1100
0100
0010
1000
,
1010
0000
1001
0000
0101
0000
1000
0100
1010
0000
0011
0000
0001
0000
1100
0010
,
0001
0000
1001
0000
0110
0000
1010
1020
0001
0100
0031
0000
1000
0001
1000
0001
,
0110
0000
1001
0000
0101
0000
0010
0100
1001
0000
1010
0000
0001
0000
0110
1000
,
0001
0000
1100
0000
1100
0000
1001
0210
1000
0001
0310
0000
0010
1000
0001
0100
,
1010
0000
0101
0000
1100
0000
0101
0010
1000
0000
1010
0000
0011
0100
1010
0100
,
1001
0000
1100
0000
1001
0000
1100
1100
0001
0000
1100
0000
0101
0110
1000
0000
,
1002
0000
0013
0000
1020
0000
0130
1001
0110
0000
0210
0000
1000
0300
1001
0000
,
1100
0000
1001
1002
0010
0000
1000
0013
1100
0001
0010
0000
0101
0001
1000
0100
,
0011
0000
1010
0000
0110
0000
1010
0110
1000
0011
0012
0000
0100
0010
0103
0010
,
1001
0000
0110
0000
1100
0000
0110
1000
0011
0000
0021
0000
1030
0000
0201
0010
,
0301
0000
1010
0000
0110
0000
1010
0110
1000
0011
1200
0000
0301
1000
0110
0000
,
1010
0000
0110
0000
1000
0000
0110
0010
1001
0000
0110
0000
0011
0000
0102
1000
,
0013
0000
0110
0000
1100
0000
0110
0011
0100
1010
2100
0000
0001
0100
3010
0001
,
0110
0000
1001
0000
0110
0000
1100
0011
0100
1010
0120
0000
0100
1000
0130
1000
,
0101
0000
0011
0000
0100
0000
0110
0000
0001
0000
1010
0000
0100
0000
1010
0110
,
0011
0000
1010
0000
0110
0000
2100
0010
3001
0010
1100
0001
0110
0000
0011
0012
,
2000
0000
0000
0000
,
0000
0000
0000
0000
,
0000
0000
0000
0000
,
0000
0000
0000
3003
;

//---------------dance-single - ----------------
#NOTES:
     dance-single:
     :
     Medium:
     4:
     0.282,0.310,0.268,0.089,0.000,145.000,24.000,8.000,0.000,0.000:
0000
0000
0000
0000
,
0000
0000
0000
0000
,
0000
0000
0000
0000
,
1000
0000
0010
0000
0100
0001
0010
0100
,
0001
0000
0010
0000
1000
0100
0010
0100
,
1000
0000
0001
0000
0100
0001
0100
0010
,
1000
1000
1000
1000
,
0110
0001
1000
0000
0010
0100
0010
0000
,
0001
0010
0001
0000
1000
0100
1000
0000
,
0010
0100
1000
0000
0100
0010
0001
0000
,
0010
0100
0010
0000
0001
1000
0001
1000
,
1001
0010
0100
0000
0001
0010
0100
0000
,
0010
1000
0010
0000
0100
0010
0100
0000
,
1001
0110
1001
0110
,
2001
0001
0001
3001
,
0101
0010
1000
0000
0100
1000
0100
0000
,
0010
0100
0010
0000
1000
0001
1000
0000
,
0100
0010
0100
0000
0001
1000
0100
0000
,
1000
0010
0100
0000
0001
0100
0010
0001
,
1000
0010
0100
0000
0010
0100
0010
0000
,
1000
0001
0100
0000
0001
0010
0001
0000
,
0110
1100
0011
0101
,
1020
1000
1000
1030
,
1001
0100
0001
1002
,
1003
0100
0010
1200
,
0301
1000
0100
0010
,
1001
0100
1001
0110
,
1001
0100
0010
0210
,
0301
0001
0010
0102
,
1003
1000
1000
1000
,
0110
0010
0010
0010
,
2002
0000
0000
0000
,
0000
0000
0000
0000
,
0000
0000
0000
0000
,
0000
0000
0000
3003
;

//---------------dance-single - ----------------
#NOTES:
     dance-single:
     :
     Easy:
     2:
     0.139,0.213,0.201,0.022,0.000,67.000,18.000,2.000,0.000,0.000:
0000
0000
0000
0000
,
0000
0000
0000
0000
,
0000
0000
0000
0000
,
0001
0000
0001
0000
,
1000
0000
1000
0000
,
0100
0000
0100
0000
,
0010
0000
0010
0000
,
1001
0000
0100
0000
,
0001
0000
1000
0000
,
0100
0000
0010
0000
,
1000
0000
0001
0000
,
0100
0000
1000
0000
,
0100
0000
0001
0000
,
1001
0000
0110
0000
,
1001
0000
0100
0000
,
0010
0000
1000
0000
,
0100
0000
0001
0000
,
0001
0000
1000
0000
,
0100
0000
0100
0000
,
0010
0000
1000
0000
,
0100
0000
0001
0000
,
0110
0000
0110
0000
,
0110
0000
1000
0000
,
1001
0010
0100
0010
,
1001
0000
0110
0000
,
1001
0100
0010
1000
,
0011
0000
1100
0000
,
0110
0001
1000
0100
,
1000
0010
0100
0010
,
1001
0000
0011
0000
,
1100
0010
0100
0010
,
2002
0000
0000
0000
,
0000
0000
0000
0000
,
0000
0000
0000
0000
,
0000
0000
0000
3003
;
