#TITLE:Prelude to the Omen;
#SUBTITLE:Ys Origin (2006);
#ARTIST:Yukihiro Jindo;
#TITLETRANSLIT:;
#SUBTITLETRANSLIT:;
#ARTISTTRANSLIT:;
#CREDIT:;
#BANNER:Prelude to the Omen.jpg;
#BACKGROUND:Prelude to the Omen-bg.jpg;
#LYRICSPATH:;
#CDTITLE:!dondon151.png;
#MUSIC:Prelude to the Omen.mp3;
#OFFSET:-0.251;
#SAMPLESTART:67.900;
#SAMPLELENGTH:14.300;
#SELECTABLE:YES;
#BPMS:0.000=145.000;
#STOPS:;
#BGCHANGES:;
// cache tags:
#FIRSTBEAT:0.250;
#LASTBEAT:324.375;
#SONGFILENAME:Songs/VGMP 3/Prelude to the Omen (dondon151)/Prelude to the Omen.sm;
#HASMUSIC:1;
#HASBANNER:1;
#MUSICLENGTH:147.261;
// end cache tags

//---------------dance-single - ----------------
#NOTES:
     dance-single:
     :
     Challenge:
     12:
     1.000,1.000,1.000,1.000,0.998,732.000,304.000,159.000,0.000,42.000:
0000
0001
0100
0010
1000
0001
0010
0100
0010
1000
0001
0100
0010
1000
0100
0010
,
1101
0000
0000
0000
0000
0000
0000
0000
0000
0000
0000
0000
0000
0000
0000
0000
0000
0002
0000
0000
0000
0000
0000
0000
1010
0000
0000
0000
0000
0000
0000
0000
0000
0000
0000
0000
0000
0000
0000
0000
0100
0000
0000
0000
0000
0000
0000
0000
0010
0000
0000
0000
0000
0000
0000
0000
0000
0000
0000
0000
0000
0000
0000
0000
,
1100
0000
0000
0000
0000
0000
1000
0000
0000
0000
0000
0000
0110
0000
0000
0000
0000
0000
0000
0000
1010
0000
0000
0003
0010
0000
0100
0000
2000
0000
0000
3000
,
0101
0000
0000
0000
0000
0000
0000
0000
0000
0010
0000
0000
0000
0000
0000
0000
0000
0000
1001
0000
0000
0000
0000
0000
0000
0000
0000
0000
0000
0000
0011
0000
1000
0000
0000
0000
0100
0000
0000
0000
0000
0000
1000
0000
0000
0100
0000
0000
,
1010
0000
0000
0000
0000
0000
0000
0000
0000
0000
0000
0000
0001
0000
0000
0000
0000
0000
0000
0000
0000
0000
0000
0000
0010
0000
0000
0000
0000
0000
0000
0000
0000
0000
0000
0000
0100
0000
0000
0000
0000
0000
0000
0000
0000
0000
0000
0000
0020
0000
0000
0000
0000
0000
0000
0000
0000
0000
0000
0000
0000
0000
0000
0000
0000
0000
0030
0000
0000
0000
0000
0000
0001
0000
0000
0000
0000
0000
0000
0000
0000
0000
0000
0000
0100
0000
0000
0000
0000
0000
0000
0000
0000
0000
0000
0000
1000
0000
0000
0000
0000
0000
0000
0000
0000
0000
0000
0000
0010
0000
0000
0000
0000
0000
0000
0000
0000
0000
0000
0000
0101
0000
0000
0000
0000
0000
0000
0000
0000
0000
0000
0000
1000
0000
0000
0000
0000
0000
0000
0000
0000
0000
0000
0000
0012
0000
0000
0000
0000
0000
0000
0000
0000
0000
0000
0000
0000
0000
0000
0000
0000
0000
0003
0000
0000
0000
0000
0000
0100
0000
0000
0000
0000
0000
0000
0000
0000
0000
0000
0000
0000
0000
0000
0000
1000
0000
0000
0000
0100
0000
0000
0000
,
0011
0000
0000
0000
0000
0000
0000
0000
0000
0000
0000
0000
0000
0000
0000
0000
0000
0000
0000
0000
0000
0000
0000
0000
0000
0000
0000
0000
0000
0000
0000
0000
0000
0000
0000
0000
0100
0000
0000
0000
0000
0000
0000
0000
0000
0000
0000
0000
0000
0000
0000
0000
0000
0000
0000
0000
0000
0000
0000
0000
0000
0000
0000
0000
0000
0000
0000
0000
0000
0000
0000
0000
1001
0000
0000
0000
0000
0000
0000
0000
0000
0000
0000
0000
0000
0000
0000
0000
0000
0000
0000
0000
0000
0100
0000
0000
0000
0000
0000
1000
0000
0000
0000
0000
0000
0100
0000
0000
0000
0000
0000
0010
0000
0000
0000
0000
0000
0001
0000
0000
0000
0000
0000
1000
0000
0000
0000
0000
0100
0000
0000
0000
0000
0000
0000
0000
0000
0000
0010
0000
0000
0000
0000
0000
0002
0000
0000
0000
0000
0000
0000
0000
0000
0000
0000
0000
0000
0000
0000
0000
0000
0000
0000
0000
0000
0000
0000
0000
0010
0000
0000
0000
0000
0000
0000
0000
0000
0000
0000
0000
0100
0000
0000
0000
0000
0000
0000
0000
0000
0000
0000
0000
,
1010
0000
0000
0000
0000
0000
0000
0000
0000
0000
0000
0000
0000
0000
0000
0000
0000
0000
0000
0000
0000
0000
0000
0000
0000
0000
0000
0000
0000
0000
0000
0000
0000
0000
0000
0000
0003
0000
0000
0000
0200
0000
0000
0000
0000
0000
0000
0000
0000
0000
0000
0000
0000
0000
0300
0000
0000
0000
0000
0000
0010
0000
0000
0000
0000
0000
0000
0000
1000
0000
0000
0000
0001
0000
0000
0000
0100
0000
0000
0000
0000
0000
0000
0000
1000
0000
0000
0000
0000
0000
0000
0000
0000
0000
0000
0000
0000
0000
0000
0000
0000
0000
0000
0000
0020
0000
0000
0000
0000
0000
0000
0000
0000
0000
0000
0000
0000
0000
0000
0000
0000
0000
0000
0000
0000
0000
0000
0000
0000
0000
0000
0000
0000
0000
0000
0000
0000
0000
0000
0000
0000
0000
0000
0000
1000
0000
0000
0000
0000
0000
0000
0000
0000
0000
0000
0000
1000
0000
0000
0000
0000
0000
0000
0000
0000
0000
0000
0000
0030
0000
0000
0000
0000
0000
0100
0000
0000
0000
0000
0000
0001
0000
0000
0000
0000
0000
1000
0000
0000
0000
0000
0000
,
0110
0000
0000
0000
0000
0000
0000
0000
0000
0000
0000
0000
0000
0000
0000
0000
0000
0000
0000
0000
0000
0000
0000
0000
0000
0000
0000
0000
0000
0000
0000
0000
0100
0000
0000
0000
0001
0000
0000
0000
0000
0000
0000
0000
0000
0000
0000
0000
0020
0000
0000
0000
0000
0000
0000
0000
0000
0000
0000
0000
0000
0000
0000
0000
0000
0000
0000
0000
0000
0000
0000
0000
0001
0000
0000
0000
0000
0000
0000
0000
0000
0000
0000
0000
0030
0000
0000
0000
0100
0000
0000
0000
0000
0000
0000
0000
0000
0000
0000
0000
1000
0000
0000
0000
0000
0000
0000
0000
0000
0000
0000
0000
0001
0000
0000
0000
0000
0000
0000
0000
0000
0000
0000
0010
0000
0000
0000
0000
0000
0000
0000
0000
0100
0000
0000
0000
0000
0000
0000
0000
0000
0000
0000
0000
0010
0000
0000
0000
0000
0000
0000
0000
0000
0000
0000
0000
0000
0000
0000
0100
0000
0000
0000
0000
0000
0001
0000
0000
0000
0000
0000
1000
0000
0000
0000
0000
0000
0000
0000
0000
0000
0000
0000
0010
0000
0000
0000
0000
0000
0000
0000
0000
,
0100
0000
0000
0000
1000
0000
0000
0000
0000
0000
0000
0000
0010
0000
0000
0000
0000
0000
0000
0000
0000
0000
0000
0000
0100
0000
0000
0000
0000
0000
0000
0000
0000
0000
0000
0000
1000
0000
0000
0000
0000
0000
0000
0000
0000
0000
0000
0000
0001
0000
0000
0000
0000
0000
0000
0000
0000
0000
0000
0000
0000
0000
0000
1000
0000
0000
0000
0000
0000
0000
0000
0000
0010
0000
0000
0000
0200
0000
0000
0000
0000
0000
0000
0000
0000
0000
0000
0000
0000
0000
0000
0000
0000
0000
0000
0000
0301
0000
0000
0000
0000
0000
0000
0000
0000
0000
0000
0000
0000
0000
0000
0000
0000
0000
0000
0000
0000
0000
0000
0000
1010
0000
0000
0000
0000
0000
0000
0000
0000
0000
0000
0000
0000
0000
0000
0000
0000
0000
0000
0000
0000
0000
0000
0000
0101
0000
0000
0000
0000
0000
0000
0000
0000
0000
0000
0000
0101
0000
0000
0000
0000
0000
0000
0000
0000
0000
0000
0000
0010
0000
0000
0000
0000
0000
0000
0000
0000
0000
0000
0000
0100
0000
0000
0000
0000
0000
0000
0000
0000
0000
0000
0000
,
1011
0000
0000
0000
0000
0000
0001
0000
0000
0000
0000
0000
1001
0000
0100
0000
0010
0000
0002
0000
0010
0000
0100
0003
1010
0000
0201
0000
0000
0000
0000
0000
,
1010
0000
0000
0000
0000
0300
0010
0000
2000
0000
0000
3000
0010
0000
0000
0000
0200
0000
0001
0000
0010
0300
0000
0000
1001
0000
0000
0000
0000
0000
0000
0000
,
1100
0000
0000
0000
0000
0000
0000
0000
0000
0000
0000
0000
0110
0000
0000
0000
0000
0000
0000
0000
0000
0000
0000
0000
0101
0000
0000
0000
0000
1000
0000
0000
0200
0000
0000
0000
0000
0000
0300
0000
0002
0000
0000
0000
0003
0000
0100
0000
1020
0000
0000
0000
0000
0000
0000
0000
0000
0000
0000
0000
0000
0000
0000
0000
,
0101
0000
0000
0000
0000
0000
0000
0000
0000
0000
0000
0000
0000
0000
0000
0000
0000
0000
0000
0000
0000
0000
0000
0000
0000
0000
0000
0000
0000
0000
0000
0000
0000
0000
0000
0000
0001
0000
0000
0000
0030
0000
0000
0000
1000
0000
0000
0000
0100
0000
0000
0000
0000
0000
0000
0000
0000
0000
0000
0000
0010
0000
0000
0000
0000
0000
0000
0000
0000
0000
0000
0000
2001
0000
0000
0000
0000
0000
0000
0000
0000
0000
0000
0000
0000
0000
0000
0000
0000
0000
3000
0000
0000
0000
0000
0000
0000
0000
0000
0000
0000
0000
0000
0000
0000
0000
0000
0000
0000
0000
0000
0000
0000
0000
0000
0000
0000
0000
0000
0000
0100
0000
0000
0000
0000
0000
0000
0000
0000
0000
0000
0000
0000
0000
0000
0000
0000
0000
0000
0000
0000
0000
0000
0000
0011
0000
0000
0000
0000
0000
0000
0000
0000
0000
0000
0000
0011
0000
0000
0000
0000
0000
0000
0000
0000
0000
0000
0000
1000
0000
0000
0000
0000
0000
0000
0000
0000
0000
0000
0000
0000
0000
0000
0000
0000
0000
0000
0000
0000
0000
0000
0000
,
0110
0000
0000
0000
0000
0000
0000
0000
0000
0000
0000
0000
0000
0000
0000
0000
0000
0000
0000
0000
0000
0000
0000
0000
0001
0000
0000
0000
0000
0000
0000
0000
1000
0000
0000
0000
0100
0000
0000
0000
0010
0000
0000
0000
0000
0000
0000
0000
0002
0000
0000
0000
0000
0000
0000
0000
0000
0000
0000
0000
0000
0000
0000
0000
0000
0000
0000
0000
0000
0000
0000
0000
1100
0000
0000
0000
0000
0000
0000
0000
0000
0000
0000
0000
0000
0000
0000
0000
0000
0000
0003
0000
0000
0000
0000
0000
0020
0000
0000
0000
0000
0000
0000
0000
0000
0000
0000
0000
0100
0000
0000
0000
0000
0000
0000
0000
0000
0000
0000
0000
0000
0000
0000
0000
0000
0000
0000
0000
0030
0000
0000
0000
0000
0000
0000
1000
0000
0000
0000
0000
0000
0000
0000
0000
0201
0000
0000
0000
0000
0000
0000
0000
0000
0000
0000
0000
0000
0000
0000
0000
0000
0000
0000
0000
0000
0000
0000
0000
0000
0000
0000
0000
0000
0000
0000
0000
0000
0000
0000
0000
0000
0000
0000
0000
0000
0000
0300
0000
0000
0000
0000
0000
,
1100
0000
0000
0000
0000
0000
0000
0000
0010
0000
0000
0000
0000
0000
0000
0000
0100
0000
0000
0000
0000
0000
0000
0000
1000
0000
0000
0000
0000
0000
0000
0000
0000
0000
0000
0000
0100
0000
0000
0000
0000
0000
0000
0000
0000
0000
0000
0000
0000
0000
0000
0020
0000
0000
0000
0000
0000
0000
0000
0000
0000
0000
0000
0000
0000
0000
0000
0000
0000
0030
0000
0000
1100
0000
0000
0002
0000
0000
0000
0000
0000
0000
0000
0000
0000
0000
0000
0000
0000
0000
0000
0000
0000
0003
0000
0000
0000
0000
0000
0000
1000
0000
0000
0000
0000
0000
0000
0000
0010
0000
0000
0200
0000
0000
0000
0000
0000
0000
0000
0000
0001
0000
0000
0000
0000
0000
0000
0000
0000
0000
0000
0000
1000
0000
0000
0000
0000
0000
0000
0000
0000
0000
0000
0000
0011
0000
0000
0000
0000
0000
0000
0000
0000
0000
0000
0000
0000
0000
0000
0000
0000
0000
0000
0000
0000
0000
0000
0000
0000
0000
0000
0000
0000
0000
0000
0000
0000
0000
0000
0000
0000
0000
0000
0000
0000
0000
0000
0000
0000
0000
0000
0000
,
1001
0300
0000
0010
0000
0000
0000
0100
0000
0000
0000
0000
1001
0000
0000
0000
0010
0000
0000
0000
0100
0000
0000
0000
0011
0000
0000
0000
1000
0000
0000
0000
0001
0000
0000
0000
0100
0000
0000
0000
0010
0000
0000
0000
0100
0000
0000
0000
1001
0000
0000
0000
0010
0000
0000
0000
0100
0000
0000
0000
0010
0000
0000
0000
,
1101
0000
0010
0010
1010
0000
1010
0000
0110
0000
0101
0000
1010
0000
1000
0000
,
1201
0000
0000
0000
0000
0000
0001
0000
0000
0000
0000
0000
0001
0000
0000
0000
0000
0000
0000
0300
0020
0000
0000
0030
1002
0000
0000
0003
0200
0000
0000
0000
,
0011
0000
0000
0300
0000
0000
0001
0000
0000
0000
0000
0000
0001
0000
0000
0000
0000
0000
0000
0000
2100
0000
0000
3000
0012
0000
0000
0003
0200
0000
0000
0000
,
1010
0000
0000
0000
0000
0000
1000
0000
0000
0000
0000
0000
1001
0000
0000
0000
0000
0000
0000
0300
0020
0000
0000
0030
1001
0000
0000
0000
0200
0000
0000
0000
,
1010
0000
0001
0000
1000
0000
0010
0000
0000
0000
0000
0300
0010
0000
0000
0000
0000
0000
0000
0000
0100
0000
0000
0000
2001
0000
0000
0000
0010
0000
0000
3000
,
0201
0000
0000
0000
0000
0000
0001
0000
0000
0000
0000
0000
1001
0000
0000
0000
0000
0000
0000
0300
0020
0000
0000
0030
1002
0000
0000
0003
0200
0000
0000
0000
,
1010
0000
0000
0000
0000
0000
0010
0000
0000
0000
0000
0000
0011
0000
0000
0300
0000
0000
0000
0000
0120
0000
0000
0030
2001
0000
0000
3000
0200
0000
0000
0000
,
1001
0000
0000
0000
0010
0000
0000
0000
0000
0000
0000
0000
0000
0000
0000
0000
0000
0000
0000
0000
0000
0000
0000
0000
0000
0000
0000
0000
0000
0000
0000
0000
0000
0000
0000
0000
0001
0000
0000
0000
0000
0000
0000
0000
0000
0000
0000
0000
0000
0000
0000
0000
0000
0000
0000
0000
0000
0000
0000
0000
0000
0000
0000
0000
0000
0000
0000
0000
0000
0000
0000
0000
0001
0000
0000
0000
0000
0000
0000
0000
0000
0000
0000
0000
0000
0000
0000
0000
0000
0000
0300
0000
0000
0000
0000
0000
0000
0000
0000
0000
0000
0000
0000
0000
0000
0000
0000
0000
0000
0000
0000
0000
0000
0000
0000
0000
0000
0000
0000
0000
0020
0000
0000
0000
0000
0000
0000
0000
0000
0000
0000
0000
0000
0000
0000
0000
0000
0000
0030
0000
0000
0000
0000
0000
2001
0000
0000
0000
0000
0000
0000
0000
0000
0000
0000
0000
0000
0000
0000
0000
0000
0000
3000
0000
0000
0000
0000
0000
0200
0000
0000
0000
0000
0000
0000
0000
0000
0000
0000
0000
0000
0000
0000
0000
0000
0000
0000
0000
0000
0000
0000
0000
,
1010
0000
0000
0000
0000
0000
0000
0300
1010
0000
0000
0000
0100
0000
0000
0000
0010
0000
0000
0000
0100
0000
0000
0000
1001
0000
0000
0000
0010
0000
0000
0000
,
1200
0000
0000
0000
0000
0000
1000
0000
0000
0000
0000
0000
1000
0000
0000
0000
0000
0000
0000
0300
0020
0000
0000
0030
1002
0000
0000
0003
0200
0000
0000
0300
,
0011
0000
0000
0000
0000
0000
0001
0000
0020
0000
0000
0000
0001
0000
0000
0030
0200
0000
0000
0000
1000
0000
0000
0300
0021
0000
0000
0000
0000
0000
0000
0030
,
0102
0000
0000
0000
0000
0000
0100
0000
0000
0000
0000
0000
0110
0000
0000
0000
0000
0000
0000
0000
0100
0000
1000
0000
0110
0000
0000
0003
0010
0000
0100
0000
,
2010
0000
0001
0000
0100
0000
0010
0000
0000
0000
0000
0000
0010
0000
0000
3000
0000
0000
0000
0000
0100
0000
0000
0000
0021
0000
0000
0000
0100
0000
0000
0000
,
1001
0000
0000
0000
0000
0000
1000
0000
0000
0000
0000
0030
1200
0000
0000
0000
0000
0000
0000
0000
0010
0000
1000
0300
0012
0000
0000
0000
0000
0000
0000
0003
,
1020
0000
0000
0000
0000
0000
1000
0000
0000
0000
0000
0030
1200
0000
0000
0000
0000
0000
0000
0000
0010
0000
0000
0300
2001
0000
0000
0000
0000
0000
0000
3000
,
0210
0000
0000
0000
0001
0000
0000
0000
0000
0000
0000
0000
0000
0000
0000
0000
0000
0000
0000
0000
0000
0000
0000
0000
0000
0000
0000
0000
0000
0000
0000
0000
0000
0000
0000
0000
0010
0000
0000
0000
0000
0000
0000
0000
0000
0000
0000
0000
0000
0000
0000
0000
0000
0000
0000
0000
0000
0000
0000
0000
0000
0000
0000
0000
0000
0000
0300
0000
0000
0000
0000
0000
1020
0000
0000
0000
0000
0000
0000
0000
0000
0000
0000
0000
0000
0000
0000
0000
0000
0000
0000
0000
0000
0000
0000
0000
0100
0000
0000
0000
0000
0000
0000
0000
0000
0000
0000
0000
0000
0000
0000
0000
0000
0000
0000
0000
0000
0000
0000
0000
0000
0000
0000
0000
0000
0000
0000
0000
0000
0000
0000
0000
0000
0000
0000
0000
0000
0000
0030
0000
0000
0000
0000
0000
1102
0000
0000
0000
0000
0000
0000
0000
0000
0000
0000
0000
0000
0000
0000
0000
0000
0000
0000
0000
0000
0000
0000
0000
0000
0000
0000
0000
0000
0000
0000
0000
0000
0000
0000
0000
0000
0000
0000
0000
0000
0000
0003
0000
0000
0000
0000
0000
,
0110
0101
1010
0110
0000
0110
0101
1010
0110
1000
0100
0010
0101
1000
0100
0010
,
1101
0000
0000
0000
0100
0000
0011
0000
0000
0000
0010
0000
0000
0000
0201
0000
0000
0000
0000
0300
2010
0000
0000
3000
0102
0000
0000
0003
0200
0000
0000
0300
,
0011
0000
0000
0000
0001
0000
1010
0000
0000
0000
0100
0000
0000
0000
0021
0000
0000
0000
0000
0030
2100
0000
0000
3000
0012
0000
0000
0003
0200
0000
0000
0300
,
0011
0000
0000
0000
1000
0000
0101
0000
0000
0000
0010
0000
0000
0000
1200
0000
0000
0000
0000
0300
0021
0000
0000
0030
2100
0000
0000
3000
0102
0000
0010
0003
,
1100
0000
0000
0000
0010
0000
0101
0000
0000
0000
1000
0000
0000
0000
0210
0000
0000
0000
0000
0300
1010
0000
0001
0000
0110
0000
0000
0000
0101
0000
0000
0000
,
1010
0000
0000
0000
0100
0000
0011
0000
1000
0000
0010
0000
0000
0000
0201
0000
0000
0000
0000
0300
2010
0000
0100
3000
0012
0000
0000
0003
0200
0000
0000
0300
,
0011
0000
0000
0000
0001
0000
1010
0000
0000
0000
0100
0000
0000
0000
0021
0000
0000
0000
0000
0030
2100
0000
0000
3000
0012
0000
0000
0003
0200
0000
0000
0300
,
1020
0000
0000
0000
0000
0030
2001
0000
0000
0000
0000
3000
0100
0000
0000
0000
2010
0000
0000
0000
0000
3000
0201
0000
0000
0000
0000
0300
0010
0000
0000
0000
,
1200
0000
0000
0000
0000
0300
0021
0000
0000
0000
0000
0030
0001
0000
0000
0000
1020
0000
0000
0000
0100
0000
0000
0030
1102
0000
0000
0003
0000
0000
0000
0000
,
1010
0000
0000
0000
0100
0000
0011
0000
0000
0000
0010
0000
0000
0000
0201
0000
0000
0000
0000
0300
2010
0000
0000
3000
0102
0000
0000
0003
0200
0000
0000
0300
,
0011
0000
0000
0000
0001
0000
1010
0000
0000
0000
0100
0000
1000
0000
0021
0000
0000
0000
0000
0030
2100
0000
0010
3000
0102
0000
0000
0003
0200
0000
0000
0300
,
0011
0000
0000
0000
1000
0000
0101
0000
0000
0000
0010
0000
0000
0000
1200
0000
0000
0000
0000
0300
0021
0000
0100
0030
2001
0000
0000
3000
0002
0000
0000
0003
,
1100
0000
0000
0000
0000
0000
0000
0000
0010
0000
0000
0000
0101
0000
0000
0000
0000
0000
0000
0000
1010
0000
0000
0000
0000
0000
0000
0000
0210
0000
0000
0001
0000
0000
0000
0000
0000
0000
0300
0000
1010
0000
0000
0000
0001
0000
0000
0000
0110
0000
0000
0000
1000
0000
0000
0000
0001
0000
0000
0000
0100
0000
0000
0000
,
1010
0000
0000
0000
0100
0000
0011
0000
0000
0000
0010
0000
1000
0000
0201
0000
0000
0000
0000
0300
2010
0000
0000
3000
0102
0000
0000
0003
0200
0000
0000
0300
,
0011
0000
0000
0000
0001
0000
1010
0000
0000
0000
0100
0000
1000
0000
0021
0000
0000
0000
0000
0030
2000
0000
0000
3000
0012
0000
0000
0003
0200
0000
0000
0300
,
1020
0000
0000
0000
0000
0030
2001
0000
0000
0000
0000
3000
0101
0000
0000
0000
2010
0000
0000
0000
0000
3000
0201
0000
0000
0000
0000
0300
0010
0000
0000
0000
,
1200
0000
0000
0000
0000
0000
0000
0000
0000
0000
0000
0000
0000
0000
0000
0000
0000
0000
0000
0000
0000
0000
0000
0000
0000
0000
0000
0000
0000
0000
0300
0000
0000
0000
0000
0000
0021
0000
0000
0000
0000
0000
0000
0000
0000
0000
0000
0000
0000
0000
0000
0000
0000
0000
0000
0000
0000
0000
0000
0000
0000
0000
0000
0000
0000
0000
0030
0000
0000
0000
0000
0000
0101
0000
0000
0000
0000
0000
0000
0000
0000
0000
0000
0000
0000
0000
0000
0000
0000
0000
0000
0000
0000
0000
0000
0000
1010
0000
0000
0000
0000
0000
0000
0000
0000
0000
0000
0000
0000
0000
0000
0000
0000
0000
0000
0000
1000
0000
0000
0000
0000
0000
0000
0000
0000
0000
0000
0000
0000
1000
0000
0000
0000
0000
0000
0000
0000
0000
0000
0000
0000
0000
0000
0000
0211
0000
0000
0000
0000
0000
0000
0000
0000
0000
0000
0000
0000
0000
0000
0000
0000
0000
0000
0000
0000
0000
0000
0000
0000
0000
0000
0000
0000
0000
0000
0000
0000
0000
0000
0000
0000
0000
0000
0000
0000
0000
0300
0000
0000
0000
0000
0000
,
1002
0000
0000
1000
0000
0000
0110
0000
0000
0000
1000
0000
0000
0000
0000
0000
,
1100
0000
0000
0000
0010
0000
0000
0000
0000
0000
0000
0000
0000
0000
0000
0000
0000
0000
0000
0000
0000
0000
0000
0000
0000
0000
0000
0000
0000
0000
0000
0000
0000
0000
0000
0000
0100
0000
0000
0000
0000
0000
0000
0000
0000
0000
0000
0000
0000
0000
0000
0000
0000
0000
0000
0000
0000
0000
0000
0000
0000
0000
0000
0000
0000
0000
0000
0000
0000
0000
0000
0000
1010
0000
0000
0000
0000
0000
0000
0000
0000
0000
0000
0000
0000
0000
0000
0000
0000
0000
0000
0000
0000
0000
0000
0000
0000
0000
0000
0000
0000
0000
0000
0000
0000
0000
0000
0000
0000
0000
0000
0000
0000
0000
0000
0000
0000
0000
0000
0000
0100
0000
0000
0000
0000
0000
0000
0000
0000
0000
0000
0000
0000
0000
0000
0000
0000
0000
0000
0000
0000
0000
0000
0000
0000
0000
0000
0000
0000
0000
0000
0000
0000
0000
0000
0000
0000
0000
0000
0000
0003
0000
0000
0000
0010
0000
0000
0000
0000
0000
0000
0000
0000
0000
0000
0000
0000
0100
0000
0000
0000
0000
0000
0000
0000
0000
0000
0000
0000
0000
0000
0000
,
2010
0000
0000
0000
0000
0000
0000
0000
0000
0010
0000
0000
0000
0000
0000
0000
0000
0000
0101
0000
0000
0000
0000
0000
0010
0000
0000
0000
0000
0000
0100
0000
0010
0000
0100
0000
0001
0000
0000
0000
0000
0000
0010
0000
0000
0000
0000
0000
,
0101
0000
0000
0000
0000
0000
0100
0000
0000
0000
0000
3000
0101
0000
0000
0000
0000
0000
0000
0000
1100
0000
0000
0000
0011
0000
0101
0000
2000
0000
0000
3000
,
0201
0000
0000
0000
0000
0000
0010
0000
0000
0000
0000
0300
2001
0000
0000
0000
0000
0000
0000
3000
0010
0000
0000
0000
0000
0000
0000
0000
0100
0000
0010
0000
,
0201
0000
0000
0000
0000
0300
2010
0000
0000
0000
0000
3000
0101
0000
0010
0000
0200
0000
0000
0300
1010
0000
0000
0000
0100
0000
0010
0000
0100
0000
1000
0000
,
0201
0000
0000
0000
0000
0000
0000
0000
0000
0000
0000
0000
0000
0000
0000
0000
0000
0000
0000
0000
0000
0000
0000
0000
0000
0000
0000
0000
0000
0000
0000
0000
0000
0000
0000
0000
0001
0000
0000
0000
0000
0000
0000
0000
0000
0000
0000
0000
0000
0000
0000
0000
0000
0000
0000
0000
0000
0000
0000
0000
0000
0000
0000
0000
0000
0000
0300
0000
0000
0000
0000
0000
2001
0000
0000
0000
0000
0000
0000
0000
0000
0000
0000
0000
0000
0000
0000
0000
0000
0000
0000
0000
0000
0000
0000
0000
0000
0000
0000
0000
0000
0000
0000
0000
0000
0000
0000
0000
0000
0000
0000
0000
0000
0000
0000
0000
0000
0000
0000
0000
0010
0000
0000
0000
0000
0000
0000
0000
0100
0000
0000
0000
0000
0000
0000
0000
0001
0000
3000
0000
0000
0000
0000
0000
0120
0000
0000
0000
0000
0000
0000
0000
0000
0000
0000
0000
0000
0000
0000
0000
0000
0000
0000
0000
0000
0000
0000
0000
0000
0000
0000
0000
0000
0000
0000
0000
0000
0000
0000
0000
0000
0000
0000
0000
0000
0000
0030
0000
0000
0000
0000
0000
,
1002
0000
0000
0000
0000
0000
1000
0000
0000
0000
0000
0000
1010
0000
0000
0000
0000
0000
0000
0000
0100
0000
0000
0003
0011
0000
0011
0000
0011
0000
0011
0000
,
1101
0000
0000
0100
0000
0000
0101
0000
0000
0000
1000
0100
1010
0001
0100
0010
,
1100
0000
0000
0000
0000
0000
0000
0000
0000
0100
0000
0000
0000
0000
0000
0000
0000
0000
0110
0001
0000
0000
0000
0000
0000
0000
0000
1000
0000
0000
0011
0000
0000
0000
0000
0000
1100
0000
0000
0010
0000
0000
0001
0000
0000
0100
0000
0000
,
1010
0000
0000
1000
0000
0000
1010
0000
0000
1000
0010
0100
0011
1000
0100
0010
,
1001
0000
0000
1000
0000
0000
1010
0000
0000
0000
1100
0010
1001
0100
1010
0001
,
0110
0000
0000
0000
0000
0000
0000
0000
0000
0000
0000
0000
0000
0000
0000
0000
0000
0000
0000
0000
0000
0000
0000
0000
0000
0000
0000
0000
0000
0000
0000
0000
0000
0000
0000
0000
0100
0000
0000
0000
0000
0000
0000
0000
0000
0000
0000
0000
0000
0000
0000
0000
0000
0000
0000
0000
0000
0000
0000
0000
0000
0000
0000
0000
0000
0000
0000
0000
0000
0000
0000
0000
1100
0000
0000
0000
0000
0000
0000
0000
0000
0000
0000
0000
0000
0000
0000
0000
0000
0000
0000
0000
0000
0000
0000
0000
0000
0000
0000
0000
0000
0000
0000
0000
0000
0000
0000
0000
0100
0000
0000
0000
0010
0000
0000
0000
0000
0000
0000
0000
0000
0000
0000
0000
0000
0000
0000
0000
0000
0000
0000
0000
0000
0000
0000
0000
0000
0000
0010
0000
0000
0000
0000
0000
1001
0000
0000
0000
0000
0000
0000
0000
0000
0000
0000
0000
0000
0000
0000
0000
0000
0000
0000
0000
0000
0000
0000
0000
0010
0000
0000
0000
0000
0000
0000
0000
0000
0000
0000
0000
0100
0000
0000
0000
0000
0000
0000
0000
0000
0000
0000
0000
,
1010
0001
0000
0000
0000
0000
0000
0000
0000
1000
0000
0000
0000
0000
0000
0000
0000
0000
1010
0000
0000
0000
0000
0000
0000
0000
0000
1000
0000
0000
0010
0000
0000
0000
0000
0000
1001
0000
0000
0000
0000
0000
0010
0000
0000
0000
0000
0000
,
0101
0000
0010
0101
0000
1000
0101
0010
0000
0000
0100
0000
1001
0000
0010
0000
,
1100
0000
0000
0001
1010
0000
0001
0000
0100
0000
0010
0000
1001
0000
0100
0000
,
1011
0000
0000
0001
0000
0000
0001
0000
0000
1000
0100
0010
0101
1000
0100
0010
,
1001
0010
0100
0000
0010
0000
0101
0000
1000
0000
0010
0000
1001
0000
0000
0000
0100
0000
0000
0000
1010
0000
0100
0000
1001
0000
0000
0000
0010
0000
0000
0000
,
1100
0001
0000
0000
0000
0000
0000
0000
0000
1010
0000
0000
0000
0000
0000
0001
0000
0000
1000
0000
0000
0000
0000
0000
0100
0000
0000
0000
0000
0000
0010
0000
0000
0100
0000
0000
1001
0000
0000
0000
0000
0000
0100
0000
0000
0010
0000
0000
,
1001
0000
0000
0000
0000
0000
0100
0000
0000
0011
0000
0000
0000
0000
0000
1000
0000
0000
0001
0000
0000
0000
0000
0000
0100
0010
0000
0000
0000
0000
0101
0000
0000
1000
0000
0000
0011
0000
0000
0000
0000
0000
0100
0000
0000
0000
0000
0000
,
1011
0000
0000
1100
0010
0000
1000
0000
0001
0000
1001
0000
0110
0000
0000
0000
,
1010
0000
0001
1010
0000
0100
0010
1000
0001
0000
1010
0000
0101
0000
0010
1000
,
0101
0000
0000
0000
0000
0000
0100
0000
1000
0001
0100
0000
0010
0000
0000
0001
0000
0000
1100
0000
0000
0010
0000
0000
0101
0000
0000
1000
0000
0000
0010
0000
0000
0100
0000
0000
0011
0000
0000
1000
0000
0000
0100
0000
0000
0010
0000
0000
,
1101
0000
0000
1000
0011
0011
0100
1000
0101
0000
0010
0000
1001
0000
0000
0000
,
1101
0000
0000
0000
0100
0000
0011
0000
0000
0000
0010
0000
0000
0000
0201
0000
0000
0000
0001
0300
2010
0000
0000
3000
0102
0000
0000
0003
0200
0000
0000
0300
,
0011
0000
0000
0000
0001
0000
1010
0000
0001
0000
0100
0000
0000
0000
0021
0000
0000
0000
0000
0030
2100
0000
0000
3000
0012
0000
0000
0003
0200
0000
0000
0300
,
0011
0000
0000
0000
1000
0000
0101
0000
1000
0000
0010
0000
0000
0000
1200
0000
0000
0000
0000
0300
0021
0000
0000
0030
2100
0000
0000
3000
0002
0000
0000
0003
,
1100
0000
0000
0000
0010
0000
0101
0000
0000
0000
1000
0000
0000
0000
0210
0000
0000
0000
0000
0300
1010
0000
0000
0000
0110
0000
0000
0000
0101
0000
0000
0000
,
1010
0000
0000
0000
0100
0000
0011
0000
1000
0000
0010
0000
1000
0000
0201
0000
0000
0000
0000
0300
2010
0000
0100
3000
0012
0000
0000
0003
0200
0000
0000
0300
,
0011
0000
0000
0000
0001
0000
1010
0000
0001
0000
0100
0000
0000
0000
1020
0000
0001
0000
0000
0030
2100
0000
0010
3000
0102
0000
0000
0003
0200
0000
0000
0300
,
1020
0000
0000
0000
0000
0030
2001
0000
0000
0000
0000
3000
0101
0000
0000
0000
2010
0000
0001
0000
0010
3000
0201
0000
0000
0000
0000
0300
0010
0000
0000
0000
,
1200
0000
0000
0000
0000
0000
0000
0000
0000
0000
0000
0000
0000
0000
0000
0000
0000
0000
0000
0000
0000
0000
0000
0000
0000
0000
0000
0000
0000
0000
0300
0000
0000
0000
0000
0000
0021
0000
0000
0000
0000
0000
0000
0000
0000
0000
0000
0000
0000
0000
0000
0000
0000
0000
0000
0000
0000
0000
0000
0000
0000
0000
0000
0000
0000
0000
0030
0000
0000
0000
0000
0000
0101
0000
0000
0000
0000
0000
0000
0000
0000
0000
0000
0000
0000
0000
0000
0000
0000
0000
0000
0000
0000
0000
0000
0000
1010
0000
0000
0000
0000
0000
0000
0000
0000
0000
0000
0000
0000
0000
0000
0000
0000
0000
0000
0000
1000
0000
0000
0000
0000
0000
0000
0000
0000
0000
0000
0000
0000
1000
0000
0000
0000
0000
0000
0000
0000
0000
0000
0000
0000
0000
0000
0000
0211
0000
0000
0000
0000
0000
0000
0000
0000
0000
0000
0000
0000
0000
0000
0000
0000
0000
0000
0000
0000
0000
0000
0000
0000
0000
0000
0000
0000
0000
0000
0000
0000
0000
0000
0000
0000
0000
0000
0000
0000
0000
0300
0000
0000
0000
0000
0000
,
1002
0000
0000
0003
0000
0000
0000
0000
0000
0000
0000
0000
0000
0000
0000
0000
0000
0000
0000
0000
0000
0000
0000
0000
0000
0000
0000
0000
0000
0000
0000
0000
;

//---------------dance-single - ----------------
#NOTES:
     dance-single:
     :
     Hard:
     11:
     1.000,1.000,1.000,1.000,0.886,671.000,227.000,159.000,0.000,0.000:
0000
0001
0100
0010
1000
0001
0010
0100
0010
1000
0001
0100
0010
1000
0100
0010
,
1001
0000
0000
0000
0000
0000
0000
0000
0000
0000
0000
0000
0000
0000
0000
0000
0000
0002
0000
0000
0000
0000
0000
0000
0010
0000
0000
0000
0000
0000
0000
0000
0000
0000
0000
0000
0000
0000
0000
0000
0100
0000
0000
0000
0000
0000
0000
0000
0000
0000
0000
0000
0000
0000
0000
0000
0000
0000
0000
0000
0000
0000
0000
0000
,
1000
0000
0000
0000
0000
0000
0000
0000
0000
0000
0000
0000
0100
0000
0000
0000
0000
0000
0000
0000
0010
0000
0000
0003
0010
0000
0100
0000
2000
0000
0000
3000
,
0101
0000
0000
0000
0000
0000
0000
0000
0000
0000
0000
0000
0000
0000
0000
0000
0000
0000
1010
0000
0000
0000
0000
0000
0000
0000
0000
0000
0000
0000
0001
0000
0100
0000
0000
0000
0010
0000
0000
0000
0000
0000
1000
0000
0000
0100
0000
0000
,
0010
0000
0000
0000
0000
0000
0000
0000
0000
0000
0000
0000
0001
0000
0000
0000
0000
0000
0000
0000
0000
0000
0000
0000
0010
0000
0000
0000
0000
0000
0000
0000
0000
0000
0000
0000
0100
0000
0000
0000
0000
0000
0000
0000
0000
0000
0000
0000
0020
0000
0000
0000
0000
0000
0000
0000
0000
0000
0000
0000
0000
0000
0000
0000
0000
0000
0030
0000
0000
0000
0000
0000
0000
0000
0000
0000
0000
0000
0000
0000
0000
0000
0000
0000
0100
0000
0000
0000
0000
0000
0000
0000
0000
0000
0000
0000
1000
0000
0000
0000
0000
0000
0000
0000
0000
0000
0000
0000
0010
0000
0000
0000
0000
0000
0000
0000
0000
0000
0000
0000
0100
0000
0000
0000
0000
0000
0000
0000
0000
0000
0000
0000
1000
0000
0000
0000
0000
0000
0000
0000
0000
0000
0000
0000
0002
0000
0000
0000
0000
0000
0000
0000
0000
0000
0000
0000
0000
0000
0000
0000
0000
0000
0003
0000
0000
0000
0000
0000
0100
0000
0000
0000
0000
0000
0000
0000
0000
0000
0000
0000
0000
0000
0000
0000
1000
0000
0000
0000
0100
0000
0000
0000
,
0010
0000
0000
0000
0000
0000
0000
0000
0000
0000
0000
0000
0000
0000
0000
0000
0000
0000
0000
0000
0000
0000
0000
0000
0000
0000
0000
0000
0000
0000
0000
0000
0000
0000
0000
0000
0000
0000
0000
0000
0000
0000
0000
0000
0000
0000
0000
0000
0000
0000
0000
0000
0000
0000
0000
0000
0000
0000
0000
0000
0000
0000
0000
0000
0000
0000
0000
0000
0000
0000
0000
0000
0011
0000
0000
0000
0000
0000
0000
0000
0000
0000
0000
0000
0000
0000
0000
0000
0000
0000
0000
0000
0000
0100
0000
0000
0000
0000
0000
1000
0000
0000
0000
0000
0000
0100
0000
0000
0000
0000
0000
0010
0000
0000
0000
0000
0000
0001
0000
0000
0000
0000
0000
1000
0000
0000
0000
0000
0100
0000
0000
0000
0000
0000
0000
0000
0000
0000
0010
0000
0000
0000
0000
0000
0002
0000
0000
0000
0000
0000
0000
0000
0000
0000
0000
0000
0000
0000
0000
0000
0000
0000
0000
0000
0000
0000
0000
0000
0000
0000
0000
0000
0000
0000
0000
0000
0000
0000
0000
0000
0000
0000
0000
0000
0000
0000
0000
0000
0000
0000
0000
0000
,
0010
0000
0000
0000
0000
0000
0000
0000
0000
0000
0000
0000
0000
0000
0000
0000
0000
0000
0000
0000
0000
0000
0000
0000
0000
0000
0000
0000
0000
0000
0000
0000
0000
0000
0000
0000
0003
0000
0000
0000
0200
0000
0000
0000
0000
0000
0000
0000
0000
0000
0000
0000
0000
0000
0300
0000
0000
0000
0000
0000
0010
0000
0000
0000
0000
0000
0000
0000
1000
0000
0000
0000
0000
0000
0000
0000
0100
0000
0000
0000
0000
0000
0000
0000
1000
0000
0000
0000
0000
0000
0000
0000
0000
0000
0000
0000
0000
0000
0000
0000
0000
0000
0000
0000
0020
0000
0000
0000
0000
0000
0000
0000
0000
0000
0000
0000
0000
0000
0000
0000
0000
0000
0000
0000
0000
0000
0000
0000
0000
0000
0000
0000
0000
0000
0000
0000
0000
0000
0000
0000
0000
0000
0000
0000
0000
0000
0000
0000
0000
0000
0000
0000
0000
0000
0000
0000
0000
0000
0000
0000
0000
0000
0000
0000
0000
0000
0000
0000
0030
0000
0000
0000
0000
0000
0100
0000
0000
0000
0000
0000
0001
0000
0000
0000
0000
0000
1000
0000
0000
0000
0000
0000
,
0010
0000
0000
0000
0000
0000
0000
0000
0000
0000
0000
0000
0000
0000
0000
0000
0000
0000
0000
0000
0000
0000
0000
0000
0000
0000
0000
0000
0000
0000
0000
0000
0100
0000
0000
0000
0001
0000
0000
0000
0000
0000
0000
0000
0000
0000
0000
0000
0020
0000
0000
0000
0000
0000
0000
0000
0000
0000
0000
0000
0000
0000
0000
0000
0000
0000
0000
0000
0000
0000
0000
0000
0000
0000
0000
0000
0000
0000
0000
0000
0000
0000
0000
0000
0030
0000
0000
0000
0100
0000
0000
0000
0000
0000
0000
0000
0000
0000
0000
0000
1000
0000
0000
0000
0000
0000
0000
0000
0000
0000
0000
0000
0001
0000
0000
0000
0000
0000
0000
0000
0000
0000
0000
0010
0000
0000
0000
0000
0000
0000
0000
0000
0100
0000
0000
0000
0000
0000
0000
0000
0000
0000
0000
0000
0010
0000
0000
0000
0000
0000
0000
0000
0000
0000
0000
0000
0000
0000
0000
0100
0000
0000
0000
0000
0000
0001
0000
0000
0000
0000
0000
1000
0000
0000
0000
0000
0000
0000
0000
0000
0000
0000
0000
0010
0000
0000
0000
0000
0000
0000
0000
0000
,
0000
0000
0000
0000
1000
0000
0000
0000
0000
0000
0000
0000
0010
0000
0000
0000
0000
0000
0000
0000
0000
0000
0000
0000
0100
0000
0000
0000
0000
0000
0000
0000
0000
0000
0000
0000
1000
0000
0000
0000
0000
0000
0000
0000
0000
0000
0000
0000
0001
0000
0000
0000
0000
0000
0000
0000
0000
0000
0000
0000
0000
0000
0000
1000
0000
0000
0000
0000
0000
0000
0000
0000
0000
0000
0000
0000
0200
0000
0000
0000
0000
0000
0000
0000
0000
0000
0000
0000
0000
0000
0000
0000
0000
0000
0000
0000
0300
0000
0000
0000
0000
0000
0000
0000
0000
0000
0000
0000
0000
0000
0000
0000
0000
0000
0000
0000
0000
0000
0000
0000
1000
0000
0000
0000
0000
0000
0000
0000
0000
0000
0000
0000
0000
0000
0000
0000
0000
0000
0000
0000
0000
0000
0000
0000
0001
0000
0000
0000
0000
0000
0000
0000
0000
0000
0000
0000
0001
0000
0000
0000
0000
0000
0000
0000
0000
0000
0000
0000
0010
0000
0000
0000
0000
0000
0000
0000
0000
0000
0000
0000
0100
0000
0000
0000
0000
0000
0000
0000
0000
0000
0000
0000
,
1001
0000
0000
0000
0000
0000
0001
0000
0000
0000
0000
0000
1001
0000
0100
0000
0010
0000
0002
0000
0000
0000
0000
0003
1010
0000
0200
0000
0000
0000
0000
0000
,
0010
0000
0000
0000
0000
0300
0010
0000
2000
0000
0000
3000
0010
0000
0000
0000
0200
0000
0001
0300
0010
0000
0000
0000
1001
0000
0000
0000
0000
0000
0000
0000
,
1100
0000
0000
0000
0000
0000
0000
0000
0000
0000
0000
0000
0010
0000
0000
0000
0000
0000
0000
0000
0000
0000
0000
0000
0001
0000
0000
0000
0000
1000
0000
0000
0200
0000
0000
0000
0000
0000
0300
0000
0002
0000
0000
0000
0003
0000
0100
0000
1020
0000
0000
0000
0000
0000
0000
0000
0000
0000
0000
0000
0000
0000
0000
0000
,
1000
0000
0000
0000
0000
0000
0000
0000
0000
0000
0000
0000
0000
0000
0000
0000
0000
0000
0000
0000
0000
0000
0000
0000
0000
0000
0000
0000
0000
0000
0000
0000
0000
0000
0000
0000
1000
0000
0000
0000
0030
0000
0000
0000
0001
0000
0000
0000
0100
0000
0000
0000
0000
0000
0000
0000
0000
0000
0000
0000
0010
0000
0000
0000
0000
0000
0000
0000
0000
0000
0000
0000
2001
0000
0000
0000
0000
0000
0000
0000
0000
0000
0000
0000
0000
0000
0000
0000
0000
0000
3000
0000
0000
0000
0000
0000
0000
0000
0000
0000
0000
0000
0000
0000
0000
0000
0000
0000
0000
0000
0000
0000
0000
0000
0000
0000
0000
0000
0000
0000
0100
0000
0000
0000
0000
0000
0000
0000
0000
0000
0000
0000
0000
0000
0000
0000
0000
0000
0000
0000
0000
0000
0000
0000
0001
0000
0000
0000
0000
0000
0000
0000
0000
0000
0000
0000
0001
0000
0000
0000
0000
0000
0000
0000
0000
0000
0000
0000
1000
0000
0000
0000
0000
0000
0000
0000
0000
0000
0000
0000
0000
0000
0000
0000
0000
0000
0000
0000
0000
0000
0000
0000
,
0110
0000
0000
0000
0000
0000
0000
0000
0000
0000
0000
0000
0000
0000
0000
0000
0000
0000
0000
0000
0000
0000
0000
0000
0001
0000
0000
0000
0000
0000
0000
0000
1000
0000
0000
0000
0100
0000
0000
0000
0010
0000
0000
0000
0000
0000
0000
0000
0002
0000
0000
0000
0000
0000
0000
0000
0000
0000
0000
0000
0000
0000
0000
0000
0000
0000
0000
0000
0000
0000
0000
0000
0100
0000
0000
0000
0000
0000
0000
0000
0000
0000
0000
0000
0000
0000
0000
0000
0000
0000
0003
0000
0000
0000
0000
0000
0020
0000
0000
0000
0000
0000
0000
0000
0000
0000
0000
0000
0100
0000
0000
0000
0000
0000
0000
0000
0000
0000
0000
0000
0000
0000
0000
0000
0000
0000
0000
0000
0030
0000
0000
0000
0000
0000
0000
1000
0000
0000
0000
0000
0000
0000
0000
0000
0201
0000
0000
0000
0000
0000
0000
0000
0000
0000
0000
0000
0000
0000
0000
0000
0000
0000
0000
0000
0000
0000
0000
0000
0000
0000
0000
0000
0000
0000
0000
0000
0000
0000
0000
0000
0000
0000
0000
0000
0000
0000
0300
0000
0000
0000
0000
0000
,
1100
0000
0000
0000
0000
0000
0000
0000
0010
0000
0000
0000
0000
0000
0000
0000
0100
0000
0000
0000
0000
0000
0000
0000
1000
0000
0000
0000
0000
0000
0000
0000
0000
0000
0000
0000
0000
0000
0000
0000
0000
0000
0000
0000
0000
0000
0000
0000
0000
0000
0000
0020
0000
0000
0000
0000
0000
0000
0000
0000
0000
0000
0000
0000
0000
0000
0000
0000
0000
0030
0000
0000
0000
0000
0000
0002
0000
0000
0000
0000
0000
0000
0000
0000
0000
0000
0000
0000
0000
0000
0000
0000
0000
0003
0000
0000
0000
0000
0000
0000
1000
0000
0000
0000
0000
0000
0000
0000
0000
0000
0000
0200
0000
0000
0000
0000
0000
0000
0000
0000
0000
0000
0000
0000
0000
0000
0000
0000
0000
0000
0000
0000
0000
0000
0000
0000
0000
0000
0000
0000
0000
0000
0000
0000
0010
0000
0000
0000
0000
0000
0000
0000
0000
0000
0000
0000
0000
0000
0000
0000
0000
0000
0000
0000
0000
0000
0000
0000
0000
0000
0000
0000
0000
0000
0000
0000
0000
0000
0000
0000
0000
0000
0000
0000
0000
0000
0000
0000
0000
0000
0000
0000
,
1000
0300
0000
0010
0000
0000
0000
0100
0000
0000
0000
0000
0001
0000
0000
0000
0010
0000
0000
0000
0100
0000
0000
0000
0010
0000
0000
0000
1000
0000
0000
0000
0001
0000
0000
0000
0100
0000
0000
0000
0010
0000
0000
0000
0100
0000
0000
0000
0001
0000
0000
0000
0010
0000
0000
0000
0100
0000
0000
0000
1000
0000
0000
0000
,
0101
0000
0010
0010
1010
0000
1010
0000
0110
0000
0101
0000
1010
0000
1000
0000
,
0201
0000
0000
0000
0000
0000
0001
0000
0000
0000
0000
0000
0001
0000
0000
0000
0000
0000
0000
0300
0020
0000
0000
0030
1002
0000
0000
0003
0200
0000
0000
0000
,
0001
0000
0000
0300
0000
0000
0001
0000
0000
0000
0000
0000
0001
0000
0000
0000
0000
0000
0000
0000
2100
0000
0000
3000
0012
0000
0000
0003
0200
0000
0000
0000
,
1000
0000
0000
0000
0000
0000
1000
0000
0000
0000
0000
0000
1000
0000
0000
0000
0000
0000
0000
0300
0020
0000
0000
0030
1001
0000
0000
0000
0200
0000
0000
0000
,
0010
0000
0000
0000
0000
0000
0010
0000
0000
0000
0000
0300
0010
0000
0000
0000
0000
0000
0000
0000
0100
0000
0000
0000
2001
0000
0000
0000
0010
0000
0000
3000
,
0201
0000
0000
0000
0000
0000
0001
0000
0000
0000
0000
0000
0001
0000
0000
0000
0000
0000
0000
0300
0020
0000
0000
0030
1002
0000
0000
0003
0200
0000
0000
0000
,
0010
0000
0000
0000
0000
0000
0010
0000
0000
0000
0000
0000
0010
0000
0000
0300
0000
0000
0000
0000
0120
0000
0000
0030
2001
0000
0000
3000
0200
0000
0000
0000
,
0001
0000
0000
0000
0000
0000
0001
0000
0000
0000
0000
0000
0001
0000
0000
0300
0000
0000
0000
0000
0020
0000
0000
0030
2001
0000
0000
3000
0200
0000
0000
0000
,
1000
0000
0000
0000
0000
0000
0000
0300
1010
0000
0000
0000
0100
0000
0000
0000
0010
0000
0000
0000
0100
0000
0000
0000
1001
0000
0000
0000
0010
0000
0000
0000
,
1200
0000
0000
0000
0000
0000
1000
0000
0000
0000
0000
0000
1000
0000
0000
0000
0000
0000
0000
0300
0020
0000
0000
0030
1002
0000
0000
0003
0200
0000
0000
0300
,
0001
0000
0000
0000
0000
0000
0001
0000
0020
0000
0000
0000
0001
0000
0000
0030
0200
0000
0000
0000
1000
0000
0000
0300
0021
0000
0000
0000
0000
0000
0000
0030
,
0102
0000
0000
0000
0000
0000
0100
0000
0000
0000
0000
0000
0100
0000
0000
0000
0000
0000
0000
0000
0000
0000
0000
0000
0010
0000
0000
0003
0010
0000
0100
0000
,
2010
0000
0000
0000
0000
0000
0010
0000
0000
0000
0000
0000
0010
0000
0000
3000
0000
0000
0000
0000
1000
0000
0000
0000
0120
0000
0000
0000
1000
0000
0000
0000
,
0100
0000
0000
0000
0000
0000
0100
0000
0000
0000
0000
0030
1200
0000
0000
0000
0000
0000
0000
0000
0000
0000
0000
0300
0012
0000
0000
0000
0000
0000
0000
0003
,
1020
0000
0000
0000
0000
0000
1000
0000
0000
0000
0000
0030
1200
0000
0000
0000
0000
0000
0000
0000
0010
0000
0000
0300
2001
0000
0000
0000
0000
0000
0000
3000
,
0201
0000
0000
0000
0000
0000
0010
0000
0000
0000
0000
0300
1020
0000
0000
0000
0100
0000
0000
0000
0000
0000
0000
0030
1002
0000
0000
0000
0000
0000
0000
0003
,
0110
0001
1000
0110
0000
0110
0001
1000
0110
1000
0100
0010
0101
1000
0100
0010
,
1001
0000
0000
0000
0100
0000
0011
0000
0000
0000
0010
0000
0000
0000
0201
0000
0000
0000
0000
0300
2010
0000
0000
3000
0102
0000
0000
0003
0200
0000
0000
0300
,
0011
0000
0000
0000
0001
0000
1010
0000
0000
0000
0100
0000
0000
0000
0021
0000
0000
0000
0000
0030
2100
0000
0000
3000
0012
0000
0000
0003
0200
0000
0000
0300
,
0011
0000
0000
0000
1000
0000
0101
0000
0000
0000
0010
0000
0000
0000
1200
0000
0000
0000
0000
0300
0021
0000
0000
0030
2100
0000
0000
3000
0002
0000
0000
0003
,
1100
0000
0000
0000
0010
0000
0101
0000
0000
0000
1000
0000
0000
0000
0210
0000
0000
0000
0000
0300
1010
0000
0000
0000
0110
0000
0000
0000
0101
0000
0000
0000
,
1010
0000
0000
0000
0100
0000
0011
0000
0000
0000
0010
0000
0000
0000
0201
0000
0000
0000
0000
0300
2010
0000
0000
3000
0102
0000
0000
0003
0200
0000
0000
0300
,
0011
0000
0000
0000
0001
0000
1010
0000
0000
0000
0100
0000
0000
0000
0021
0000
0000
0000
0000
0030
2100
0000
0000
3000
0012
0000
0000
0003
0200
0000
0000
0300
,
1020
0000
0000
0000
0000
0030
2001
0000
0000
0000
0000
3000
0100
0000
0000
0000
2010
0000
0000
0000
0000
3000
0201
0000
0000
0000
0000
0300
0010
0000
0000
0000
,
1200
0000
0000
0000
0000
0300
0021
0000
0000
0000
0000
0030
0001
0000
0000
0000
1020
0000
0000
0000
0100
0000
0000
0030
1002
0000
0000
0003
0000
0000
0000
0000
,
1010
0000
0000
0000
0100
0000
0011
0000
0000
0000
0010
0000
0000
0000
0201
0000
0000
0000
0000
0300
2010
0000
0000
3000
0102
0000
0000
0003
0200
0000
0000
0300
,
0011
0000
0000
0000
0001
0000
1010
0000
0000
0000
0100
0000
0000
0000
0021
0000
0000
0000
0000
0030
2100
0000
0000
3000
0012
0000
0000
0003
0200
0000
0000
0300
,
0011
0000
0000
0000
1000
0000
0101
0000
0000
0000
0010
0000
0000
0000
1200
0000
0000
0000
0000
0300
0021
0000
0000
0030
2100
0000
0000
3000
0002
0000
0000
0003
,
1100
0000
0000
0000
0000
0000
0000
0000
0010
0000
0000
0000
0101
0000
0000
0000
0000
0000
0000
0000
1010
0000
0000
0000
0000
0000
0000
0000
0200
0000
0000
0001
0000
0000
0000
0000
0000
0000
0300
0000
1010
0000
0000
0000
0000
0000
0000
0000
0110
0000
0000
0000
0000
0000
0000
0000
0001
0000
0000
0000
0000
0000
0000
0000
,
1010
0000
0000
0000
0100
0000
0011
0000
0000
0000
0010
0000
0000
0000
0201
0000
0000
0000
0000
0300
2010
0000
0000
3000
0102
0000
0000
0003
0200
0000
0000
0300
,
0011
0000
0000
0000
0001
0000
1010
0000
0000
0000
0100
0000
0000
0000
0021
0000
0000
0000
0000
0030
2000
0000
0000
3000
0012
0000
0000
0003
0200
0000
0000
0300
,
1020
0000
0000
0000
0000
0030
2001
0000
0000
0000
0000
3000
0101
0000
0000
0000
2010
0000
0000
0000
0000
3000
0201
0000
0000
0000
0000
0300
0010
0000
0000
0000
,
1200
0000
0000
0000
0000
0000
0000
0000
0000
0000
0000
0000
0000
0000
0000
0000
0000
0000
0000
0000
0000
0000
0000
0000
0000
0000
0000
0000
0000
0000
0300
0000
0000
0000
0000
0000
0021
0000
0000
0000
0000
0000
0000
0000
0000
0000
0000
0000
0000
0000
0000
0000
0000
0000
0000
0000
0000
0000
0000
0000
0000
0000
0000
0000
0000
0000
0030
0000
0000
0000
0000
0000
0101
0000
0000
0000
0000
0000
0000
0000
0000
0000
0000
0000
0000
0000
0000
0000
0000
0000
0000
0000
0000
0000
0000
0000
1010
0000
0000
0000
0000
0000
0000
0000
0000
0000
0000
0000
0000
0000
0000
0000
0000
0000
0000
0000
1000
0000
0000
0000
0000
0000
0000
0000
0000
0000
0000
0000
0000
1000
0000
0000
0000
0000
0000
0000
0000
0000
0000
0000
0000
0000
0000
0000
0201
0000
0000
0000
0000
0000
0000
0000
0000
0000
0000
0000
0000
0000
0000
0000
0000
0000
0000
0000
0000
0000
0000
0000
0000
0000
0000
0000
0000
0000
0000
0000
0000
0000
0000
0000
0000
0000
0000
0000
0000
0000
0300
0000
0000
0000
0000
0000
,
1002
0000
0000
1000
0000
0000
0100
0000
0000
0000
1000
0000
0000
0000
0000
0000
,
0100
0000
0000
0000
0000
0000
0000
0000
0000
0000
0000
0000
0000
0000
0000
0000
0000
0000
0000
0000
0000
0000
0000
0000
0000
0000
0000
0000
0000
0000
0000
0000
0000
0000
0000
0000
0100
0000
0000
0000
0000
0000
0000
0000
0000
0000
0000
0000
0000
0000
0000
0000
0000
0000
0000
0000
0000
0000
0000
0000
0000
0000
0000
0000
0000
0000
0000
0000
0000
0000
0000
0000
0010
0000
0000
0000
0000
0000
0000
0000
0000
0000
0000
0000
0000
0000
0000
0000
0000
0000
0000
0000
0000
0000
0000
0000
0000
0000
0000
0000
0000
0000
0000
0000
0000
0000
0000
0000
0000
0000
0000
0000
0000
0000
0000
0000
0000
0000
0000
0000
0100
0000
0000
0000
0000
0000
0000
0000
0000
0000
0000
0000
0000
0000
0000
0000
0000
0000
0000
0000
0000
0000
0000
0000
0000
0000
0000
0000
0000
0000
0000
0000
0000
0000
0000
0000
0000
0000
0000
0000
0003
0000
0000
0000
0010
0000
0000
0000
0000
0000
0000
0000
0000
0000
0000
0000
0000
0100
0000
0000
0000
0000
0000
0000
0000
0000
0000
0000
0000
0000
0000
0000
,
2010
0000
0000
0010
0000
0000
0001
0000
0010
0000
0100
0000
0001
0000
0010
0000
,
0100
0000
0000
0000
0000
0000
0100
0000
0000
0000
0000
3000
0101
0000
0000
0000
0000
0000
0000
0000
1000
0000
0000
0000
0011
0000
0100
0000
2000
0000
0000
3000
,
0201
0000
0000
0000
0000
0000
0010
0000
0000
0000
0000
0300
2001
0000
0000
0000
0000
0000
0000
3000
0010
0000
0000
0000
0000
0000
0000
0000
0100
0000
0010
0000
,
0201
0000
0000
0000
0000
0300
2010
0000
0000
0000
0000
3000
0101
0000
0010
0000
0200
0000
0000
0300
1000
0000
0000
0000
0100
0000
0010
0000
0100
0000
1000
0000
,
0201
0000
0000
0000
0000
0000
0001
0000
0000
0000
0000
0300
2001
0000
0000
0000
0000
0000
0000
0000
0000
0000
0000
3000
0120
0000
0000
0000
0000
0000
0000
0030
,
1002
0000
0000
0000
0000
0000
1000
0000
0000
0000
0000
0000
1000
0000
0000
0000
0000
0000
0000
0000
0100
0000
0000
0003
0010
0000
0010
0000
0010
0000
0010
0000
,
0101
0000
0000
0100
0000
0000
0101
0000
0000
0000
1000
0100
1010
0001
0100
0010
,
1100
0000
0000
0000
0000
0000
0000
0000
0000
0100
0000
0000
0000
0000
0000
0000
0000
0000
0100
0001
0000
0000
0000
0000
0000
0000
0000
1000
0000
0000
0001
0000
0000
0000
0000
0000
1100
0000
0000
0010
0000
0000
0001
0000
0000
0100
0000
0000
,
1010
0000
0000
1000
0000
0000
1010
0000
0000
1000
0010
0100
0011
1000
0100
0010
,
1001
0000
0000
1000
0000
0000
1010
0000
0000
0000
0010
0100
1001
0100
0010
0001
,
0110
0000
0000
0000
0000
0000
0000
0000
0000
0000
0000
0000
0000
0000
0000
0000
0000
0000
0000
0000
0000
0000
0000
0000
0000
0000
0000
0000
0000
0000
0000
0000
0000
0000
0000
0000
0100
0000
0000
0000
0000
0000
0000
0000
0000
0000
0000
0000
0000
0000
0000
0000
0000
0000
0000
0000
0000
0000
0000
0000
0000
0000
0000
0000
0000
0000
0000
0000
0000
0000
0000
0000
1100
0000
0000
0000
0000
0000
0000
0000
0000
0000
0000
0000
0000
0000
0000
0000
0000
0000
0000
0000
0000
0000
0000
0000
0000
0000
0000
0000
0000
0000
0000
0000
0000
0000
0000
0000
0100
0000
0000
0000
0010
0000
0000
0000
0000
0000
0000
0000
0000
0000
0000
0000
0000
0000
0000
0000
0000
0000
0000
0000
0000
0000
0000
0000
0000
0000
0010
0000
0000
0000
0000
0000
1001
0000
0000
0000
0000
0000
0000
0000
0000
0000
0000
0000
0000
0000
0000
0000
0000
0000
0000
0000
0000
0000
0000
0000
0010
0000
0000
0000
0000
0000
0000
0000
0000
0000
0000
0000
0100
0000
0000
0000
0000
0000
0000
0000
0000
0000
0000
0000
,
1000
0001
0000
0000
0000
0000
0000
0000
0000
1000
0000
0000
0000
0000
0000
0000
0000
0000
1010
0000
0000
0000
0000
0000
0000
0000
0000
1000
0000
0000
0010
0000
0000
0000
0000
0000
1001
0000
0000
0000
0000
0000
0010
0000
0000
0000
0000
0000
,
0101
0000
0010
0101
0000
1000
0101
0010
0000
0000
0100
0000
1001
0000
0010
0000
,
1100
0000
0000
0001
1010
0000
0001
0000
0100
0000
0010
0000
1001
0000
0100
0000
,
0011
0000
0000
0001
0000
0000
0001
0000
0000
1000
0100
0010
0101
1000
0100
0010
,
0001
0010
0100
0000
0010
0000
0100
0000
1000
0000
0010
0000
1000
0000
0000
0000
0100
0000
0000
0000
0010
0000
0100
0000
1001
0000
0000
0000
0010
0000
0000
0000
,
0100
0001
0000
0000
0000
0000
0000
0000
0000
1010
0000
0000
0000
0000
0000
0001
0000
0000
1000
0000
0000
0000
0000
0000
0100
0000
0000
0000
0000
0000
0010
0000
0000
0100
0000
0000
1001
0000
0000
0000
0000
0000
0100
0000
0000
0010
0000
0000
,
1001
0000
0000
0000
0000
0000
0100
0000
0000
0011
0000
0000
0000
0000
0000
1000
0000
0000
0001
0000
0000
0000
0000
0000
0100
0010
0000
0000
0000
0000
0001
0000
0000
1000
0000
0000
0011
0000
0000
0000
0000
0000
0100
0000
0000
0000
0000
0000
,
1010
0000
0000
1100
0010
0000
1000
0000
0001
0000
0001
0000
0110
0000
0000
0000
,
1010
0000
0001
1010
0000
0100
0010
1000
0001
0000
0010
0000
0101
0000
0010
1000
,
0101
0000
0000
0000
0000
0000
0010
0000
0100
0000
0010
0000
0001
0000
0000
1000
0000
0000
0100
0000
0000
0010
0000
0000
0100
0000
0000
1000
0000
0000
0010
0000
0000
0100
0000
0000
0011
0000
0000
1000
0000
0000
0100
0000
0000
0010
0000
0000
,
0101
0000
0000
1000
0001
0001
0010
0100
1001
0000
0100
0000
0011
0000
0000
0000
,
1100
0000
0000
0000
0100
0000
0011
0000
0000
0000
0010
0000
0000
0000
0201
0000
0000
0000
0000
0300
2010
0000
0000
3000
0102
0000
0000
0003
0200
0000
0000
0300
,
0011
0000
0000
0000
0001
0000
1010
0000
0000
0000
0100
0000
0000
0000
0021
0000
0000
0000
0000
0030
2100
0000
0000
3000
0012
0000
0000
0003
0200
0000
0000
0300
,
0011
0000
0000
0000
1000
0000
0101
0000
0000
0000
0010
0000
0000
0000
1200
0000
0000
0000
0000
0300
0021
0000
0000
0030
2100
0000
0000
3000
0002
0000
0000
0003
,
1100
0000
0000
0000
0010
0000
0101
0000
0000
0000
1000
0000
0000
0000
0210
0000
0000
0000
0000
0300
1010
0000
0000
0000
0110
0000
0000
0000
0101
0000
0000
0000
,
1010
0000
0000
0000
0100
0000
0011
0000
0000
0000
0010
0000
0000
0000
0201
0000
0000
0000
0000
0300
2010
0000
0000
3000
0102
0000
0000
0003
0200
0000
0000
0300
,
0011
0000
0000
0000
0001
0000
1010
0000
0000
0000
0100
0000
0000
0000
1020
0000
0000
0000
0000
0030
2100
0000
0000
3000
0012
0000
0000
0003
0200
0000
0000
0300
,
1020
0000
0000
0000
0000
0030
2001
0000
0000
0000
0000
3000
0101
0000
0000
0000
2010
0000
0000
0000
0000
3000
0201
0000
0000
0000
0000
0300
0010
0000
0000
0000
,
1200
0000
0000
0000
0000
0000
0000
0000
0000
0000
0000
0000
0000
0000
0000
0000
0000
0000
0000
0000
0000
0000
0000
0000
0000
0000
0000
0000
0000
0000
0300
0000
0000
0000
0000
0000
0021
0000
0000
0000
0000
0000
0000
0000
0000
0000
0000
0000
0000
0000
0000
0000
0000
0000
0000
0000
0000
0000
0000
0000
0000
0000
0000
0000
0000
0000
0030
0000
0000
0000
0000
0000
0101
0000
0000
0000
0000
0000
0000
0000
0000
0000
0000
0000
0000
0000
0000
0000
0000
0000
0000
0000
0000
0000
0000
0000
1010
0000
0000
0000
0000
0000
0000
0000
0000
0000
0000
0000
0000
0000
0000
0000
0000
0000
0000
0000
1000
0000
0000
0000
0000
0000
0000
0000
0000
0000
0000
0000
0000
1000
0000
0000
0000
0000
0000
0000
0000
0000
0000
0000
0000
0000
0000
0000
0201
0000
0000
0000
0000
0000
0000
0000
0000
0000
0000
0000
0000
0000
0000
0000
0000
0000
0000
0000
0000
0000
0000
0000
0000
0000
0000
0000
0000
0000
0000
0000
0000
0000
0000
0000
0000
0000
0000
0000
0000
0000
0300
0000
0000
0000
0000
0000
,
1002
0000
0000
0003
0000
0000
0000
0000
0000
0000
0000
0000
0000
0000
0000
0000
0000
0000
0000
0000
0000
0000
0000
0000
0000
0000
0000
0000
0000
0000
0000
0000
;
