#TITLE:Rape of a Planet OC Remix;
#SUBTITLE:Remastered;
#ARTIST:Final Fantasy VII;
#TITLETRANSLIT:;
#SUBTITLETRANSLIT:;
#ARTISTTRANSLIT:;
#CREDIT:;
#BANNER:ff7-bn.png;
#BACKGROUND:ff7-bg.png;
#LYRICSPATH:;
#CDTITLE:vincentcd.png;
#MUSIC:Final Fantasy 7 - Rape of a Planet OC ReMix.mp3;
#OFFSET:2.420;
#SAMPLESTART:61.996;
#SAMPLELENGTH:12.000;
#SELECTABLE:YES;
#BPMS:0.000=150.000;
#STOPS:49.250=0.200
,50.000=0.200
,51.000=0.200
,51.750=0.200
,215.000=0.200
,215.750=0.200
,216.500=0.200
,217.500=0.200
,429.250=0.200
,430.000=0.200
,430.750=0.200
,431.500=0.200
,478.250=0.200
;
#BGCHANGES:;
// cache tags:
#FIRSTBEAT:7.000;
#LASTBEAT:479.000;
#SONGFILENAME:Songs/toune 2/FF7 - Rape of a Planet -remastered/ff7.sm;
#HASMUSIC:1;
#HASBANNER:1;
#MUSICLENGTH:191.843;
// end cache tags

//---------------dance-single - ----------------
#NOTES:
     dance-single:
     :
     Hard:
     13:
     0.788,0.811,1.000,0.255,1.000,787.000,222.000,49.000,0.000,43.000:
0000
0000
0000
0000
,
0000
0000
0000
2000
,
0000
0000
0000
0000
,
0000
0000
0000
0000
,
0000
0000
0000
0000
,
0000
0000
0000
0000
,
0000
0000
0000
0000
,
0000
0000
0000
0000
0000
0000
0000
0000
0000
0000
0000
0110
0110
3000
0001
0010
,
0010
0000
0101
0000
0000
1000
0000
0001
0000
0100
0001
0100
0000
1010
0000
0000
,
0000
0000
0000
0010
0010
0000
0100
1000
0100
0000
1001
0000
0000
0000
0001
0001
,
0000
1000
0000
0100
0000
0110
0000
0000
0000
0000
1000
0000
0010
0100
0010
1000
,
0000
0100
0011
0000
0000
0000
0000
0001
0000
0001
0100
0010
0000
1001
0000
0000
,
0000
0000
0000
0010
0000
0100
0000
0000
1001
0000
0100
0000
0010
0000
0000
1001
,
0000
0000
0010
0000
0000
0010
0000
0000
0012
0000
0000
0000
0000
0000
0000
1200
,
0000
0000
1003
0000
0000
1020
0300
0000
0000
0000
0000
2100
0030
0000
0100
0000
,
0000
3102
0000
0000
0000
0100
0000
0003
0100
0000
0000
0010
1001
0000
0000
0000
,
0000
0000
0000
0000
0100
0000
0000
0100
0000
0000
2100
0000
0000
0000
0000
0021
,
3000
0000
0001
0000
0000
0201
0030
0000
0000
0000
0000
0312
0000
0000
0010
0000
,
0000
2013
0000
0000
0000
0000
0021
3000
0000
0001
0000
0000
1031
0000
0000
0000
,
0000
0000
0000
1010
0000
0000
0010
0000
0000
0012
0000
0000
0000
0000
0000
2103
,
0000
0000
0100
0000
0000
3120
0000
0000
0000
0000
0030
0102
0000
0000
0100
0000
,
0000
2100
0003
0000
0000
0000
0000
3000
0102
0000
0000
0010
1103
0000
0000
0000
,
0000
0000
0100
0000
0000
0100
0000
0000
2100
0000
0000
0000
0000
0000
0000
3000
,
0201
0000
0000
0001
0000
0000
0321
0000
0000
0000
0000
1002
0030
0000
1000
0000
,
0003
1020
0000
0000
0000
0000
0100
0000
0000
2130
0000
0000
0010
3101
0000
0000
,
0000
0000
0000
1001
0100
0010
0100
0010
0000
1100
0000
0000
0100
0001
0000
0001
,
0000
1000
0010
0000
0100
0011
0000
0000
1000
0100
0000
0010
0100
0000
0001
1000
,
0000
0110
0000
0000
0010
0100
0000
0010
0000
1000
0100
0000
0010
0100
0001
0010
,
1000
0100
0001
0010
0100
1000
0000
0001
0100
0000
1010
0000
0100
0000
0010
0000
,
1000
0010
0000
0100
0011
0000
0000
0001
0000
0000
0001
0000
0100
0000
0010
0100
,
0010
1000
0011
0000
0100
0000
0001
0100
0000
0001
0100
0000
0001
0000
1100
0000
,
0010
0000
1000
0100
0000
0010
0000
0100
0010
0000
0101
0000
1000
0010
0100
0000
,
0001
0100
0000
0010
1000
0000
0110
0000
0100
0000
1000
0000
0001
0100
0000
0001
,
0100
1010
0000
1000
0000
0010
1000
0100
0000
0100
0001
0010
1000
0001
0010
0100
,
0000
1000
0000
0100
0001
0010
0000
0000
0001
0100
1010
0000
1000
0000
0010
0000
,
0000
0010
0000
0100
0010
1001
0000
0000
0100
0001
0010
0000
0100
0010
1000
0000
,
0010
0101
0000
0000
1000
0000
0000
0010
0100
0010
0100
0010
0001
0010
0001
0000
,
1001
0000
0010
0000
1000
0010
0000
0100
0000
1100
0000
0001
0010
0000
0010
0000
,
0100
1001
0000
1010
0000
0011
0000
0000
0001
0000
0100
0010
0000
1000
0010
0100
,
0010
0100
0000
0010
0000
0010
0000
0100
0011
0000
0000
1001
0000
0101
0000
0000
,
1010
0000
0000
0011
0000
1100
0001
1100
0000
0011
0100
0000
0000
0010
0000
0010
,
0100
0000
0000
0010
0000
0000
0110
0000
0000
0010
0000
0101
0010
0000
0000
0000
,
0100
0000
1010
0100
0000
0001
0000
0100
1001
0000
0100
0001
0000
0000
0011
0000
,
1001
0000
0000
0000
0110
0000
0000
0000
0000
0000
0011
0000
0000
0101
0000
0000
,
0011
0000
0000
0110
0000
0000
1100
0000
0000
0110
0000
0000
0011
0000
0000
0110
,
0000
0000
1001
0000
0000
0100
0000
0000
0100
0000
0000
0100
0000
0000
0100
0000
,
0000
0000
0000
0000
0000
0000
0000
0000
0000
1100
0000
0000
0110
0000
0000
1100
,
0000
0000
0011
0000
0000
0101
0000
0000
0101
0000
0000
1001
0000
0000
1010
0000
,
0000
0110
0000
0000
0110
0000
0000
0011
0000
0000
0100
0000
0000
0001
0000
0000
,
1000
0000
0001
0000
1000
0000
0001
0000
1000
0000
0001
0000
1000
0000
0000
0000
0000
0000
0000
0000
0000
0000
0000
0000
0000
0000
0000
0000
0000
0000
0110
0000
0000
0000
0000
0000
0000
0000
0000
1100
0000
0000
0000
0000
0000
0000
0000
0000
,
0110
0000
0000
1001
0000
0000
0011
0000
0000
0110
0000
0000
1010
0000
0000
0110
,
0000
0000
1010
0000
0000
1001
0000
0000
0101
0000
0000
0010
0000
0000
0010
0000
,
0000
0010
0000
0000
0010
0000
0000
0000
0000
0000
1010
0000
0000
0110
0000
0000
,
1001
0000
0000
1010
0000
0000
0011
0000
0000
0101
0000
0000
0110
0000
0000
1100
,
0000
0110
0000
0011
0000
0000
0001
0100
,
0000
0010
1000
0000
0000
0010
0000
0000
0100
0000
0000
0001
0000
0000
0100
0000
,
0000
1000
0000
0000
0010
0000
1000
0000
0001
0100
0010
0100
0000
0010
0000
1000
,
0000
0010
0000
0100
0000
0000
0001
0000
0000
1000
0000
0000
0000
0000
0000
0001
,
0100
0010
0100
0000
0010
0000
1000
0000
0001
0100
0000
0001
0000
0100
0000
0010
,
0000
1000
0000
0000
0000
1000
0000
0010
0100
0010
0000
1000
0000
0000
0001
0000
,
0100
0000
0000
0001
0000
0000
0100
0000
0000
1000
0000
0000
0000
0000
0000
0010
,
0100
0010
0000
0100
0000
0001
0000
1000
0001
0000
0100
0000
0010
0100
0000
0001
,
0000
0000
0001
0000
0000
0000
0000
0010
0000
0100
0010
0000
0000
1000
0000
0000
,
0100
0000
0000
0100
1000
0000
0100
0000
0000
0001
0000
0000
0000
0000
0000
0000
,
0001
0000
0100
0010
0000
0001
0010
0000
0001
0000
0000
0001
0000
0000
1000
0010
,
0000
0100
0000
0000
0100
0000
0000
0100
0000
1000
0100
0000
0000
0100
0000
1000
,
0000
0000
0100
0000
0000
0010
0000
0000
0000
0110
0000
0000
0000
0000
0000
0000
,
0000
0011
0000
0000
1100
0000
0000
0110
0000
0000
0000
1001
0000
0000
0101
0000
,
0000
0101
0000
0000
1010
0000
0000
0110
0000
0000
0011
0000
0000
0010
0000
0000
,
0010
0000
0000
0000
,
0000
0000
0011
0000
0000
1100
0000
0000
0110
0000
0000
1001
0000
0000
0101
0000
,
0000
1010
0000
0000
0110
0000
0000
1010
0000
0000
1001
0000
0000
0011
0000
0000
,
0110
0000
0000
1100
0000
0000
0101
0000
0000
0100
0000
0000
0110
0000
0000
0000
,
0000
0000
0000
1001
0000
0000
0110
0000
0000
1010
0000
0000
1010
0000
0000
0011
,
0000
0000
0110
0000
0000
1001
0000
0000
0101
0000
0000
1010
0000
0000
0011
0000
,
0000
1100
0000
0000
0110
0000
0000
1100
0000
0000
1000
0000
0000
1000
0000
0000
,
0000
0000
0101
0000
0000
0110
0000
0000
1010
0000
0000
1100
0000
0000
0101
0000
,
0000
0110
0000
0000
0011
0000
0000
1001
0000
0000
0011
0000
0000
0110
0000
0000
,
0101
0000
0000
1100
0000
0000
0101
0000
0000
0001
0000
1001
0000
0100
0010
0100
,
0000
1000
0000
0011
0000
0100
0010
1000
0000
0010
0100
0000
0010
0000
1010
0000
,
0001
0000
1000
0000
0001
0000
0100
0000
0100
1000
0011
0000
0000
0100
0001
0000
,
0100
0001
0000
0010
0100
0000
0010
1000
0000
0010
0000
0100
0001
0000
0100
0000
,
0001
0000
1001
0000
0100
0000
1000
0000
0010
0100
0000
1000
0100
0000
1100
0000
,
0010
0100
0010
0000
1000
0010
0000
0100
0000
1001
0000
0010
0000
0100
0010
0000
,
0100
0010
0000
0100
0000
0011
0000
0000
0001
0010
0100
1000
0000
0010
0100
0000
,
0010
0101
0000
0000
1000
0100
0000
0001
0000
0100
0001
0000
0010
1100
0000
0001
,
0000
0100
0001
0000
0010
0000
0100
0001
0000
1000
0110
0000
0001
0000
1000
0100
,
0010
0000
0100
0010
0000
0100
0010
0000
0001
0010
0000
0100
0010
0000
0100
1000
,
0000
0110
0000
0000
1000
0001
1000
0001
0000
0100
0001
0000
0100
0011
0000
0000
,
0010
0001
0000
0100
0001
0000
1000
0000
0010
0100
1001
0000
0100
0010
0100
0000
,
0010
0000
0010
0000
0010
0000
0010
0000
0110
0000
0000
0110
0000
0001
0000
1000
,
0001
0100
1010
0000
0100
0000
0010
0100
0000
0001
1000
0000
0011
0000
0000
0001
,
0000
0000
0100
0000
0010
1000
0000
0010
0100
0001
0100
0000
0000
0000
0010
0000
,
1001
0100
0000
0010
0000
0000
1001
0000
0000
1001
0000
0000
0010
0100
0000
0010
,
0100
0011
1000
0100
0000
0000
0001
0000
1001
0000
0100
0000
0000
0110
0000
0010
,
0000
0000
0100
1010
0000
0100
0000
0000
0010
0101
0000
0010
0000
0000
0100
1010
,
0000
0000
0000
0101
0000
0000
0110
0000
0000
1001
0000
0120
0000
0000
0100
0000
,
0000
0201
0000
0000
0030
0000
0000
0312
0000
0000
0010
0000
0000
2013
0000
0000
,
0000
0000
0000
3021
0000
0000
0001
0000
0000
0231
0000
0000
0000
0000
0000
1302
,
0000
0000
1000
0000
0000
1103
0000
0000
0000
0000
0000
0000
0010
0000
0000
0010
,
0000
0000
0012
0000
0000
0000
0000
0000
1200
0003
0000
1000
0000
0000
1320
0000
,
0000
0000
0000
0000
0132
0000
0000
0100
0000
0000
2103
0000
0000
0000
0000
0000
,
3120
0000
0000
0000
0000
0000
0000
0000
0000
0100
0000
0000
0000
0000
0000
0000
0000
0000
0131
0000
0000
0000
0000
0000
0000
0000
0001
0000
1000
0000
0001
0000
1000
0000
0001
0000
1000
0000
0000
0000
0000
0000
0000
0000
0000
1000
0000
0000
,
0000
0000
1002
0000
0000
0000
0000
0000
0210
0003
0000
0010
0000
0000
2310
0000
,
0000
0000
0000
0000
3012
0000
0000
0010
0000
0000
2013
0000
0000
0000
0000
0000
,
3000
0100
0000
0100
0000
1001
0000
0000
0000
0000
0000
0000
0010
0000
0000
0010
,
0000
0000
0012
0000
0000
0000
0000
0000
2100
0003
0000
0100
0000
0000
3120
0000
,
0000
0000
0000
0000
0030
0201
0000
0000
2301
0000
0000
3021
0000
0000
1230
0000
,
0000
0300
0000
0000
0001
0100
0000
0010
1000
0010
0000
0100
0000
0010
0010
0000
,
0100
0001
1000
0000
0000
0100
0001
0010
0010
0100
0000
0000
0010
0000
0000
0010
,
0100
0000
1000
0100
0000
0001
0000
0010
0100
0001
0000
0100
0010
0000
1000
0010
,
0000
0100
0000
1000
0000
0000
0010
0000
0010
0100
0000
0000
0001
0100
0000
0001
,
1000
0010
0000
0100
0010
0000
1000
0100
0000
0100
0010
0000
0000
0000
0000
0010
,
0000
0010
0100
0000
0000
0001
1000
0000
0001
0100
0000
0010
0100
0000
0010
1000
,
0000
0010
0100
0000
0001
0000
0000
0001
0000
0001
0100
0000
0010
1000
0000
0100
,
0000
0010
1000
0000
0100
0100
0000
0010
0100
0000
0010
0000
0000
0000
1000
0000
,
1000
0000
0010
0000
0100
0010
0000
0100
1000
0000
0010
0100
0000
0001
0100
0000
,
0010
0000
0001
0000
0000
0000
0001
0000
0100
0010
1000
0000
0000
0100
0010
0000
,
0100
0010
0000
1000
0000
0100
0010
0000
0100
0001
0000
0000
0000
0000
0001
0000
,
0100
0010
0100
0000
0001
0000
1000
0010
0000
0100
0000
0000
1001
0000
0000
0000
;
